osu file format v14

[General]
AudioFilename: audio.mp3
AudioLeadIn: 0
PreviewTime:35737
Countdown: 0
SampleSet: None
StackLeniency: 0.5
Mode: 0
LetterboxInBreaks: 0
WidescreenStoryboard: 1

[Editor]
DistanceSpacing: 0.9
BeatDivisor: 4
GridSize: 4
TimelineZoom: 2.5

[Metadata]
Title:Kaibutsu (TV Size)
TitleUnicode:怪物 (TV Size)
Artist:YOASOBI
ArtistUnicode:YOASOBI
Creator:Ryuusei Aika
Version:bongo's Insane
Source:BEASTARS
Tags:ビースターズ japanese furry anime op2 pop j-pop jpop opening theme 幾田りら Ikuta Rira Lilas Ayase Monster MoeAsuka Atrue SuperBox Fall Marle Calvaria Mariko Sakuragi Reiji Maigo SB hhjkl [Hatsune Miku] [Hatsune_Miku] Hatsune Miku Remapper _lai Kyrian 09kami Ducky- Acyl Acylica Bellicose wafer iWaifu KAMI NO KOTOBA Addy2607 KaedeharaKazuha Airincat Chompy Yooh Reywateil Amateurre Sparhten Ajisai- HabiHolic newton- Yuuma Ogura Yui fedora- UberFazz xidorn Pata-Mon PataMon Deca Wanpachi cycopton Gibune wiken Fuju Stratos Crystal OneShotFox Elcheer Fieryrage hypercyte hypercute Kittyadventure gokugohan12468 Kyouren Zelq ponbot Yuuma3 Mimari i love ganyu Flake yaspo Regraz Mafumafu bongo Moete Senseabel Senseable Kuse KuBsNia_ZhoYL_ wetdog123 eiri-
BeatmapID:2820215
BeatmapSetID:1335792

[Difficulty]
HPDrainRate:5
CircleSize:4
OverallDifficulty:8
ApproachRate:8.6
SliderMultiplier:1.60000000596046
SliderTickRate:1

[Events]
//Background and Video events
0,0,"furry.jpg",0,0
Video,-200,"OP.mp4"
//Break Periods
//Storyboard Layer 0 (Background)
//Storyboard Layer 1 (Fail)
//Storyboard Layer 2 (Pass)
//Storyboard Layer 3 (Foreground)
//Storyboard Layer 4 (Overlay)
//Storyboard Sound Samples

[TimingPoints]
-3395,352.941176470588,4,2,1,40,1,0
1546,-333.333333333333,4,2,1,40,0,0
2252,-133.333333333333,4,2,1,60,0,0
3663,-117.647058823529,4,2,1,60,0,0
4193,-133.333333333333,4,2,1,60,0,0
6663,-117.647058823529,4,2,1,60,0,0
7193,-133.333333333333,4,2,1,60,0,0
10722,-105.263157894737,4,2,1,60,0,0
13546,-90.9090909090909,4,2,1,70,0,0
24840,-133.333333333333,4,2,1,60,0,0
29604,-117.647058823529,4,2,1,60,0,0
30487,-100,4,2,1,75,0,0
35781,-100,4,2,1,60,0,0
36134,-80,4,2,1,80,0,1
55899,-100,4,2,1,80,0,0
67193,-86.9565217391304,4,2,1,80,0,0
75663,-76.9230769230769,4,2,1,80,0,1
84134,-76.9230769230769,4,2,1,70,0,0
86957,-76.9230769230769,4,2,1,90,0,0

[Colours]
Combo1 : 191,96,0
Combo2 : 143,32,255
Combo3 : 191,0,96
Combo4 : 0,80,159

[HitObjects]
69,225,1546,6,2,B|87:223|87:223|101:217|101:217|116:217|116:217|137:209,1,71.9999980709551,2|0,0:0|0:0,0:1:0:0:
194,73,2252,5,10,0:0:0:0:
194,73,2428,2,0,L|203:132,1,60.0000025123357,0|10,0:0|0:0,0:0:0:0:
286,191,2781,1,2,0:0:0:0:
286,191,2957,2,0,L|295:131,2,60.0000025123357,10|0|10,0:0|0:0|0:0,0:0:0:0:
227,268,3487,1,2,0:0:0:0:
319,346,3663,6,0,B|425:332|425:332|397:323,1,136.000003100633,10|8,0:0|0:0,0:0:0:0:
397,323,4193,2,0,L|385:204,1,120.000005024671,2|2,0:0|0:0,0:0:0:0:
213,357,4899,5,2,0:0:0:0:
213,357,5252,2,0,P|183:349|154:343,1,60.0000025123357,2|8,0:0|0:0,0:0:0:0:
16,323,5604,2,0,P|37:301|56:279,1,60.0000025123357,2|10,0:0|0:0,0:0:0:0:
143,170,5957,1,2,0:0:0:0:
143,170,6134,2,0,P|150:198|160:227,1,60.0000025123357,10|2,0:0|0:0,0:0:0:0:
18,46,6486,5,10,0:0:0:0:
18,136,6663,2,0,B|85:122|67:99|142:84,1,136.000003100633,2|2,0:0|0:0,0:0:0:0:
207,22,7193,2,0,P|224:46|233:74,1,60.0000025123357,10|2,0:0|0:0,0:0:0:0:
286,187,7546,2,0,P|303:163|312:135,1,60.0000025123357,10|2,0:0|0:0,0:0:0:0:
423,17,7899,5,10,0:0:0:0:
423,17,8075,2,0,L|408:75,1,60.0000025123357,0|10,0:0|0:0,0:0:0:0:
457,169,8428,1,2,0:0:0:0:
457,169,8604,2,0,L|471:227,2,60.0000025123357,10|2|10,0:0|0:0|0:0,0:0:0:0:
375,304,9134,1,2,0:0:0:0:
375,304,9310,6,0,L|386:245,2,60.0000025123357,10|0|10,0:0|0:0|0:0,0:0:0:0:
421,381,9840,2,0,P|367:355|308:344,1,120.000005024671,2|2,0:0|0:0,0:0:0:0:
220,367,10369,2,0,L|228:307,1,60.0000025123357,8|2,0:0|0:0,0:0:0:0:
272,157,10722,6,0,B|267:192|267:192|284:229,1,75.999998253703,8|2,0:0|0:0,0:0:0:0:
168,243,11075,2,0,B|174:209|174:209|157:172,1,75.999998253703,10|0,0:0|0:0,0:0:0:0:
173,251,11604,1,2,0:0:0:0:
207,97,11781,2,0,L|211:21,1,75.999998253703,10|2,0:0|0:0,0:0:0:0:
210,21,12134,5,10,0:0:0:0:
214,25,13369,1,0,0:0:0:0:
312,125,13546,6,0,P|354:113|398:111,1,88.0000030133723,10|0,0:0|0:0,0:0:0:0:
340,286,13899,1,2,1:2:0:0:
340,286,14075,2,0,P|309:254|284:218,1,88.0000030133723,2|10,0:0|0:0,0:0:0:0:
470,188,14428,2,0,P|458:230|438:269,1,88.0000030133723,2|2,0:0|1:2,0:0:0:0:
376,196,14781,1,2,0:0:0:0:
226,286,14957,6,0,B|129:304|158:336|64:350,1,176.000006026745,10|0,0:0|1:0,0:0:0:0:
64,350,15487,2,0,L|78:263,1,88.0000030133723,2|8,0:0|0:0,0:0:0:0:
188,177,15840,2,0,B|208:316|208:316|213:299|225:284,1,176.000006026745,2|2,0:0|0:0,0:0:0:0:
225,285,16546,5,2,0:0:0:0:
300,347,16722,2,0,L|385:325,1,88.0000030133723,0|2,1:0|0:0,0:0:0:0:
487,244,17075,2,0,L|401:222,1,88.0000030133723,10|2,0:0|0:0,0:0:0:0:
334,166,17428,1,2,1:2:0:0:
334,166,17604,1,2,0:0:0:0:
151,102,17781,5,10,0:0:0:0:
204,29,17957,2,0,L|188:204,1,176.000006026745,2|2,0:0|0:0,0:0:0:0:
81,230,18487,1,10,0:0:0:0:
81,230,18663,2,0,L|61:144,2,88.0000030133723,2|2|2,0:0|1:2|0:0,0:0:0:0:
86,347,19193,6,0,P|124:325|165:310,1,88.0000030133723,10|0,0:0|0:0,0:0:0:0:
338,318,19546,2,0,P|300:295|266:266,1,88.0000030133723,2|0,1:2|0:0,0:0:0:0:
197,117,19899,1,10,0:0:0:0:
197,117,20075,2,0,P|196:160|188:204,1,88.0000030133723,2|2,0:0|1:2,0:0:0:0:
181,19,20428,6,0,B|248:38|248:38|278:67|278:67|340:82,1,176.000006026745,2|2,0:0|0:0,0:0:0:0:
426,155,20957,2,0,B|446:89|446:89|432:102,1,88.0000030133723,2|2,1:2|0:0,0:0:0:0:
432,102,21487,5,2,0:0:0:0:
486,292,21840,1,2,0:0:0:0:
300,244,22193,1,2,0:0:0:0:
300,244,23252,1,2,0:0:0:0:
399,201,23428,5,10,0:0:0:0:
262,343,23781,1,2,1:2:0:0:
120,206,24134,1,10,0:0:0:0:
257,64,24487,1,2,1:2:0:0:
199,251,24840,6,0,L|317:235,1,120.000005024671,10|2,0:1|1:2,0:0:0:0:
317,235,25369,1,10,1:1:0:0:
400,311,25546,2,0,L|415:253,1,60.0000025123357,2|10,0:0|0:1,0:0:0:0:
415,253,25899,1,0,1:2:0:0:
483,156,26075,6,0,B|443:150|443:150|403:124|403:124|371:120,1,120.000005024671,10|2,0:1|0:0,0:0:0:0:
371,120,26604,1,2,1:2:0:0:
371,120,26781,1,2,1:2:0:0:
279,154,27134,5,10,0:1:0:0:
221,78,27310,2,0,L|162:66,1,60.0000025123357,2|2,1:2|0:0,0:0:0:0:
69,24,27663,6,0,L|85:142,1,120.000005024671,10|2,0:1|1:2,0:0:0:0:
85,142,28193,1,10,1:1:0:0:
90,260,28546,5,10,0:1:0:0:
90,260,28722,2,0,P|61:252|31:246,1,60.0000025123357,0|10,1:2|0:1,0:0:0:0:
169,215,29075,6,0,P|225:233|285:236,1,120.000005024671,2|2,0:0|1:2,0:0:0:0:
285,236,29604,2,0,L|278:169,1,68.0000015503166,2|10,1:2|0:1,0:0:0:0:
336,22,29957,5,2,0:0:0:0:
385,93,30134,2,0,L|374:160,1,68.0000015503166,10|2,0:1|0:0,0:0:0:0:
388,186,30399,1,0,0:0:0:0:
388,186,30487,6,0,B|384:237|384:237|414:296|414:296|405:337,1,160.000000596046,14|2,0:0|1:2,0:0:0:0:
404,337,31016,1,2,1:2:0:0:
300,366,31193,1,10,0:0:0:0:
300,366,31369,2,0,L|222:347,1,80.000000298023,2|0,0:0|1:0,0:0:0:0:
84,207,31722,1,2,0:0:0:0:
77,296,31899,6,0,B|145:272|145:272|149:264|149:264|223:239,1,160.000000596046,8|2,0:0|1:2,0:0:0:0:
223,238,32428,2,0,P|236:200|241:160,1,80.000000298023,2|8,1:2|0:0,0:0:0:0:
173,43,32781,2,0,P|160:80|155:120,2,80.000000298023,2|2|2,0:0|1:2|0:0,0:0:0:0:
377,54,33310,5,10,0:0:0:0:
377,54,33663,2,0,L|299:68,1,80.000000298023,2|0,1:2|1:0,0:0:0:0:
240,161,34016,2,0,L|319:172,2,80.000000298023,10|2|0,0:0|0:0|1:0,0:0:0:0:
240,161,34545,5,2,0:0:0:0:
244,165,35781,1,2,0:1:0:0:
498,291,36134,5,14,0:0:0:0:
407,321,36310,2,0,P|411:271|424:222,1,100.000000372529,2|0,0:0|1:0,0:0:0:0:
280,84,36663,1,2,0:0:0:0:
371,53,36839,2,0,P|366:102|353:151,1,100.000000372529,10|0,0:0|0:0,0:0:0:0:
162,281,37193,1,2,1:2:0:0:
323,250,37369,6,0,B|254:231|254:231|220:197|220:197|139:180,1,200.000000745057,2|2,0:0|0:0,0:0:0:0:
117,368,37899,2,0,P|147:328|161:280,1,100.000000372529,2|2,1:2|0:0,0:0:0:0:
92,93,38252,5,10,0:0:0:0:
92,93,38604,1,2,1:2:0:0:
379,55,38957,5,10,0:0:0:0:
416,215,39134,2,0,L|439:117,1,100.000000372529,2|0,0:0|1:0,0:0:0:0:
501,255,39487,5,2,0:0:0:0:
433,328,39663,2,0,L|337:303,1,100.000000372529,10|0,0:0|0:0,0:0:0:0:
318,214,40016,1,2,1:2:0:0:
232,367,40193,5,2,0:0:0:0:
232,367,40546,5,2,0:0:0:0:
143,257,40722,1,2,1:2:0:0:
32,346,40899,1,2,0:0:0:0:
40,195,41075,5,10,0:0:0:0:
137,371,41252,1,2,0:0:0:0:
224,177,41428,1,2,1:2:0:0:
149,274,41604,1,2,0:0:0:0:
139,104,41781,6,0,P|91:89|41:88,1,100.000000372529,10|0,0:0|0:0,0:0:0:0:
239,76,42134,2,0,P|275:42|300:0,1,100.000000372529,2|0,1:2|0:0,0:0:0:0:
224,177,42487,2,0,P|235:225|259:268,1,100.000000372529,10|0,0:0|0:0,0:0:0:0:
440,330,42840,2,0,P|476:296|501:253,1,100.000000372529,2|0,1:2|0:0,0:0:0:0:
386,105,43193,6,0,P|349:138|324:181,1,100.000000372529,10|0,0:0|0:0,0:0:0:0:
193,343,43546,2,0,P|240:357|290:358,1,100.000000372529,2|0,1:2|0:0,0:0:0:0:
478,380,43899,2,0,P|466:331|442:288,1,100.000000372529,10|0,0:0|0:0,0:0:0:0:
224,177,44252,2,0,P|235:225|259:268,1,100.000000372529,2|0,1:2|0:0,0:0:0:0:
70,341,44604,6,0,P|119:255|113:157,1,200.000000745057,10|2,0:0|1:2,0:0:0:0:
113,157,45134,2,0,L|14:139,1,100.000000372529,2|10,0:0|0:0,0:0:0:0:
14,139,45487,1,0,0:0:0:0:
190,19,45663,5,2,1:2:0:0:
116,66,45840,2,0,L|314:42,1,200.000000745057,2|2,0:0|0:0,0:0:0:0:
477,236,46369,1,2,1:2:0:0:
488,138,46546,2,0,B|371:157|420:202|307:214,1,200.000000745057,2|2,0:0|1:2,0:0:0:0:
240,147,47075,1,2,1:2:0:0:
86,304,47252,2,0,L|36:297,1,50.0000001862644,2|2,1:2|1:2,0:0:0:0:
102,346,47428,6,0,B|118:295|118:295|103:197|103:197|119:152,1,200.000000745057,14|0,0:0|1:0,0:0:0:0:
18,136,47957,1,2,0:0:0:0:
199,218,48134,1,10,0:0:0:0:
199,218,48310,2,0,B|276:234|276:234|312:264|312:264|385:275,1,200.000000745057,2|2,0:0|0:0,0:0:0:0:
385,275,48840,6,0,L|398:374,1,100.000000372529,10|2,0:0|0:0,0:0:0:0:
304,112,49193,2,0,L|290:211,1,100.000000372529,2|2,1:2|0:0,0:0:0:0:
290,211,49722,5,2,0:0:0:0:
425,167,49899,1,2,1:2:0:0:
229,41,50075,2,0,B|70:64|70:64|105:80,1,200.000000745057,2|2,0:0|0:0,0:0:0:0:
241,286,50604,5,2,1:2:0:0:
153,337,50781,2,0,L|180:125,1,200.000000745057,2|2,0:0|0:0,0:0:0:0:
348,219,51310,5,2,1:2:0:0:
398,138,51487,2,0,B|273:128|273:128|277:168|252:197,1,200.000000745057,2|2,0:0|0:0,0:0:0:0:
66,198,52016,6,0,P|57:100|121:27,1,200.000000745057,2|10,1:2|0:0,0:0:0:0:
120,27,52546,2,0,L|218:44,1,100.000000372529,2|2,0:0|1:2,0:0:0:0:
158,149,52899,1,2,0:0:0:0:
264,237,53075,6,0,P|313:228|361:215,1,100.000000372529,10|0,0:0|0:0,0:0:0:0:
473,72,53428,2,0,P|455:118|442:167,1,100.000000372529,2|0,1:2|0:0,0:0:0:0:
512,336,53781,2,0,P|480:297|444:262,1,100.000000372529,10|0,0:0|0:0,0:0:0:0:
358,52,54134,2,0,P|322:87|290:125,1,100.000000372529,2|0,1:2|0:0,0:0:0:0:
193,351,54487,6,0,P|242:343|291:332,1,100.000000372529,10|0,0:0|0:0,0:0:0:0:
69,127,54840,2,0,P|50:173|36:221,1,100.000000372529,2|0,1:2|0:0,0:0:0:0:
63,334,55193,2,0,P|133:264|180:176,1,200.000000745057,10|2,0:0|1:2,0:0:0:0:
153,95,55722,1,0,0:0:0:0:
381,66,55899,6,0,P|311:102|288:176,1,160.000000596046,14|0,0:0|1:0,0:0:0:0:
416,306,56428,1,0,0:0:0:0:
432,211,56604,2,0,B|374:222|374:222|340:255|340:255|288:268,2,160.000000596046,10|2|10,0:0|1:2|0:0,0:0:0:0:
432,211,57487,5,0,0:0:0:0:
218,341,57663,2,0,P|203:303|199:264,1,80.000000298023,2|0,1:2|0:0,0:0:0:0:
89,57,58016,2,0,P|128:62|164:79,1,80.000000298023,10|0,0:0|0:0,0:0:0:0:
72,236,58369,2,0,P|96:204|129:181,1,80.000000298023,2|0,1:2|0:0,0:0:0:0:
129,181,58722,5,10,0:0:0:0:
307,292,59075,2,0,L|386:301,2,80.000000298023,2|0|10,1:2|0:0|0:0,0:0:0:0:
307,292,59604,1,0,0:0:0:0:
457,189,59781,2,0,B|333:172|333:172|355:200,1,160.000000596046,2|10,1:2|0:0,0:0:0:0:
355,200,60487,6,0,L|371:121,1,80.000000298023,2|0,1:2|0:0,0:0:0:0:
228,190,60840,2,0,L|211:111,1,80.000000298023,10|0,0:0|0:0,0:0:0:0:
74,173,61193,2,0,L|90:94,1,80.000000298023,2|0,1:2|0:0,0:0:0:0:
14,253,61546,6,0,P|88:276|119:347,3,160.000000596046,10|2|10|2,0:0|1:2|0:0|1:2,0:0:0:0:
361,337,62957,2,0,P|292:300|215:313,1,160.000000596046,10|2,0:0|1:2,0:0:0:0:
425,187,63663,2,0,P|393:210|370:242,1,80.000000298023,10|0,0:0|0:0,0:0:0:0:
260,214,64016,2,0,P|254:174|239:137,1,80.000000298023,2|0,1:2|0:0,0:0:0:0:
435,79,64369,6,0,P|357:91|288:53,3,160.000000596046,10|2|10|2,0:0|1:2|0:0|1:2,0:0:0:0:
129,172,65781,2,0,L|157:97,1,80.000000298023,10|0,0:0|0:0,0:0:0:0:
44,190,66134,1,0,1:0:0:0:
44,189,66310,2,0,P|118:212|156:280,1,160.000000596046,2|2,0:0|0:0,0:0:0:0:
80,333,66840,2,0,L|2:314,1,80.000000298023,2|2,1:2|0:0,0:0:0:0:
294,311,67193,5,14,0:0:0:0:
235,368,67369,2,0,L|261:185,1,184.000004194974,2|2,0:0|0:0,0:0:0:0:
422,89,67899,5,10,0:0:0:0:
419,182,68075,2,0,B|329:151|356:124|260:92,1,184.000004194974,2|2,0:0|0:0,0:0:0:0:
86,180,68604,6,0,P|128:159|172:148,1,92.0000020974872,10|2,0:0|0:0,0:0:0:0:
150,338,68957,2,0,P|194:326|235:306,1,92.0000020974872,2|2,1:2|0:0,0:0:0:0:
235,306,69487,5,2,0:0:0:0:
162,246,69664,1,2,1:2:0:0:
305,380,69840,2,0,B|331:335|331:335|314:203,1,184.000004194974,2|2,0:0|0:0,0:0:0:0:
282,71,70369,5,2,1:2:0:0:
413,178,70546,2,0,L|231:150,1,184.000004194974,2|2,0:0|0:0,0:0:0:0:
5,221,71075,5,2,1:2:0:0:
45,299,71252,2,0,P|58:208|87:120,1,184.000004194974,2|2,0:0|0:0,0:0:0:0:
155,343,71781,6,0,P|240:309|330:290,1,184.000004194974,2|8,1:2|0:0,0:0:0:0:
330,290,72310,1,2,0:0:0:0:
436,317,72487,2,0,L|417:226,1,92.0000020974872,2|2,1:2|0:0,0:0:0:0:
383,42,72840,6,0,P|362:82|348:126,1,92.0000020974872,10|0,0:0|0:0,0:0:0:0:
132,154,73193,2,0,P|177:151|222:141,1,92.0000020974872,2|0,1:2|0:0,0:0:0:0:
354,315,73546,2,0,P|329:276|297:242,1,92.0000020974872,10|0,0:0|0:0,0:0:0:0:
78,67,73899,2,0,P|49:103|29:144,1,92.0000020974872,2|0,1:2|0:0,0:0:0:0:
176,365,74252,6,0,P|197:323|210:279,1,92.0000020974872,10|0,0:0|0:0,0:0:0:0:
417,121,74604,2,0,P|370:123|325:133,1,92.0000020974872,2|0,1:2|0:0,0:0:0:0:
86,35,74957,2,0,P|111:73|143:107,1,92.0000020974872,10|0,0:0|0:0,0:0:0:0:
227,176,75310,1,2,0:0:0:0:
227,176,75663,6,0,B|241:150|241:150|235:110|235:110|243:77,1,103.999995626688,14|0,0:1|0:0,0:0:0:0:
254,61,75928,1,2,0:1:0:0:
254,61,76016,1,0,1:0:0:0:
391,107,76193,2,0,B|385:159|385:159|403:207,2,103.999995626688,2|10|0,0:1|0:1|0:0,0:0:0:0:
482,256,76722,2,0,B|500:207|500:207|494:155,1,103.999995626688,2|2,1:1|0:1,0:0:0:0:
398,300,77075,6,0,B|343:306|343:306|297:289,1,103.999995626688,14|0,0:1|0:0,0:0:0:0:
282,272,77340,1,2,0:1:0:0:
282,272,77428,1,0,1:0:0:0:
101,229,77604,1,2,0:1:0:0:
179,308,77781,2,0,B|198:228|198:228|179:239,3,103.999995626688,10|0|2|2,0:1|0:0|1:1|0:1,0:0:0:0:
147,133,78487,6,0,L|45:108,1,103.999995626688,14|0,0:1|0:0,0:0:0:0:
20,85,78752,1,2,0:1:0:0:
20,85,78840,1,0,1:0:0:0:
187,49,79016,2,0,L|288:28,1,103.999995626688,2|10,0:1|0:1,0:0:0:0:
374,150,79369,2,0,L|272:129,1,103.999995626688,0|2,0:0|1:1,0:0:0:0:
311,221,79722,1,2,0:1:0:0:
434,75,79899,6,0,B|475:109|475:109|471:159,1,103.999995626688,14|0,0:1|0:0,0:0:0:0:
482,186,80163,1,2,0:1:0:0:
482,186,80252,1,0,1:0:0:0:
409,282,80428,2,0,L|390:179,2,103.999995626688,2|10|2,0:1|0:1|0:1,0:0:0:0:
315,347,80957,1,2,1:1:0:0:
220,286,81134,1,2,0:1:0:0:
103,312,81310,6,0,B|122:259|122:259|123:212,1,103.999995626688,14|0,0:1|0:0,0:0:0:0:
116,187,81575,1,2,0:1:0:0:
116,187,81663,1,0,1:0:0:0:
27,117,81840,1,2,0:1:0:0:
125,73,82016,2,0,L|227:88,3,103.999995626688,10|0|2|2,0:1|0:0|1:1|0:1,0:0:0:0:
325,39,82722,6,0,L|336:142,1,103.999995626688,14|0,0:1|0:0,0:0:0:0:
354,164,82987,1,2,0:1:0:0:
354,164,83075,1,0,1:0:0:0:
431,253,83252,2,0,L|454:151,2,103.999995626688,2|10|2,0:1|0:1|0:1,0:0:0:0:
293,329,83781,2,0,L|269:227,2,103.999995626688,2|2|14,1:1|0:1|0:1,0:0:0:0:
256,192,84222,12,14,86957,0:1:0:0:
