osu file format v14

[General]
AudioFilename: audio.mp3
AudioLeadIn: 0
PreviewTime:35737
Countdown: 0
SampleSet: Soft
StackLeniency: 0.3
Mode: 0
LetterboxInBreaks: 0
WidescreenStoryboard: 1

[Editor]
DistanceSpacing: 0.8
BeatDivisor: 4
GridSize: 32
TimelineZoom: 2.5

[Metadata]
Title:Kaibutsu (TV Size)
TitleUnicode:怪物 (TV Size)
Artist:YOASOBI
ArtistUnicode:YOASOBI
Creator:Ryuusei Aika
Version:Zelq's Expert
Source:BEASTARS
Tags:ビースターズ japanese furry anime op2 pop j-pop jpop opening theme 幾田りら Ikuta Rira Lilas Ayase Monster MoeAsuka Atrue SuperBox Fall Marle Calvaria Mariko Sakuragi Reiji Maigo SB hhjkl [Hatsune Miku] [Hatsune_Miku] Hatsune Miku Remapper _lai Kyrian 09kami Ducky- Acyl Acylica Bellicose wafer iWaifu KAMI NO KOTOBA Addy2607 KaedeharaKazuha Airincat Chompy Yooh Reywateil Amateurre Sparhten Ajisai- HabiHolic newton- Yuuma Ogura Yui fedora- UberFazz xidorn Pata-Mon PataMon Deca Wanpachi cycopton Gibune wiken Fuju Stratos Crystal OneShotFox Elcheer Fieryrage hypercyte hypercute Kittyadventure gokugohan12468 Kyouren Zelq ponbot Yuuma3 Mimari i love ganyu Flake yaspo Regraz Mafumafu bongo Moete Senseabel Senseable Kuse KuBsNia_ZhoYL_ wetdog123 eiri-
BeatmapID:2820256
BeatmapSetID:1335792

[Difficulty]
HPDrainRate:7
CircleSize:4
OverallDifficulty:8
ApproachRate:9
SliderMultiplier:2.00000000596046
SliderTickRate:1

[Events]
//Background and Video events
0,0,"furry.jpg",0,0
Video,-200,"OP.mp4"
//Break Periods
//Storyboard Layer 0 (Background)
//Storyboard Layer 1 (Fail)
//Storyboard Layer 2 (Pass)
//Storyboard Layer 3 (Foreground)
//Storyboard Layer 4 (Overlay)
//Storyboard Sound Samples

[TimingPoints]
-3395,352.941176470588,4,2,1,40,1,0
1546,-200,4,2,1,40,0,0
2252,-111.111111111111,4,2,1,60,0,0
13193,-90.9090909090908,4,2,1,60,0,0
13369,-71.4285714285714,4,2,1,60,0,0
13546,-90.9090909090909,4,2,1,70,0,0
24840,-90.9090909090909,4,2,1,60,0,0
30487,-90.9090909090909,4,2,1,75,0,0
35781,-90.9090909090909,4,2,1,60,0,0
36134,-71.4285714285714,4,2,1,80,0,0
55546,-62.5,4,2,1,80,0,0
55899,-83.3333333333333,4,2,1,80,0,0
74252,-100,4,2,1,80,0,0
74957,-125,4,2,1,80,0,0
75663,-76.9230769230769,4,2,1,80,0,0
84133,-76.9230769230769,4,2,1,70,0,0
86957,-76.9230769230769,4,2,1,90,0,0

[Colours]
Combo1 : 191,96,0
Combo2 : 143,32,255
Combo3 : 191,0,96
Combo4 : 0,80,159

[HitObjects]
35,343,1546,5,2,0:0:0:0:
35,343,1634,2,0,P|91:354|145:371,1,100.000000298023
132,366,2075,1,0,0:0:0:0:
202,242,2252,6,0,P|160:258|116:267,1,89.9999975216388,10|0,0:0|0:0,0:0:0:0:
20,202,2604,2,0,B|8:159|8:159|32:121,1,89.9999975216388,10|2,0:0|0:0,0:0:0:0:
195,62,2957,2,0,P|236:78|280:87,1,89.9999975216388,10|0,0:0|0:0,0:0:0:0:
128,12,3310,2,0,B|103:49|103:49|115:92,1,89.9999975216388,10|2,0:0|0:0,0:0:0:0:
280,87,3663,6,0,B|386:102|341:17|470:41,1,179.999995043278,10|8,0:0|0:0,0:0:0:0:
512,176,4193,2,0,B|524:220|524:220|494:265,1,89.9999975216388,2|8,0:0|0:0,0:0:0:0:
368,234,4546,2,0,B|356:190|356:190|386:145,1,89.9999975216388,2|8,0:0|0:0,0:0:0:0:
408,357,4899,2,0,P|344:333|276:321,1,134.999996282458,2|0,0:0|0:0,0:0:0:0:
197,344,5252,6,0,P|163:372|119:382,2,89.9999975216388,2|8|2,0:0|0:0|0:0,0:0:0:0:
130,194,5781,1,10,0:0:0:0:
281,238,5957,1,2,0:0:0:0:
111,187,6134,2,0,P|83:220|85:265,1,89.9999975216388,10|2,0:0|0:0,0:0:0:0:
268,233,6487,6,0,L|259:168,1,44.9999987608194,10|0,0:0|0:0,0:0:0:0:
306,74,6663,2,0,P|271:149|190:130,1,179.999995043278,2|2,0:0|0:0,0:0:0:0:
380,171,7193,1,10,0:0:0:0:
200,114,7369,1,2,0:0:0:0:
397,178,7546,2,0,B|425:142|425:142|409:95,1,89.9999975216388,10|2,0:0|0:0,0:0:0:0:
323,370,7899,5,10,0:0:0:0:
465,339,8075,1,0,0:0:0:0:
344,265,8252,1,10,0:0:0:0:
234,305,8428,2,0,L|189:299,1,44.9999987608194,2|0,0:0|0:0,0:0:0:0:
72,285,8604,6,0,P|84:327|73:370,1,89.9999975216388,10|2,0:0|0:0,0:0:0:0:
221,214,8957,2,0,P|209:171|177:140,1,89.9999975216388,10|2,0:0|0:0,0:0:0:0:
4,236,9310,1,10,0:0:0:0:
84,133,9487,1,0,0:0:0:0:
33,11,9663,1,10,0:0:0:0:
189,0,9840,6,0,B|302:16|236:69|347:87,1,179.999995043278,2|2,0:0|0:0,0:0:0:0:
424,39,10369,1,8,0:0:0:0:
485,209,10546,6,0,B|513:171|513:171|497:130,1,89.9999975216388,2|8,0:0|0:0,0:0:0:0:
382,166,10899,2,0,B|324:180|324:180|290:220|290:220|225:238,1,179.999995043278,2|0,0:0|0:0,0:0:0:0:
231,139,11428,1,8,0:0:0:0:
364,277,11604,2,0,L|465:305,1,89.9999975216388,2|10,0:0|0:0,0:0:0:0:
256,384,11957,5,2,0:0:0:0:
145,260,12134,1,10,0:0:0:0:
175,81,12310,1,2,0:0:0:0:
289,219,12487,1,10,0:0:0:0:
91,362,12663,6,0,B|74:365|62:374|62:374|62:311|27:265|27:265|18:276|11:308,1,179.999995043278,2|2,0:0|0:0,0:0:0:0:
14,293,13193,6,0,B|39:296|39:296|44:294|44:294|68:296,1,55.0000018423795,2|0,0:3|0:0,0:0:0:0:
145,260,13369,6,0,P|166:241|171:191,1,69.9999980723857,2|0,0:0|0:0,0:0:0:0:
270,119,13546,6,0,P|324:124|366:158,1,110.000003684759,10|0,0:0|0:0,0:0:0:0:
318,371,13899,1,2,1:2:0:0:
241,286,14075,1,2,0:0:0:0:
460,178,14252,1,10,0:0:0:0:
423,300,14428,1,2,0:0:0:0:
270,119,14604,1,2,1:2:0:0:
414,71,14781,1,2,0:0:0:0:
196,14,14957,6,0,B|128:27|128:27|155:175,1,220.000007369518,10|0,0:0|1:0,0:0:0:0:
57,384,15487,2,0,B|33:336|33:336|54:283,1,110.000003684759,2|8,0:0|0:0,0:0:0:0:
295,208,15840,2,0,B|315:155|315:155|292:107,1,110.000003684759,2|0,0:0|1:0,0:0:0:0:
55,184,16193,6,0,B|188:205|104:282|244:311,1,220.000007369518,2|2,0:0|0:0,0:0:0:0:
404,269,16722,1,0,1:0:0:0:
295,208,16899,1,2,0:0:0:0:
389,38,17075,1,10,0:0:0:0:
487,131,17252,1,2,0:0:0:0:
295,208,17428,1,2,1:2:0:0:
177,255,17604,1,2,0:0:0:0:
323,384,17781,6,0,P|339:364|336:323,1,55.0000018423795,10|0,0:0|0:0,0:0:0:0:
403,269,17957,2,0,P|339:351|236:333,1,220.000007369518,2|2,0:0|0:0,0:0:0:0:
209,163,18487,2,0,P|218:112|176:72,1,110.000003684759,10|2,0:0|0:0,0:0:0:0:
44,193,18840,2,0,P|35:244|77:284,1,110.000003684759,2|2,1:2|0:0,0:0:0:0:
306,252,19193,6,0,B|318:172|318:172|303:114|303:114|317:20,1,220.000007369518,10|2,0:0|1:2,0:0:0:0:
314,35,19722,1,0,0:0:0:0:
209,163,19899,1,10,0:0:0:0:
360,321,20075,1,2,0:0:0:0:
449,123,20252,1,2,1:2:0:0:
313,27,20428,6,0,P|206:53|112:109,1,220.000007369518,2|2,0:0|0:0,0:0:0:0:
110,12,20957,1,2,1:2:0:0:
230,165,21134,2,0,P|283:156|321:117,1,110.000003684759,2|8,0:0|0:0,0:0:0:0:
421,0,21487,2,0,P|474:8|512:47,1,110.000003684759,2|2,0:0|1:2,0:0:0:0:
494,209,21840,6,0,P|394:241|371:344,1,220.000007369518,2|2,0:0|0:0,0:0:0:0:
157,299,22369,1,2,1:2:0:0:
285,246,22546,1,0,0:0:0:0:
79,232,22722,2,0,B|42:276|42:276|58:325,1,110.000003684759,10|2,0:0|0:0,0:0:0:0:
238,376,23075,1,0,1:0:0:0:
178,206,23252,6,0,L|160:128,1,55.0000018423795,2|0,0:0|0:0,0:0:0:0:
82,116,23428,2,0,B|129:129|129:129|240:95,1,165.000005527139,10|0,0:0|0:0,0:0:0:0:
298,36,23781,2,0,B|361:18|361:18|404:28,1,110.000003684759,2|0,1:2|0:0,0:0:0:0:
307,156,24134,2,0,B|255:143|255:143|205:35|205:35|158:24,1,220.000007369518,10|2,0:0|1:2,0:0:0:0:
72,4,24663,1,0,0:0:0:0:
157,299,24840,5,10,0:1:0:0:
157,299,25369,5,10,1:1:0:0:
299,265,25546,1,2,0:0:0:0:
445,227,25722,1,10,0:1:0:0:
445,227,26075,5,10,0:1:0:0:
256,192,26252,1,2,0:0:0:0:
84,154,26428,1,2,0:0:0:0:
445,227,26604,1,2,1:2:0:0:
84,154,26781,1,2,1:2:0:0:
84,154,27134,5,10,0:1:0:0:
44,288,27310,1,2,1:2:0:0:
139,384,27487,1,2,0:0:0:0:
180,261,27663,1,10,0:1:0:0:
84,154,28016,5,2,1:2:0:0:
44,288,28369,5,2,0:0:0:0:
180,261,28546,1,10,0:1:0:0:
180,261,28899,5,10,0:1:0:0:
207,136,29075,1,2,0:0:0:0:
232,13,29252,1,2,0:0:0:0:
256,313,29428,1,2,1:2:0:0:
232,13,29604,2,0,L|340:30,1,110.000003684759,2|10,1:2|0:1,0:0:0:0:
473,321,29957,5,2,0:0:0:0:
334,165,30134,1,10,0:1:0:0:
457,2,30310,5,2,0:0:0:0:
457,2,30399,1,0,0:0:0:0:
457,2,30487,2,0,L|441:112,1,110.000003684759,14|0,0:0|0:0,0:0:0:0:
473,321,30840,6,0,L|400:347,1,55.0000018423795,2|0,1:2|0:0,0:0:0:0:
330,375,31016,2,0,L|251:355,1,55.0000018423795,2|0,1:2|0:0,0:0:0:0:
182,331,31193,1,10,0:0:0:0:
334,165,31369,2,0,P|408:182|409:259,1,165.000005527139,2|0,0:0|0:0,0:0:0:0:
331,279,31722,2,0,L|222:256,1,110.000003684759,2|8,0:0|0:0,0:0:0:0:
36,360,32075,5,2,0:0:0:0:
193,183,32252,1,2,1:2:0:0:
31,82,32428,2,0,B|14:134|14:134|40:182,1,110.000003684759,2|8,1:2|0:0,0:0:0:0:
182,331,32781,1,2,0:0:0:0:
9,266,32957,1,2,1:2:0:0:
168,90,33134,1,2,0:0:0:0:
333,164,33310,6,0,P|387:167|426:131,1,110.000003684759,10|0,0:0|0:0,0:0:0:0:
270,2,33663,2,0,P|261:28|260:63,1,55.0000018423795,2|0,1:2|0:0,0:0:0:0:
168,90,33840,2,0,P|171:126|181:159,1,55.0000018423795,0|0,1:0|0:0,0:0:0:0:
260,234,34016,1,10,0:0:0:0:
145,369,34193,2,0,L|35:359,1,110.000003684759,2|0,0:0|1:0,0:0:0:0:
353,268,34546,2,0,P|364:294|363:321,1,55.0000018423795,2|0,0:0|0:0,0:0:0:0:
257,384,34722,5,8,0:0:0:0:
127,258,34899,5,2,0:0:0:0:
183,192,35075,1,10,0:0:0:0:
260,234,35252,1,2,0:0:0:0:
205,301,35428,1,10,0:0:0:0:
256,0,35781,5,2,0:1:0:0:
481,83,36134,6,0,L|472:152,1,69.9999980723857,14|0,0:0|0:0,0:0:0:0:
487,280,36310,2,0,P|434:236|365:228,1,139.999996144771,2|0,0:0|1:0,0:0:0:0:
0,358,36663,2,0,L|80:373,1,69.9999980723857,2|0,0:0|0:0,0:0:0:0:
205,301,36840,2,0,B|182:319|150:318|150:318|119:259|55:230|55:230|1:251|1:251|63:266,1,279.999992289543,10|2,0:0|1:2,0:0:0:0:
256,0,37369,6,0,P|307:44|313:112,1,139.999996144771,2|8,0:0|0:0,0:0:0:0:
178,215,37722,1,2,0:0:0:0:
83,71,37899,1,2,1:2:0:0:
369,0,38075,1,2,0:0:0:0:
485,237,38252,2,0,B|393:214|393:214|372:219|372:219|278:197,1,209.999994217157,10|0,0:0|0:0,0:0:0:0:
178,215,38604,2,0,P|197:245|203:279,1,69.9999980723857,2|0,1:2|0:0,0:0:0:0:
165,373,38781,1,0,0:0:0:0:
6,228,38957,6,0,P|2:193|18:162,1,69.9999980723857,10|0,0:0|0:0,0:0:0:0:
83,71,39134,2,0,P|136:113|205:109,1,139.999996144771,2|0,0:0|1:0,0:0:0:0:
512,81,39487,2,0,L|440:65,1,69.9999980723857,2|0,0:0|0:0,0:0:0:0:
373,0,39663,2,0,P|315:32|322:98,1,139.999996144771,10|0,0:0|0:0,0:0:0:0:
485,237,40016,1,2,1:2:0:0:
427,364,40193,6,0,B|364:352|364:352|394:138,1,279.999992289543,2|2,0:0|0:0,0:0:0:0:
232,20,40722,1,2,1:2:0:0:
95,183,40899,1,2,0:0:0:0:
219,373,41075,5,10,0:0:0:0:
257,215,41252,1,2,0:0:0:0:
95,183,41428,1,2,1:2:0:0:
61,340,41604,1,2,0:0:0:0:
219,373,41781,6,0,P|278:369|282:283,1,139.999996144771,10|0,0:0|0:0,0:0:0:0:
272,46,42134,2,0,P|362:68|331:156,1,209.999994217157,2|0,1:2|0:0,0:0:0:0:
257,215,42487,2,0,B|53:186|53:186|96:189|133:179,1,279.999992289543,10|2,0:0|1:2,0:0:0:0:
165,302,43016,1,0,0:0:0:0:
70,95,43193,6,0,P|104:40|176:59,1,139.999996144771,10|0,0:0|0:0,0:0:0:0:
395,222,43546,2,0,P|460:214|479:150,1,139.999996144771,2|0,1:2|0:0,0:0:0:0:
41,246,43899,2,0,L|58:384,1,139.999996144771,10|0,0:0|0:0,0:0:0:0:
479,150,44252,2,0,L|496:11,1,139.999996144771,2|0,1:2|0:0,0:0:0:0:
492,345,44604,6,0,B|455:363|455:363|357:344,1,139.999996144771,10|0,0:0|0:0,0:0:0:0:
165,302,44957,1,2,1:2:0:0:
381,123,45134,1,2,0:0:0:0:
170,52,45310,2,0,B|128:107|128:107|148:183,1,139.999996144771,10|0,0:0|0:0,0:0:0:0:
392,251,45663,1,2,1:2:0:0:
253,384,45840,6,0,L|280:105,1,279.999992289543,2|2,0:0|0:0,0:0:0:0:
280,105,46369,1,2,1:2:0:0:
162,275,46546,2,0,P|102:308|23:295,1,139.999996144771,2|10,0:0|0:0,0:0:0:0:
339,360,46899,1,2,1:2:0:0:
370,367,46987,1,2,1:2:0:0:
440,334,47075,1,2,1:2:0:0:
469,327,47163,1,0,1:0:0:0:
469,248,47252,1,2,1:2:0:0:
486,220,47340,1,2,1:2:0:0:
454,144,47428,6,0,B|354:117|374:244|226:206,1,209.999994217157,14|0,0:0|0:0,0:0:0:0:
188,109,47781,2,0,P|181:142|194:174,1,69.9999980723857,0|0,1:0|0:0,0:0:0:0:
349,226,47957,1,2,0:0:0:0:
433,50,48134,1,10,0:0:0:0:
113,29,48310,2,0,B|69:88|69:88|86:153,1,139.999996144771,2|0,0:0|1:0,0:0:0:0:
154,368,48663,1,2,0:0:0:0:
20,250,48840,6,0,P|51:234|85:236,1,69.9999980723857,10|0,0:0|0:0,0:0:0:0:
179,192,49016,2,0,P|207:211|223:242,1,69.9999980723857,2|0,0:0|0:0,0:0:0:0:
310,295,49193,2,0,P|307:329|288:358,1,69.9999980723857,2|0,1:2|0:0,0:0:0:0:
154,368,49369,2,0,L|15:349,1,139.999996144771,2|8,0:0|0:0,0:0:0:0:
305,364,49722,6,0,P|323:334|326:300,1,69.9999980723857,2|0,0:0|0:0,0:0:0:0:
355,184,49899,2,0,P|338:153|310:133,1,69.9999980723857,2|0,1:2|0:0,0:0:0:0:
229,38,50075,2,0,L|88:60,1,139.999996144771,2|8,0:0|0:0,0:0:0:0:
330,125,50428,6,0,P|358:144|374:175,1,69.9999980723857,2|0,0:0|0:0,0:0:0:0:
350,307,50604,2,0,P|347:341|328:370,1,69.9999980723857,2|0,1:2|0:0,0:0:0:0:
175,217,50781,2,0,B|316:187|264:341|473:291,1,279.999992289543,2|2,0:0|0:0,0:0:0:0:
496,158,51310,1,2,1:2:0:0:
332,4,51487,6,0,B|293:61|293:61|313:133,1,139.999996144771,2|8,0:0|0:0,0:0:0:0:
433,212,51840,1,2,0:0:0:0:
184,377,52016,2,0,B|145:320|145:320|163:251,1,139.999996144771,2|0,1:2|0:0,0:0:0:0:
98,27,52369,5,10,0:0:0:0:
15,150,52546,1,2,0:0:0:0:
49,294,52722,1,2,1:2:0:0:
134,171,52899,1,2,0:0:0:0:
98,27,53075,6,0,P|162:3|217:41,1,139.999996144771,10|0,0:0|0:0,0:0:0:0:
305,333,53428,2,0,P|368:356|423:318,1,139.999996144771,2|0,1:2|0:0,0:0:0:0:
472,116,53781,2,0,L|304:153,1,139.999996144771,10|0,0:0|0:0,0:0:0:0:
39,239,54134,2,0,L|176:270,1,139.999996144771,2|0,1:2|0:0,0:0:0:0:
336,37,54487,6,0,B|199:13|244:163|78:137,1,279.999992289543,10|2,0:0|1:2,0:0:0:0:
260,206,55016,1,0,0:0:0:0:
202,378,55193,6,0,B|168:385|168:385|134:374,1,69.9999980723857,10|0,0:0|0:0,0:0:0:0:
39,239,55369,2,0,B|71:230|71:230|105:243,1,69.9999980723857
257,297,55546,6,0,P|303:286|328:261,1,80.0000002384184,2|0,1:2|0:0,0:0:0:0:
253,114,55722,2,0,P|207:125|182:150,1,80.0000002384184
376,363,55899,6,0,B|437:347|437:347|411:232,1,179.999995043277,14|0,0:0|0:0,0:0:0:0:
453,162,56252,2,0,B|473:142|505:139|505:139|490:169|484:200,1,119.999996695518,0|0,1:0|0:0,0:0:0:0:
256,296,56604,2,0,P|218:255|242:204,1,119.999996695518,10|2,0:0|0:0,0:0:0:0:
490,46,56957,2,0,P|528:87|504:138,1,119.999996695518,2|0,1:2|0:0,0:0:0:0:
307,32,57310,6,0,L|128:9,1,179.999995043277,10|0,0:0|0:0,0:0:0:0:
53,37,57663,2,0,B|14:32|14:32|34:78|82:71,1,119.999996695518,2|0,1:2|0:0,0:0:0:0:
185,258,58016,2,0,P|149:302|93:293,1,119.999996695518,10|0,0:0|0:0,0:0:0:0:
159,105,58369,1,2,1:2:0:0:
15,215,58546,1,0,0:0:0:0:
214,364,58722,6,0,B|330:389|330:389|382:357,1,179.999995043277,10|0,0:0|0:0,0:0:0:0:
447,309,59075,2,0,B|513:270|513:270|492:310,1,119.999996695518,2|0,1:2|0:0,0:0:0:0:
309,200,59428,2,0,P|266:237|281:292,1,119.999996695518,10|0,0:0|0:0,0:0:0:0:
484,197,59781,2,0,P|499:142|456:104,1,119.999996695518,2|0,1:2|0:0,0:0:0:0:
300,27,60134,6,0,B|239:48|239:48|214:89|214:89|150:109,1,179.999995043277,10|0,0:0|0:0,0:0:0:0:
67,97,60487,2,0,P|51:41|107:0,1,119.999996695518,2|0,1:2|0:0,0:0:0:0:
303,122,60840,2,0,P|343:162|327:217,1,119.999996695518,10|0,0:0|0:0,0:0:0:0:
91,261,61193,2,0,P|50:301|66:356,1,119.999996695518,2|0,1:2|0:0,0:0:0:0:
242,250,61546,5,10,0:0:0:0:
153,195,61722,1,0,0:0:0:0:
303,121,61899,2,0,P|360:106|416:83,1,119.999996695518,2|0,1:2|0:0,0:0:0:0:
467,232,62252,2,0,B|432:256|432:256|359:228,1,119.999996695518,10|0,0:0|0:0,0:0:0:0:
173,339,62604,2,0,B|208:363|208:363|280:335,1,119.999996695518,2|0,1:2|0:0,0:0:0:0:
303,121,62957,5,10,0:0:0:0:
153,195,63134,1,0,0:0:0:0:
21,107,63310,2,0,B|3:52|3:52|39:1,1,119.999996695518,2|2,1:2|0:0,0:0:0:0:
263,39,63663,1,10,0:0:0:0:
146,213,63840,1,0,0:0:0:0:
349,244,64016,1,2,1:2:0:0:
215,111,64193,1,0,0:0:0:0:
33,304,64369,6,0,P|97:304|187:387,1,179.999995043277,10|0,0:0|0:0,0:0:0:0:
269,368,64722,2,0,B|299:318|299:318|275:297|260:261,1,119.999996695518,2|0,1:2|0:0,0:0:0:0:
428,140,65075,1,10,0:0:0:0:
483,267,65252,1,0,0:0:0:0:
241,187,65428,1,2,1:2:0:0:
353,59,65604,1,0,0:0:0:0:
186,4,65781,6,0,B|97:12|133:71|29:90,1,179.999995043277,10|0,0:0|0:0,0:0:0:0:
139,65,66134,2,0,P|118:43|90:34,1,59.9999983477592,0|0,1:0|0:0,0:0:0:0:
9,194,66310,2,0,B|63:206|63:206|124:156,1,119.999996695518,2|8,0:0|0:0,0:0:0:0:
271,32,66663,5,2,0:0:0:0:
165,261,66840,1,2,1:2:0:0:
385,384,67016,1,2,0:0:0:0:
483,267,67193,5,14,0:0:0:0:
327,189,67369,2,0,B|339:309,1,119.999996695518,2|0,0:0|1:0,0:0:0:0:
115,375,67722,5,2,0:0:0:0:
250,288,67899,1,10,0:0:0:0:
116,184,68075,2,0,L|0:211,1,119.999996695518,2|0,0:0|1:0,0:0:0:0:
168,10,68428,5,2,0:0:0:0:
274,116,68604,1,10,0:0:0:0:
167,259,68781,1,2,0:0:0:0:
82,60,68957,5,2,1:2:0:0:
389,1,69134,2,0,B|411:51|411:51|377:125,1,119.999996695518,2|8,0:0|0:0,0:0:0:0:
116,184,69487,5,2,0:0:0:0:
265,210,69663,1,2,1:2:0:0:
484,252,69840,2,0,L|365:232,1,119.999996695518,2|8,0:0|0:0,0:0:0:0:
69,350,70193,5,2,0:0:0:0:
259,313,70369,1,2,1:2:0:0:
477,269,70546,2,0,L|358:290,1,119.999996695518,2|8,0:0|0:0,0:0:0:0:
26,258,70899,5,2,0:0:0:0:
244,321,71075,1,2,1:2:0:0:
488,384,71252,2,0,L|506:144,1,239.999993391037,2|2,0:0|0:0,0:0:0:0:
270,18,71781,2,0,L|388:0,1,119.999996695518,2|0,1:2|0:0,0:0:0:0:
284,230,72134,5,8,0:0:0:0:
145,176,72310,1,2,0:0:0:0:
26,258,72487,1,2,1:2:0:0:
162,319,72663,1,2,0:0:0:0:
284,230,72840,6,0,P|294:152|251:112,1,119.999996695518,10|0,0:0|0:0,0:0:0:0:
36,52,73193,2,0,L|182:68,1,119.999996695518,2|0,1:2|0:0,0:0:0:0:
408,204,73546,6,0,P|323:223|288:302,1,179.999995043277,10|0,0:0|0:0,0:0:0:0:
357,365,73899,2,0,P|382:313|354:263,1,119.999996695518,2|0,1:2|0:0,0:0:0:0:
399,23,74252,6,0,P|447:52|437:106,1,100.000000298023,10|0,0:0|0:0,0:0:0:0:
212,175,74604,2,0,P|163:203|173:258,1,100.000000298023,2|0,1:2|0:0,0:0:0:0:
288,301,74957,6,0,P|366:291|438:323,1,160.000000476837,10|2,0:0|0:0,0:0:0:0:
438,323,75663,6,0,B|477:268|477:268|447:205,1,129.999994436502,14|0,0:1|0:0,0:0:0:0:
501,133,75928,2,0,B|435:121|435:121|429:127|429:127|317:170,1,194.999991654754,2|2,0:1|0:1,0:0:0:0:
102,108,76369,6,0,P|86:79|93:48,1,64.9999972182512,10|0,0:1|0:0,0:0:0:0:
185,35,76546,2,0,P|200:63|193:94,1,64.9999972182512
37,289,76722,6,0,P|21:317|28:348,1,64.9999972182512,2|0,1:1|0:0,0:0:0:0:
120,362,76899,2,0,P|135:333|128:302,1,64.9999972182512,2|0,0:1|0:0,0:0:0:0:
15,190,77075,6,0,B|51:184|51:184|140:210,1,129.999994436502,14|0,0:1|0:0,0:0:0:0:
213,267,77340,2,0,B|287:288|287:288|334:264,1,129.999994436502,2|0,0:1|0:0,0:0:0:0:
317,169,77604,1,2,0:1:0:0:
354,368,77781,6,0,L|418:379,1,64.9999972182512,10|0,0:1|0:0,0:0:0:0:
501,356,77957,2,0,B|523:327|523:327|512:300,1,64.9999972182512,2|0,0:1|0:0,0:0:0:0:
381,157,78134,6,0,L|316:168,1,64.9999972182512,2|0,1:1|0:0,0:0:0:0:
234,145,78310,2,0,B|212:116|212:116|222:89,1,64.9999972182512,2|0,0:1|0:0,0:0:0:0:
453,13,78487,6,0,B|499:65|499:65|476:121,1,129.999994436502,14|0,0:1|0:0,0:0:0:0:
511,206,78752,2,0,P|448:206|441:323,1,194.999991654754,2|2,0:1|0:1,0:0:0:0:
120,362,79193,6,0,L|55:350,1,64.9999972182512,10|0,0:1|0:0,0:0:0:0:
9,244,79369,2,0,L|73:255,1,64.9999972182512
270,275,79546,6,0,L|334:263,1,64.9999972182512,2|0,1:1|0:0,0:0:0:0:
381,157,79722,2,0,L|316:168,1,64.9999972182512,2|0,0:1|0:0,0:0:0:0:
57,167,79899,6,0,B|35:124|35:124|74:52,1,129.999994436502,14|0,0:1|0:0,0:0:0:0:
155,35,80163,2,0,B|170:4|198:-18|198:-18|150:-18|126:24,1,129.999994436502,2|0,0:1|0:0,0:0:0:0:
147,117,80428,1,2,0:1:0:0:
362,36,80604,6,0,L|443:23,1,64.9999972182512,10|0,0:1|0:0,0:0:0:0:
494,77,80781,2,0,P|511:103|484:154,1,64.9999972182512,2|0,0:1|0:0,0:0:0:0:
262,219,80957,6,0,P|244:245|250:277,1,64.9999972182512,2|0,1:1|0:0,0:0:0:0:
349,359,81134,2,0,L|430:372,1,64.9999972182512,2|0,0:1|0:0,0:0:0:0:
500,224,81310,6,0,L|360:254,1,129.999994436502,14|0,0:1|0:0,0:0:0:0:
335,171,81575,1,2,0:1:0:0:
335,170,81663,2,0,B|367:140|367:140|411:173|405:212,1,129.999994436502,0|2,1:0|0:1,0:0:0:0:
239,351,82016,6,0,P|242:319|226:292,1,64.9999972182512,10|0,0:1|0:0,0:0:0:0:
161,369,82193,2,0,P|144:341|148:310,1,64.9999972182512
98,165,82369,6,0,P|101:196|85:223,1,64.9999972182512,2|0,1:1|0:0,0:0:0:0:
20,147,82546,2,0,P|3:174|7:205,1,64.9999972182512,2|0,0:1|0:0,0:0:0:0:
201,169,82722,6,0,B|232:110|232:110|209:38,1,129.999994436502,14|0,0:1|0:0,0:0:0:0:
134,14,82987,1,2,0:1:0:0:
137,18,83075,2,0,L|-7:46,1,129.999994436502,0|2,1:0|0:1,0:0:0:0:
328,0,83428,6,0,P|354:17|362:48,1,64.9999972182512,10|0,0:1|0:0,0:0:0:0:
339,135,83604,2,0,P|346:165|373:183,1,64.9999972182512,2|0,0:1|0:0,0:0:0:0:
499,113,83781,2,0,B|504:102|520:90|520:90|424:112,1,129.999994436502,2|2,1:1|0:1,0:0:0:0:
202,166,84134,5,14,0:1:0:0:
127,189,84399,1,2,0:1:0:0:
53,212,84663,1,2,0:1:0:0:
0,151,84840,5,2,0:1:0:0:
127,189,85016,1,2,0:1:0:0:
260,221,85193,1,2,0:1:0:0:
401,253,85369,1,2,0:1:0:0:
477,220,85546,5,10,0:1:0:0:
401,253,85810,1,2,0:1:0:0:
326,287,86075,1,2,0:1:0:0:
348,367,86252,5,2,0:1:0:0:
379,164,86428,1,2,0:1:0:0:
179,133,86604,1,2,0:1:0:0:
148,336,86781,1,2,0:1:0:0:
260,221,86957,5,14,0:1:0:0:
