osu file format v14

[General]
AudioFilename: audio.mp3
AudioLeadIn: 0
PreviewTime:35737
Countdown: 0
SampleSet: Soft
StackLeniency: 0.6
Mode: 0
LetterboxInBreaks: 0
WidescreenStoryboard: 1

[Editor]
DistanceSpacing: 0.9
BeatDivisor: 4
GridSize: 8
TimelineZoom: 2.5

[Metadata]
Title:Kaibutsu (TV Size)
TitleUnicode:怪物 (TV Size)
Artist:YOASOBI
ArtistUnicode:YOASOBI
Creator:Ryuusei Aika
Version:Yuuma's Expert
Source:BEASTARS
Tags:ビースターズ japanese furry anime op2 pop j-pop jpop opening theme 幾田りら Ikuta Rira Lilas Ayase Monster MoeAsuka Atrue SuperBox Fall Marle Calvaria Mariko Sakuragi Reiji Maigo SB hhjkl [Hatsune Miku] [Hatsune_Miku] Hatsune Miku Remapper _lai Kyrian 09kami Ducky- Acyl Acylica Bellicose wafer iWaifu KAMI NO KOTOBA Addy2607 KaedeharaKazuha Airincat Chompy Yooh Reywateil Amateurre Sparhten Ajisai- HabiHolic newton- Yuuma Ogura Yui fedora- UberFazz xidorn Pata-Mon PataMon Deca Wanpachi cycopton Gibune wiken Fuju Stratos Crystal OneShotFox Elcheer Fieryrage hypercyte hypercute Kittyadventure gokugohan12468 Kyouren Zelq ponbot Yuuma3 Mimari i love ganyu Flake yaspo Regraz Mafumafu bongo Moete Senseabel Senseable Kuse KuBsNia_ZhoYL_ wetdog123 eiri-
BeatmapID:2820255
BeatmapSetID:1335792

[Difficulty]
HPDrainRate:5
CircleSize:4.3
OverallDifficulty:8
ApproachRate:9.3
SliderMultiplier:2.00000000596046
SliderTickRate:1

[Events]
//Background and Video events
0,0,"furry.jpg",0,0
Video,-200,"OP.mp4"
//Break Periods
//Storyboard Layer 0 (Background)
//Storyboard Layer 1 (Fail)
//Storyboard Layer 2 (Pass)
//Storyboard Layer 3 (Foreground)
//Storyboard Layer 4 (Overlay)
//Storyboard Sound Samples

[TimingPoints]
-3395,352.941176470588,4,2,1,40,1,0
1546,-399.999999999997,4,2,1,40,0,0
2252,-200,4,2,1,60,0,0
10546,-399.999999999997,4,2,1,60,0,0
13546,-133.333333333333,4,2,1,70,0,0
24134,-100,4,2,1,70,0,0
24487,-79.9999999999999,4,2,1,70,0,0
24840,-399.999999999997,4,2,1,60,0,0
25369,-100,4,2,1,60,0,0
26252,-200,4,2,1,60,0,0
26781,-100,4,2,1,60,0,0
27663,-399.999999999997,4,2,1,60,0,0
28546,-100,4,2,1,60,0,0
29075,-200,4,2,1,60,0,0
29604,-100,4,2,1,60,0,0
30487,-100,4,2,1,75,0,0
35781,-66.6666666666667,4,2,1,60,0,0
36046,-66.6666666666667,4,2,1,60,0,0
36134,-83.3333333333333,4,2,1,80,0,1
38516,-83.3333333333333,4,2,1,80,0,1
38604,-71.4285714285714,4,2,1,80,0,1
38869,-71.4285714285714,4,2,1,80,0,1
38957,-83.3333333333333,4,2,1,80,0,1
42046,-83.3333333333333,4,2,1,80,0,1
42134,-76.9230769230769,4,2,1,80,0,1
42399,-76.9230769230769,4,2,1,80,0,1
42487,-71.4285714285714,4,2,1,80,0,1
42752,-71.4285714285714,4,2,1,80,0,1
42840,-66.6666666666667,4,2,1,80,0,1
43104,-66.6666666666667,4,2,1,80,0,1
43193,-125,4,2,1,80,0,1
43457,-125,4,2,1,80,0,1
43546,-62.5,4,2,1,80,0,1
43899,-58.8235294117647,4,2,1,80,0,1
44163,-58.8235294117647,4,2,1,80,0,1
44252,-55.5555555555556,4,2,1,80,0,1
44516,-55.5555555555556,4,2,1,80,0,1
44604,-55.5555555555556,4,2,1,80,0,1
47428,-83.3333333333333,4,2,1,80,0,1
51752,-83.3333333333333,4,2,1,80,0,1
51840,-83.3333333333333,4,2,1,80,0,1
53340,-83.3333333333333,4,2,1,80,0,1
53428,-90.9090909090909,4,2,1,80,0,1
53693,-90.9090909090909,4,2,1,80,0,1
53781,-100,4,2,1,80,0,1
54046,-100,4,2,1,80,0,1
54134,-76.9230769230769,4,2,1,80,0,1
54399,-76.9230769230769,4,2,1,80,0,1
54487,-83.3333333333333,4,2,1,80,0,1
54752,-83.3333333333333,4,2,1,80,0,1
54840,-90.9090909090909,4,2,1,80,0,1
55104,-90.9090909090909,4,2,1,80,0,1
55193,-100,4,2,1,80,0,1
55457,-100,4,2,1,80,0,1
55546,-111.111111111111,4,2,1,80,0,1
55810,-111.111111111111,4,2,1,80,0,1
55899,-83.3333333333333,4,2,1,80,0,0
58722,-333.333333333333,4,2,1,80,0,0
58987,-333.333333333333,4,2,1,80,0,0
59075,-83.3333333333333,4,2,1,80,0,0
60134,-71.4285714285714,4,2,1,80,0,0
60399,-71.4285714285714,4,2,1,80,0,0
60487,-83.3333333333333,4,2,1,80,0,0
64634,-83.3333333333333,4,2,1,80,0,0
64722,-83.3333333333333,4,2,1,80,0,0
64987,-83.3333333333333,4,2,1,80,0,0
65075,-83.3333333333333,4,2,1,80,0,0
65340,-83.3333333333333,4,2,1,80,0,0
65428,-83.3333333333333,4,2,1,80,0,0
65693,-83.3333333333333,4,2,1,80,0,0
65781,-83.3333333333333,4,2,1,80,0,0
67722,-71.4285714285714,4,2,1,80,0,0
70546,-62.5,4,2,1,80,0,0
71252,-55.5555555555556,4,2,1,80,0,0
72840,-83.3333333333333,4,2,1,80,0,0
73193,-76.9230769230769,4,2,1,80,0,0
73546,-71.4285714285714,4,2,1,80,0,0
73899,-66.6666666666667,4,2,1,80,0,0
74252,-125,4,2,1,80,0,0
74516,-125,4,2,1,80,0,0
74604,-62.5,4,2,1,80,0,0
74957,-58.8235294117647,4,2,1,80,0,0
75310,-333.333333333333,4,2,1,80,0,0
75663,-50,4,2,1,80,0,1
80957,-45.4545454545455,4,2,1,80,0,1
81310,-50,4,2,1,80,0,1
84133,-50,4,2,1,70,0,1
84134,-200,4,2,1,70,0,0
86957,-200,4,2,1,90,0,0

[Colours]
Combo1 : 191,96,0
Combo2 : 143,32,255
Combo3 : 191,0,96
Combo4 : 0,80,159

[HitObjects]
68,53,1546,6,2,P|86:47|151:35,1,75.0000002235173,2|0,0:0|0:0,0:1:0:0:
148,50,2252,6,0,P|123:53|99:60,1,50.0000001490115,10|0,0:0|0:0,0:0:0:0:
67,169,2604,2,0,P|81:189|99:207,1,50.0000001490115,10|2,0:0|0:0,0:0:0:0:
205,180,2957,2,0,P|214:157|221:133,1,50.0000001490115,10|0,0:0|0:0,0:0:0:0:
140,133,3310,1,10,0:0:0:0:
140,133,3487,1,2,0:0:0:0:
171,273,3663,6,0,P|248:262|282:247,1,100.000000298023,10|8,0:0|0:0,0:0:0:0:
391,231,4193,2,0,P|366:225|343:215,1,50.0000001490115,2|8,0:0|0:0,0:0:0:0:
259,338,4546,2,0,P|283:332|306:322,1,50.0000001490115,2|8,0:0|0:0,0:0:0:0:
479,166,4899,6,0,P|402:155|368:140,1,100.000000298023,2|2,0:0|0:0,0:0:0:0:
254,185,5428,2,0,P|271:166|291:152,1,50.0000001490115,8|2,0:0|0:0,0:0:0:0:
318,21,5781,2,0,P|325:44|327:69,1,50.0000001490115,10|2,0:0|0:0,0:0:0:0:
219,105,6134,1,10,0:0:0:0:
219,105,6310,1,2,0:0:0:0:
110,25,6487,5,10,0:0:0:0:
110,25,6663,2,0,P|97:73|98:122,1,100.000000298023,2|2,0:0|0:0,0:0:0:0:
207,207,7193,2,0,P|167:185|144:180,1,50.0000001490115,10|2,0:0|0:0,0:0:0:0:
28,224,7546,2,0,P|72:211|89:198,1,50.0000001490115,10|2,0:0|0:0,0:0:0:0:
182,83,7899,5,10,0:0:0:0:
207,207,8075,1,0,0:0:0:0:
331,182,8252,1,10,0:0:0:0:
207,207,8428,1,2,0:0:0:0:
182,83,8604,5,10,0:0:0:0:
306,58,8781,1,2,0:0:0:0:
331,182,8957,1,10,0:0:0:0:
306,58,9134,1,2,0:0:0:0:
256,132,9310,5,10,0:0:0:0:
380,107,9487,1,0,0:0:0:0:
405,231,9663,1,10,0:0:0:0:
281,256,9840,2,0,L|231:265,1,50.0000001490115,2|8,0:0|0:0,0:0:0:0:
391,316,10193,2,0,L|341:325,1,50.0000001490115,2|8,0:0|0:0,0:0:0:0:
454,221,10546,2,0,L|404:230,1,50.0000001490115,2|2,0:0|0:0,0:0:0:0:
74,327,12134,5,10,0:0:0:0:
110,261,12487,5,10,0:0:0:0:
92,188,12840,5,8,0:0:0:0:
41,133,13193,6,0,L|30:134,1,6.25000001862644,2|0,0:3|0:0,0:0:0:0:
74,327,13546,6,0,L|158:315,1,75.0000030845403,10|0,0:0|0:0,0:0:0:0:
246,301,13899,1,2,1:2:0:0:
246,301,14075,1,2,0:0:0:0:
418,228,14252,6,0,L|334:216,1,75.0000030845403,10|2,0:0|0:0,0:0:0:0:
246,202,14605,1,2,1:2:0:0:
246,202,14781,1,2,0:0:0:0:
74,129,14957,6,0,L|86:213,1,75.0000030845403,10|0,0:0|0:0,0:0:0:0:
182,125,15310,1,0,1:0:0:0:
43,104,15487,2,0,L|53:178,1,75.0000030845403,2|8,0:0|0:0,0:0:0:0:
159,275,15840,2,0,L|169:200,1,75.0000030845403,2|0,0:0|1:0,0:0:0:0:
299,80,16193,6,0,P|228:70|180:135,1,150.000006169081,2|2,0:0|0:0,0:0:0:0:
266,168,16722,1,0,1:0:0:0:
266,168,16899,1,2,0:0:0:0:
391,94,17075,2,0,P|385:41|357:10,1,75.0000030845403,10|2,0:0|0:0,0:0:0:0:
299,80,17428,1,2,1:2:0:0:
299,80,17604,1,2,0:0:0:0:
338,228,17781,5,10,0:0:0:0:
337,228,17957,2,0,P|407:200|481:206,1,150.000006169081,2|2,0:0|0:0,0:0:0:0:
443,325,18487,2,0,P|413:347|377:357,1,75.0000030845403,10|2,0:0|0:0,0:0:0:0:
249,331,18840,2,0,P|223:303|213:268,1,75.0000030845403,2|2,1:2|0:0,0:0:0:0:
173,144,19193,5,10,0:0:0:0:
297,104,19369,1,0,0:0:0:0:
337,228,19546,1,2,1:2:0:0:
213,268,19722,1,0,0:0:0:0:
134,227,19899,5,10,0:0:0:0:
258,187,20075,1,2,0:0:0:0:
298,311,20252,1,2,1:2:0:0:
174,351,20428,2,0,B|119:348|119:348|85:333|85:333|27:330,1,150.000006169081,2|2,0:0|0:0,0:0:0:0:
134,227,20957,5,2,1:2:0:0:
66,180,21134,2,0,P|50:213|54:250,1,75.0000030845403,2|8,0:0|0:0,0:0:0:0:
200,273,21487,1,2,0:0:0:0:
200,273,21663,2,0,P|215:239|211:202,1,75.0000030845403,2|2,1:2|0:0,0:0:0:0:
153,77,22016,6,0,L|133:226,2,150.000006169081,8|2|10,0:0|1:2|0:0,0:0:0:0:
218,33,22899,1,2,0:0:0:0:
81,93,23075,2,0,P|134:86|156:76,1,75.0000030845403,0|2,1:0|0:0,0:0:0:0:
334,89,23428,5,10,0:0:0:0:
334,89,23781,2,0,P|278:93|225:114,1,112.50000462681,2|0,1:2|0:0,0:0:0:0:
306,168,24134,2,0,P|361:172|452:214,1,150.000000447035,10|0,0:0|0:0,0:0:0:0:
344,248,24487,2,0,P|276:253|168:303,1,187.500000558793,2|0,1:2|0:0,0:0:0:0:
254,343,24840,6,0,P|276:352|301:356,1,50.0000001490115,10|2,0:1|1:2,0:0:0:0:
459,317,25369,2,0,B|468:268|468:268|465:255|465:255|472:218,2,100.000000298023,10|2|10,1:1|0:0|0:1,0:0:0:0:
387,375,25899,1,0,1:2:0:0:
347,229,26075,1,10,0:1:0:0:
201,269,26252,6,0,L|143:285,1,50.0000001490115,2|2,0:0|0:0,0:0:0:0:
296,323,26604,1,2,1:2:0:0:
250,178,26781,2,0,L|104:215,1,150.000000447035,2|0,1:2|0:0,0:0:0:0:
41,183,27134,2,0,P|32:231|60:271,2,100.000000298023,10|2|2,0:1|1:2|0:0,0:0:0:0:
176,58,27663,6,0,L|182:107,1,50.0000001490115,10|2,0:1|1:2,0:0:0:0:
261,36,28193,1,10,1:1:0:0:
323,177,28369,1,2,0:0:0:0:
323,177,28546,2,0,L|335:71,1,100.000000298023,10|0,0:1|1:2,0:0:0:0:
241,195,28899,1,10,0:1:0:0:
375,281,29075,6,0,P|398:273|423:270,2,50.0000001490115,2|2|2,0:0|0:0|1:2,0:0:0:0:
300,317,29604,2,0,P|378:326|404:343,1,100.000000298023,2|10,1:2|0:1,0:0:0:0:
199,361,29957,5,2,0:0:0:0:
175,263,30134,1,10,0:1:0:0:
241,195,30310,1,2,0:0:0:0:
241,195,30399,1,0,0:0:0:0:
241,195,30487,6,0,P|271:235|273:284,1,100.000000298023,14|0,0:0|0:0,0:0:0:0:
108,334,30840,1,2,1:2:0:0:
136,163,31016,1,2,1:2:0:0:
175,263,31193,1,10,0:0:0:0:
43,179,31369,2,0,P|45:129|75:90,1,100.000000298023,2|0,0:0|1:0,0:0:0:0:
303,85,31722,6,0,B|196:64|236:207|106:153,1,200.000000596046,2|2,0:0|0:0,0:0:0:0:
287,158,32252,1,2,1:2:0:0:
153,85,32428,2,0,L|175:292,1,200.000000596046,2|2,1:2|0:0,0:0:0:0:
370,341,32957,1,2,1:2:0:0:
253,366,33134,1,2,0:0:0:0:
450,257,33310,6,0,P|393:233|335:233,1,100.000000298023,10|0,0:0|0:0,0:0:0:0:
174,283,33663,1,2,1:2:0:0:
370,341,33840,1,0,1:0:0:0:
164,295,34016,1,10,0:0:0:0:
328,143,34193,2,0,L|299:244,1,100.000000298023,2|0,0:0|1:0,0:0:0:0:
261,364,34546,1,2,0:0:0:0:
333,159,34722,5,8,0:0:0:0:
338,175,35075,5,10,0:0:0:0:
343,191,35428,5,10,0:0:0:0:
348,207,35781,6,0,B|225:237|299:79|138:134,1,225.000009253621,2|0,0:1|0:0,0:0:0:0:
86,149,36134,5,14,0:0:0:0:
162,242,36310,2,0,P|184:278|176:228,1,119.999996695518,2|0,0:0|1:0,0:0:0:0:
25,263,36663,1,2,0:0:0:0:
157,351,36840,2,0,B|286:386|258:234|384:271,1,239.999993391037,10|2,0:0|1:2,0:0:0:0:
397,125,37369,6,0,P|336:226|348:344,1,239.999993391037,2|2,0:0|0:0,0:0:0:0:
240,77,37899,2,0,P|255:134|237:191,1,119.999996695518,2|2,1:2|0:0,0:0:0:0:
93,322,38252,6,0,B|136:306|157:263|157:263|197:296|240:296,1,179.999995043277,10|0,0:0|0:0,0:0:0:0:
254,277,38604,6,0,B|202:277|154:237|154:237|129:289|77:307,1,209.999994217157,2|0,1:2|0:0,0:0:0:0:
69,222,38957,5,10,0:0:0:0:
184,362,39134,2,0,L|198:242,1,119.999996695518,2|0,0:0|1:0,0:0:0:0:
425,145,39487,5,2,0:0:0:0:
310,285,39664,2,0,L|295:165,1,119.999996695518,10|0,0:0|0:0,0:0:0:0:
70,84,40016,5,2,1:2:0:0:
209,14,40193,2,0,P|236:66|226:124,1,119.999996695518,2|8,0:0|0:0,0:0:0:0:
69,222,40546,5,2,0:0:0:0:
295,165,40722,1,2,1:2:0:0:
153,80,40899,1,2,0:0:0:0:
210,306,41075,5,10,0:0:0:0:
295,165,41252,1,2,0:0:0:0:
153,80,41428,1,2,1:2:0:0:
69,222,41604,1,2,0:0:0:0:
210,306,41781,6,0,B|309:328|282:235|389:259,1,179.999995043277,10|0,0:0|0:0,0:0:0:0:
371,172,42134,2,0,B|323:166|269:182|237:229|237:229|239:170,1,194.999991654754,2|0,1:2|0:0,0:0:0:0:
171,117,42487,2,0,B|149:94|120:98|91:120|90:156|120:190|160:180|160:180|157:233,1,209.999994217157,10|0,0:0|0:0,0:0:0:0:
40,179,42840,2,0,P|52:71|193:53,1,225.000009253621,2|0,1:2|0:0,0:0:0:0:
238,49,43193,6,0,L|356:69,1,120.000000357628,10|0,0:0|0:0,0:0:0:0:
448,132,43546,6,0,B|395:129|380:216|380:216|347:137|292:151,1,240.000000715255,2|0,1:2|0:0,0:0:0:0:
196,194,43899,2,0,B|126:208|113:298|176:354|260:282|275:392,1,255.000005623698,10|0,0:0|0:0,0:0:0:0:
292,177,44252,2,0,B|374:173|415:254|372:327|270:284|290:394,1,269.999992564916,2|0,1:2|0:0,0:0:0:0:
119,357,44604,6,0,P|72:282|84:195,1,179.999995043278,10|0,0:0|0:0,0:0:0:0:
292,177,44957,2,0,P|250:254|168:287,1,179.999995043278,2|2,1:2|0:0,0:0:0:0:
50,118,45310,2,0,P|138:114|207:169,1,179.999995043278,10|0,0:0|0:0,0:0:0:0:
119,357,45663,1,2,1:2:0:0:
259,94,45840,6,0,P|305:168|293:255,1,179.999995043278,2|8,0:0|0:0,0:0:0:0:
238,349,46193,1,2,0:0:0:0:
107,196,46369,1,2,1:2:0:0:
384,262,46546,2,0,P|342:339|260:372,1,179.999995043278,2|10,0:0|0:0,0:0:0:0:
226,183,46899,1,2,1:2:0:0:
415,149,47075,1,2,1:2:0:0:
449,338,47252,1,2,1:2:0:0:
449,338,47340,1,2,1:2:0:0:
449,338,47428,6,0,B|318:370|361:238|221:263,1,239.999993391037,14|0,0:0|1:0,0:0:0:0:
18,350,47957,1,2,0:0:0:0:
135,335,48134,1,10,0:0:0:0:
18,350,48310,2,0,L|0:200,1,119.999996695518,2|0,0:0|1:0,0:0:0:0:
202,185,48663,5,2,0:0:0:0:
85,170,48840,1,10,0:0:0:0:
100,53,49016,1,2,0:0:0:0:
217,68,49193,1,2,1:2:0:0:
202,185,49369,2,0,L|187:304,1,119.999996695518,2|8,0:0|0:0,0:0:0:0:
313,264,49722,5,2,0:0:0:0:
77,229,49899,1,2,1:2:0:0:
313,264,50075,1,2,0:0:0:0:
123,321,50428,5,2,0:0:0:0:
406,279,50604,1,2,1:2:0:0:
123,321,50781,1,2,0:0:0:0:
494,293,51134,5,2,0:0:0:0:
154,242,51310,1,2,1:2:0:0:
494,293,51487,2,0,P|388:308|283:356,1,179.999995043277,2|0,0:0|0:0,0:0:0:0:
243,376,51840,1,2,0:0:0:0:
306,193,52016,2,0,P|260:257|243:308,1,119.999996695518,2|0,1:2|0:0,0:0:0:0:
412,145,52369,5,10,0:0:0:0:
316,73,52546,1,2,0:0:0:0:
398,263,52722,1,2,1:2:0:0:
507,216,52899,1,2,0:0:0:0:
306,193,53075,6,0,P|229:208|128:272,1,179.999995043277,10|0,0:0|0:0,0:0:0:0:
29,315,53428,2,0,P|-1:363|62:336,1,165.000005527139,2|0,1:2|0:0,0:0:0:0:
84,176,53781,2,0,P|46:133|54:201,1,150.000000447035,10|0,0:0|0:0,0:0:0:0:
162,313,54134,2,0,P|219:340|175:276,1,194.999991654754,2|0,1:2|0:0,0:0:0:0:
90,263,54487,6,0,B|181:279|163:189|263:211,1,179.999995043277,10|0,0:0|0:0,0:0:0:0:
396,186,54840,2,0,B|305:202|323:112|223:134,1,165.000005527139,2|0,1:2|0:0,0:0:0:0:
174,126,55193,2,0,B|159:211|239:174|232:252,1,150.000000447035,10|0,0:0|0:0,0:0:0:0:
260,363,55546,2,0,B|242:308|323:325|310:248,1,134.999996282458,2|0,1:2|0:0,0:0:0:0:
153,255,55899,6,0,P|43:258|21:150,1,239.999993391037,14|0,0:0|1:0,0:0:0:0:
142,135,56428,1,0,0:0:0:0:
46,357,56604,2,0,P|155:309|275:304,1,239.999993391037,10|2,0:0|1:2,0:0:0:0:
274,304,57310,6,0,P|288:219|298:176,1,119.999996695518,10|0,0:0|0:0,0:0:0:0:
215,24,57663,2,0,P|227:82|235:142,1,119.999996695518,2|0,1:2|0:0,0:0:0:0:
383,322,58016,2,0,P|396:237|406:194,1,119.999996695518,10|0,0:0|0:0,0:0:0:0:
111,46,58369,2,0,P|123:104|131:164,1,119.999996695518,2|0,1:2|0:0,0:0:0:0:
143,312,58722,6,0,L|89:321,1,44.9999987608194,10|0,0:0|0:0,0:0:0:0:
91,330,59075,6,0,L|209:310,1,119.999996695518,2|0,1:2|0:0,0:0:0:0:
443,275,59428,2,0,L|324:255,1,119.999996695518,10|0,0:0|0:0,0:0:0:0:
104,172,59781,2,0,L|222:152,1,119.999996695518,2|0,1:2|0:0,0:0:0:0:
410,68,60134,6,0,P|329:36|353:137,1,209.999994217157,10|0,0:0|0:0,0:0:0:0:
442,205,60487,2,0,P|454:158|409:176,1,119.999996695518,2|0,1:2|0:0,0:0:0:0:
357,353,60840,2,0,P|391:387|398:339,1,119.999996695518,10|0,0:0|0:0,0:0:0:0:
272,205,61193,2,0,P|224:217|263:247,1,119.999996695518,2|0,1:2|0:0,0:0:0:0:
358,261,61546,6,0,B|229:235|268:361|141:320,2,239.999993391037,10|2|10,0:0|1:2|0:0,0:0:0:0:
358,261,62428,1,0,0:0:0:0:
173,132,62604,2,0,L|185:266,1,119.999996695518,2|0,1:2|0:0,0:0:0:0:
321,340,62957,6,0,L|344:102,1,239.999993391037,10|2,0:0|1:2,0:0:0:0:
344,101,63663,2,0,P|396:130|453:146,1,119.999996695518,10|0,0:0|0:0,0:0:0:0:
321,340,64016,2,0,P|268:310|211:294,1,119.999996695518,2|0,1:2|0:0,0:0:0:0:
20,197,64369,6,0,P|107:179|171:118,1,179.999995043277,10|0,0:0|0:0,0:0:0:0:
167,33,64722,2,0,P|139:117|159:203,1,179.999995043277,2|0,1:2|0:0,0:0:0:0:
235,242,65075,2,0,P|175:175|91:150,1,179.999995043277,10|0,0:0|0:0,0:0:0:0:
36,233,65428,2,0,P|95:299|179:324,1,179.999995043277,2|0,1:2|0:0,0:0:0:0:
234,241,65781,6,0,P|117:239|25:312,1,239.999993391037,10|0,0:0|1:0,0:0:0:0:
334,254,66310,2,0,P|310:187|259:152,1,119.999996695518,2|8,0:0|0:0,0:0:0:0:
370,349,66663,2,0,P|430:287|437:237,1,119.999996695518,2|2,0:0|1:2,0:0:0:0:
352,50,67016,5,2,0:0:0:0:
334,254,67193,1,14,0:0:0:0:
352,50,67369,2,0,L|341:187,1,119.999996695518,2|0,0:0|1:0,0:0:0:0:
203,282,67722,5,2,0:0:0:0:
223,38,67899,1,10,0:0:0:0:
203,282,68075,2,0,L|215:125,1,139.999996144771,2|0,0:0|1:0,0:0:0:0:
94,26,68428,5,2,0:0:0:0:
74,270,68604,1,10,0:0:0:0:
318,290,68781,1,2,0:0:0:0:
338,46,68957,1,2,1:2:0:0:
213,155,69134,1,2,0:0:0:0:
213,155,69487,5,2,0:0:0:0:
445,177,69663,1,2,1:2:0:0:
213,155,69840,2,0,L|71:139,1,139.999996144771,2|8,0:0|0:0,0:0:0:0:
234,253,70193,5,2,0:0:0:0:
466,275,70369,1,2,1:2:0:0:
234,253,70546,2,0,L|61:233,1,160.000000476837,2|8,0:0|0:0,0:0:0:0:
259,347,70899,5,2,0:0:0:0:
491,369,71075,1,2,1:2:0:0:
259,347,71252,2,0,L|69:325,1,179.999995043278,2|8,0:0|0:0,0:0:0:0:
213,155,71604,1,2,0:0:0:0:
352,266,71781,1,2,1:2:0:0:
352,266,72134,5,8,0:0:0:0:
213,155,72311,1,2,0:0:0:0:
259,325,72487,1,2,1:2:0:0:
323,159,72663,1,2,0:0:0:0:
173,257,72840,6,0,P|119:281|61:297,1,119.999996695518,10|0,0:0|0:0,0:0:0:0:
323,159,73193,2,0,P|399:186|474:194,1,129.999994436502,2|0,1:2|0:0,0:0:0:0:
144,105,73546,2,0,P|43:143|-11:152,1,139.999996144771,10|0,0:0|0:0,0:0:0:0:
354,13,73899,2,0,P|447:49|516:57,1,150.000006169081,2|0,1:2|0:0,0:0:0:0:
160,112,74252,2,0,P|69:148|24:156,1,120.000000357628,10|0,0:0|0:0,0:0:0:0:
131,217,74604,6,0,P|156:312|164:379,1,160.000000476837,2|0,1:2|0:0,0:0:0:0:
406,150,74957,2,0,P|373:268|367:333,1,170.000003749132,10|0,0:0|0:0,0:0:0:0:
204,13,75310,6,0,P|215:60|215:62,1,44.9999987608194,2|0,0:0|0:0,0:0:0:0:
148,146,75663,6,0,B|124:159|124:159|269:181|269:181|252:161,1,200.000000596046,14|0,0:1|0:0,0:0:0:0:
139,51,75928,1,2,0:1:0:0:
139,51,76016,2,0,P|91:66|58:103,1,100.000000298023,0|0,1:0|0:0,0:0:0:0:
158,248,76193,2,0,P|205:233|238:196,1,100.000000298023,2|0,0:1|0:0,0:0:0:0:
12,187,76369,6,0,P|24:235|31:285,1,100.000000298023,10|0,0:1|0:0,0:0:0:0:
179,376,76546,2,0,P|185:326|197:278,1,100.000000298023
139,51,76722,6,0,P|151:99|158:149,1,100.000000298023,2|0,1:1|0:0,0:0:0:0:
312,233,76899,2,0,P|318:183|330:135,1,100.000000298023,2|0,0:1|0:0,0:0:0:0:
500,63,77075,6,0,B|419:48|419:48|407:37|407:37|391:42|391:42|306:27,1,200.000000596046,14|0,0:1|0:0,0:0:0:0:
153,103,77340,1,2,0:1:0:0:
153,103,77428,2,0,L|277:124,1,100.000000298023,0|0,1:0|0:0,0:0:0:0:
418,218,77604,2,0,L|283:189,1,100.000000298023,2|0,0:1|0:0,0:0:0:0:
110,358,77781,6,0,P|86:315|84:266,1,100.000000298023,10|0,0:1|0:0,0:0:0:0:
207,329,77957,2,0,P|204:279|179:236,1,100.000000298023,2|0,0:1|0:0,0:0:0:0:
77,65,78134,6,0,P|84:128|115:169,1,100.000000298023,2|0,1:1|0:0,0:0:0:0:
172,38,78310,2,0,P|196:81|199:131,1,100.000000298023,2|0,0:1|0:0,0:0:0:0:
84,266,78487,6,0,B|136:258|175:288|175:288|183:284|183:284|184:294|184:294|216:322|263:312,1,200.000000596046,14|0,0:1|0:0,0:0:0:0:
410,362,78752,1,2,0:1:0:0:
410,362,78840,2,0,P|385:318|342:294,1,100.000000298023,0|0,1:0|0:0,0:0:0:0:
332,150,79016,2,0,P|299:187|288:235,1,100.000000298023,2|0,0:1|0:0,0:0:0:0:
492,317,79193,6,0,L|482:217,1,100.000000298023,10|0,0:1|0:0,0:0:0:0:
465,39,79369,2,0,L|474:138,1,100.000000298023
349,328,79546,6,0,L|339:228,1,100.000000298023,2|0,1:1|0:0,0:0:0:0:
322,50,79722,2,0,L|331:149,1,100.000000298023,2|0,0:1|0:0,0:0:0:0:
213,337,79899,6,0,P|95:312|115:252,1,200.000000596046,14|0,0:1|0:0,0:0:0:0:
38,126,80163,1,2,0:1:0:0:
38,126,80252,2,0,P|96:153|111:192,1,100.000000298023,0|0,1:0|0:0,0:0:0:0:
253,170,80428,2,0,P|202:222|164:232,1,100.000000298023,2|0,0:1|0:0,0:0:0:0:
79,17,80604,6,0,L|195:30,1,100.000000298023,10|0,0:1|0:0,0:0:0:0:
308,75,80781,2,0,L|424:88,1,100.000000298023,2|0,0:1|0:0,0:0:0:0:
408,231,80957,6,0,L|292:244,1,110.000003684759,2|0,1:1|0:0,0:0:0:0:
179,289,81134,2,0,L|63:302,1,110.000003684759,2|0,0:1|0:0,0:0:0:0:
191,156,81310,6,0,B|235:193|282:160|282:160|310:208|367:194,1,200.000000596046,14|0,0:1|0:0,0:0:0:0:
360,31,81575,1,2,0:1:0:0:
360,31,81663,2,0,P|366:79|346:124,1,100.000000298023,0|0,1:0|0:0,0:0:0:0:
236,101,81840,2,0,P|237:51|265:11,1,100.000000298023,2|0,0:1|0:0,0:0:0:0:
457,103,82016,6,0,L|472:222,1,100.000000298023,10|0,0:1|0:0,0:0:0:0:
358,352,82193,2,0,L|345:252,1,100.000000298023
195,114,82369,6,0,L|210:233,1,100.000000298023,2|0,1:1|0:0,0:0:0:0:
93,363,82546,2,0,L|80:263,1,100.000000298023,2|0,0:1|0:0,0:0:0:0:
12,67,82722,6,0,B|64:49|121:78|95:98|141:133|194:114,1,200.000000596046,14|0,0:1|0:0,0:0:0:0:
338,5,82987,1,2,0:1:0:0:
338,5,83075,2,0,P|290:18|259:56,1,100.000000298023,0|0,1:0|0:0,0:0:0:0:
308,227,83252,2,0,P|287:148|251:123,1,100.000000298023,2|0,0:1|0:0,0:0:0:0:
45,253,83428,6,0,P|66:332|102:357,1,100.000000298023,10|0,0:1|0:0,0:0:0:0:
192,361,83604,2,0,P|232:333|253:288,1,100.000000298023,2|0,0:1|0:0,0:0:0:0:
213,180,83781,2,0,P|168:158|119:162,1,100.000000298023,2|0,1:1|0:0,0:0:0:0:
149,266,83957,1,2,0:1:0:0:
149,266,84046,1,0,0:0:0:0:
149,266,84134,5,14,0:1:0:0:
292,313,84399,1,2,0:1:0:0:
380,191,84663,1,2,0:1:0:0:
292,70,84840,5,2,0:1:0:0:
149,116,85016,1,2,0:1:0:0:
149,266,85192,1,2,0:1:0:0:
292,313,85369,1,2,0:1:0:0:
380,191,85546,6,0,B|396:149|396:149|388:100,2,75.0000002235173,10|2|2,0:1|0:1|0:1,0:0:0:0:
292,313,86252,1,2,0:1:0:0:
149,266,86428,1,2,0:1:0:0:
149,116,86604,1,2,0:1:0:0:
292,70,86781,1,2,0:1:0:0:
256,192,86957,5,14,0:1:0:0:
