osu file format v14

[General]
AudioFilename: audio.mp3
AudioLeadIn: 0
PreviewTime: 35737
Countdown: 0
SampleSet: Soft
StackLeniency: 0.3
Mode: 0
LetterboxInBreaks: 0
WidescreenStoryboard: 1

[Editor]
DistanceSpacing: 1
BeatDivisor: 2
GridSize: 16
TimelineZoom: 0.8

[Metadata]
Title:Kaibutsu (TV Size)
TitleUnicode:怪物 (TV Size)
Artist:YOASOBI
ArtistUnicode:YOASOBI
Creator:Ryuusei Aika
Version:Wanpachi's Normal
Source:BEASTARS
Tags:ビースターズ japanese furry anime op2 pop j-pop jpop opening theme 幾田りら Ikuta Rira Lilas Ayase Monster MoeAsuka Atrue SuperBox Fall Marle Calvaria Mariko Sakuragi Reiji Maigo SB hhjkl [Hatsune Miku] [Hatsune_Miku] Hatsune Miku Remapper _lai Kyrian 09kami Ducky- Acyl Acylica Bellicose wafer iWaifu KAMI NO KOTOBA Addy2607 KaedeharaKazuha Airincat Chompy Yooh Reywateil Amateurre Sparhten Ajisai- HabiHolic newton- Yuuma Ogura Yui fedora- UberFazz xidorn Pata-Mon PataMon Deca Wanpachi cycopton Gibune wiken Fuju Stratos Crystal OneShotFox Elcheer Fieryrage hypercyte hypercute Kittyadventure gokugohan12468 Kyouren Zelq ponbot Yuuma3 Mimari i love ganyu Flake yaspo Regraz Mafumafu bongo Moete Senseabel Senseable Kuse KuBsNia_ZhoYL_ wetdog123 eiri-
BeatmapID:2820250
BeatmapSetID:1335792

[Difficulty]
HPDrainRate:4
CircleSize:3
OverallDifficulty:4.5
ApproachRate:5
SliderMultiplier:0.960000005960459
SliderTickRate:1

[Events]
//Background and Video events
0,0,"furry.jpg",0,0
Video,-200,"OP.mp4"
//Break Periods
//Storyboard Layer 0 (Background)
//Storyboard Layer 1 (Fail)
//Storyboard Layer 2 (Pass)
//Storyboard Layer 3 (Foreground)
//Storyboard Layer 4 (Overlay)
//Storyboard Sound Samples

[TimingPoints]
-3395,352.941176470588,4,2,1,40,1,0
1546,-100,4,2,1,40,0,0
2249,-100,4,2,1,40,0,0
2252,-100,4,2,1,60,0,0
13546,-100,4,2,1,70,0,0
24840,-100,4,2,1,60,0,0
30484,-100,4,2,1,60,0,0
30487,-100,4,2,1,75,0,0
35778,-100,4,2,1,60,0,0
35781,-100,4,2,1,60,0,0
36131,-100,4,2,1,60,0,0
36134,-100,4,2,1,80,0,1
36222,-100,4,2,1,80,0,0
47428,-100,4,2,1,80,0,1
55899,-100,4,2,1,80,0,1
55987,-100,4,2,1,80,0,0
75663,-100,4,2,1,80,0,1
84130,-100,4,2,1,80,0,1
84134,-100,4,2,1,70,0,0
86957,-100,4,2,1,90,0,0

[Colours]
Combo1 : 191,96,0
Combo2 : 143,32,255
Combo3 : 191,0,96
Combo4 : 0,80,159

[HitObjects]
64,48,2252,6,0,L|160:48,1,96.0000005960459,10|10,0:0|0:0,0:0:0:0:
256,48,2957,2,0,L|352:48,1,96.0000005960459,10|10,0:0|0:0,0:0:0:0:
352,144,3663,2,0,L|256:144,1,96.0000005960459,10|8,0:0|0:0,0:0:0:0:
208,144,4193,1,2,0:0:0:0:
112,144,4546,1,2,0:0:0:0:
112,240,4899,6,0,L|208:240,1,96.0000005960459,2|2,0:0|0:0,0:0:0:0:
256,240,5428,1,8,0:0:0:0:
352,240,5781,2,0,L|448:240,1,96.0000005960459,10|10,0:0|0:0,0:0:0:0:
448,336,6487,2,0,L|400:336,1,48.0000002980229,10|2,0:0|0:0,0:0:0:0:
304,336,7016,2,0,L|208:336,1,96.0000005960459,2|2,0:0|0:0,0:0:0:0:
160,336,7546,1,10,0:0:0:0:
160,240,7899,6,0,L|256:240,1,96.0000005960459,10|10,0:0|0:0,0:0:0:0:
352,240,8604,2,0,L|448:240,1,96.0000005960459,10|10,0:0|0:0,0:0:0:0:
448,144,9310,2,0,L|352:144,1,96.0000005960459,10|10,0:0|0:0,0:0:0:0:
304,144,9840,1,2,0:0:0:0:
208,144,10193,1,2,0:0:0:0:
208,48,10546,6,0,L|304:48,1,96.0000005960459,2|2,0:0|0:0,0:0:0:0:
352,48,11075,1,10,0:0:0:0:
448,48,11428,1,8,0:0:0:0:
448,144,11781,2,0,L|400:144,1,48.0000002980229,10|2,0:0|0:0,0:0:0:0:
352,144,12134,2,0,L|256:144,1,96.0000005960459,10|10,0:0|0:0,0:0:0:0:
208,144,12663,1,2,0:0:0:0:
112,144,13016,1,2,0:0:0:0:
112,240,13369,1,0,0:0:0:0:
112,240,13546,6,0,L|208:240,1,96.0000005960459,10|2,0:0|1:2,0:0:0:0:
256,240,14075,1,2,0:0:0:0:
256,240,14252,2,0,L|352:240,1,96.0000005960459,10|2,0:0|1:2,0:0:0:0:
352,336,14957,2,0,L|256:336,1,96.0000005960459,10|0,0:0|1:0,0:0:0:0:
208,336,15487,1,2,0:0:0:0:
112,336,15840,1,2,0:0:0:0:
112,240,16193,6,0,L|208:240,1,96.0000005960459,2|2,0:0|0:0,0:0:0:0:
256,240,16722,1,0,1:0:0:0:
352,240,17075,2,0,L|448:240,1,96.0000005960459,10|2,0:0|1:2,0:0:0:0:
448,144,17781,2,0,L|384:144,1,48.0000002980229,10|2,0:0|0:0,0:0:0:0:
304,144,18310,2,0,L|208:144,1,96.0000005960459,2|2,0:0|0:0,0:0:0:0:
160,144,18840,1,2,1:2:0:0:
160,48,19193,6,0,L|256:48,1,96.0000005960459,10|2,0:0|1:2,0:0:0:0:
304,48,19722,1,0,0:0:0:0:
304,48,19899,2,0,L|400:48,1,96.0000005960459,10|2,0:0|1:2,0:0:0:0:
448,48,20428,1,2,0:0:0:0:
448,144,20781,2,0,L|384:144,1,48.0000002980229,2|2,0:0|1:2,0:0:0:0:
352,144,21134,1,2,0:0:0:0:
256,144,21487,2,0,L|208:144,1,48.0000002980229,2|2,0:0|1:2,0:0:0:0:
160,144,21840,6,0,L|64:144,1,96.0000005960459,2|2,0:0|0:0,0:0:0:0:
16,144,22369,1,2,1:2:0:0:
16,240,22722,1,10,0:0:0:0:
112,240,23075,2,0,L|160:240,1,48.0000002980229,0|2,1:0|0:0,0:0:0:0:
208,240,23428,1,10,0:0:0:0:
304,240,23781,1,2,1:2:0:0:
400,240,24134,2,0,L|496:240,1,96.0000005960459,10|2,0:0|1:2,0:0:0:0:
496,336,24840,5,10,0:1:0:0:
352,336,25369,2,0,L|304:336,2,48.0000002980229,10|2|10,1:1|0:0|0:1,0:0:0:0:
352,240,26075,1,10,0:1:0:0:
352,240,26252,2,0,L|448:240,1,96.0000005960459,2|2,0:0|1:2,0:0:0:0:
496,240,26781,1,2,1:2:0:0:
496,336,27134,2,0,L|400:336,1,96.0000005960459,10|2,0:1|0:0,0:0:0:0:
352,336,27663,6,0,L|256:336,1,96.0000005960459,10|2,0:1|1:2,0:0:0:0:
160,336,28369,2,0,L|112:336,1,48.0000002980229,2|10,0:0|0:1,0:0:0:0:
112,240,28899,1,10,0:1:0:0:
112,240,29075,2,0,L|208:240,1,96.0000005960459,2|2,0:0|1:2,0:0:0:0:
256,240,29604,1,2,1:2:0:0:
256,144,29957,2,0,L|304:144,2,48.0000002980229,2|10|2,0:0|0:1|0:0,0:0:0:0:
208,144,30487,6,0,L|112:144,1,96.0000005960459,14|2,0:0|1:2,0:0:0:0:
16,144,31193,1,10,0:0:0:0:
16,144,31369,1,2,0:0:0:0:
16,48,31722,2,0,L|112:48,1,96.0000005960459,2|2,0:0|0:0,0:0:0:0:
160,48,32252,1,2,1:2:0:0:
160,48,32428,2,0,L|256:48,1,96.0000005960459,2|2,1:2|0:0,0:0:0:0:
304,48,32957,1,2,1:2:0:0:
400,48,33310,6,0,L|496:48,1,96.0000005960459,10|2,0:0|1:2,0:0:0:0:
496,144,34016,1,10,0:0:0:0:
496,144,34193,2,0,L|400:144,1,96.0000005960459,2|2,0:0|0:0,0:0:0:0:
352,144,34722,2,0,B|160:144|160:144|160:48,1,288.000001788138,8|2,0:0|0:1,0:0:0:0:
256,48,36134,5,14,0:0:0:0:
256,48,36310,2,0,L|352:48,1,96.0000005960459,2|2,0:0|0:0,0:0:0:0:
400,48,36840,1,10,0:0:0:0:
400,144,37193,1,2,1:2:0:0:
400,144,37369,2,0,L|304:144,1,96.0000005960459,2|2,0:0|0:0,0:0:0:0:
256,144,37899,2,0,L|208:144,1,48.0000002980229,2|2,1:2|0:0,0:0:0:0:
160,144,38252,1,10,0:0:0:0:
160,48,38604,1,2,1:2:0:0:
256,48,38957,5,10,0:0:0:0:
256,48,39134,2,0,L|352:48,1,96.0000005960459,2|2,0:0|0:0,0:0:0:0:
400,48,39663,1,10,0:0:0:0:
400,144,40016,1,2,1:2:0:0:
400,144,40193,2,0,L|304:144,1,96.0000005960459,2|2,0:0|0:0,0:0:0:0:
256,144,40722,2,0,L|192:144,1,48.0000002980229,2|2,1:2|0:0,0:0:0:0:
160,144,41075,2,0,L|96:144,2,48.0000002980229,10|2|2,0:0|0:0|1:2,0:0:0:0:
160,240,41781,6,0,L|64:240,2,96.0000005960459,10|2|10,0:0|1:2|0:0,0:0:0:0:
256,240,42840,1,2,1:2:0:0:
352,240,43193,2,0,L|448:240,1,96.0000005960459,10|2,0:0|1:2,0:0:0:0:
448,144,43899,1,10,0:0:0:0:
448,48,44252,1,2,1:2:0:0:
352,48,44604,6,0,L|256:48,2,96.0000005960459,10|2|10,0:0|1:2|0:0,0:0:0:0:
352,144,45663,1,2,1:2:0:0:
352,144,45840,2,0,L|256:144,1,96.0000005960459,2|2,0:0|0:0,0:0:0:0:
208,144,46369,1,2,1:2:0:0:
208,144,46546,2,0,L|112:144,1,96.0000005960459,2|2,0:0|1:2,0:0:0:0:
64,144,47075,1,2,1:2:0:0:
64,240,47428,6,0,L|160:240,1,96.0000005960459,14|0,0:0|1:0,0:0:0:0:
208,240,47957,1,2,0:0:0:0:
208,240,48134,2,0,L|256:240,1,48.0000002980229,10|2,0:0|0:0,0:0:0:0:
256,144,48663,1,2,0:0:0:0:
256,144,48840,2,0,L|320:144,2,48.0000002980229,10|2|2,0:0|0:0|1:2,0:0:0:0:
208,144,49369,2,0,L|112:144,1,96.0000005960459,2|2,0:0|0:0,0:0:0:0:
64,144,49899,1,2,1:2:0:0:
64,144,50075,5,2,0:0:0:0:
64,48,50428,2,0,L|112:48,1,48.0000002980229,2|2,0:0|1:2,0:0:0:0:
160,48,50781,2,0,L|256:48,1,96.0000005960459,2|2,0:0|0:0,0:0:0:0:
304,48,51310,1,2,1:2:0:0:
304,48,51487,2,0,L|400:48,1,96.0000005960459,2|2,0:0|0:0,0:0:0:0:
448,48,52016,1,2,1:2:0:0:
448,144,52369,2,0,L|400:144,1,48.0000002980229,10|2,0:0|0:0,0:0:0:0:
352,144,52722,2,0,L|304:144,1,48.0000002980229,2|2,1:2|0:0,0:0:0:0:
256,144,53075,6,0,L|160:144,2,96.0000005960459,10|2|10,0:0|1:2|0:0,0:0:0:0:
256,240,54134,1,2,1:2:0:0:
352,240,54487,2,0,L|448:240,1,96.0000005960459,10|2,0:0|1:2,0:0:0:0:
448,336,55193,1,10,0:0:0:0:
352,336,55546,1,2,1:2:0:0:
256,336,55899,5,14,0:0:0:0:
256,192,56075,12,10,58016,0:0:0:0:
256,336,58722,5,10,0:0:0:0:
160,336,59075,2,0,L|64:336,2,96.0000005960459,2|10|2,1:2|0:0|1:2,0:0:0:0:
160,240,60134,1,10,0:0:0:0:
256,240,60487,1,2,1:2:0:0:
352,240,60840,2,0,L|448:240,1,96.0000005960459,10|2,0:0|1:2,0:0:0:0:
448,144,61546,6,0,L|352:144,1,96.0000005960459,10|2,0:0|1:2,0:0:0:0:
256,144,62252,2,0,L|160:144,1,96.0000005960459,10|2,0:0|1:2,0:0:0:0:
160,48,62957,2,0,L|256:48,1,96.0000005960459,10|2,0:0|1:2,0:0:0:0:
352,48,63663,1,10,0:0:0:0:
448,48,64016,1,2,1:2:0:0:
448,144,64369,6,0,L|352:144,2,96.0000005960459,10|2|10,0:0|1:2|0:0,0:0:0:0:
448,240,65428,1,2,1:2:0:0:
448,336,65781,2,0,L|352:336,1,96.0000005960459,10|0,0:0|1:0,0:0:0:0:
304,336,66310,1,2,0:0:0:0:
304,336,66487,2,0,L|208:336,1,96.0000005960459,8|2,0:0|1:2,0:0:0:0:
208,240,67193,5,14,0:0:0:0:
208,240,67369,2,0,L|304:240,1,96.0000005960459,2|2,0:0|0:0,0:0:0:0:
352,240,67899,1,10,0:0:0:0:
352,240,68075,1,2,0:0:0:0:
352,144,68428,1,2,0:0:0:0:
352,144,68604,2,0,L|400:144,2,48.0000002980229,10|2|2,0:0|0:0|1:2,0:0:0:0:
304,144,69134,1,2,0:0:0:0:
208,144,69487,2,0,L|160:144,1,48.0000002980229,2|2,0:0|1:2,0:0:0:0:
112,144,69840,5,2,0:0:0:0:
112,48,70193,2,0,L|160:48,1,48.0000002980229,2|2,0:0|1:2,0:0:0:0:
208,48,70546,1,2,0:0:0:0:
304,48,70899,2,0,L|352:48,1,48.0000002980229,2|2,0:0|1:2,0:0:0:0:
400,48,71252,1,2,0:0:0:0:
400,144,71604,1,2,0:0:0:0:
400,144,71781,1,2,1:2:0:0:
304,144,72134,2,0,L|256:144,1,48.0000002980229,8|2,0:0|0:0,0:0:0:0:
208,144,72487,2,0,L|160:144,1,48.0000002980229,2|2,1:2|0:0,0:0:0:0:
112,144,72840,6,0,L|16:144,2,96.0000005960459,10|2|10,0:0|1:2|0:0,0:0:0:0:
112,240,73899,1,2,1:2:0:0:
208,240,74252,2,0,L|304:240,1,96.0000005960459,10|2,0:0|1:2,0:0:0:0:
400,240,74957,1,10,0:0:0:0:
400,144,75310,1,2,0:0:0:0:
304,144,75663,6,0,L|208:144,1,96.0000005960459,14|0,0:1|1:0,0:0:0:0:
160,144,76193,1,2,0:1:0:0:
160,144,76369,1,10,0:1:0:0:
160,240,76722,1,2,1:1:0:0:
256,240,77075,2,0,L|352:240,1,96.0000005960459,14|0,0:1|1:0,0:0:0:0:
400,240,77604,1,2,0:1:0:0:
400,240,77781,1,10,0:1:0:0:
400,336,78134,2,0,L|352:336,1,48.0000002980229,2|2,1:1|0:1,0:0:0:0:
304,336,78487,6,0,L|208:336,1,96.0000005960459,14|0,0:1|1:0,0:0:0:0:
160,336,79016,1,2,0:1:0:0:
160,336,79193,1,10,0:1:0:0:
160,240,79546,1,2,1:1:0:0:
256,240,79899,2,0,L|352:240,1,96.0000005960459,14|0,0:1|1:0,0:0:0:0:
400,240,80428,1,2,0:1:0:0:
400,240,80605,1,10,0:1:0:0:
400,144,80957,2,0,L|352:144,1,48.0000002980229,2|2,1:1|0:1,0:0:0:0:
304,144,81311,6,0,L|208:144,1,96.0000005960459,14|0,0:1|1:0,0:0:0:0:
160,144,81840,1,2,0:1:0:0:
160,144,82017,1,10,0:1:0:0:
160,48,82369,1,2,1:1:0:0:
256,48,82722,2,0,L|352:48,1,96.0000005960459,14|0,0:1|1:0,0:0:0:0:
400,48,83251,1,2,0:1:0:0:
400,48,83428,1,10,0:1:0:0:
400,144,83780,2,0,L|352:144,1,48.0000002980229,2|2,1:1|0:1,0:0:0:0:
304,144,84134,6,0,L|160:144,1,144.000000894069,14|2,0:1|0:1,0:0:0:0:
112,144,84840,1,2,0:1:0:0:
112,240,85193,1,2,0:1:0:0:
208,240,85546,2,0,L|368:240,1,144.000000894069,10|2,0:1|0:1,0:0:0:0:
400,240,86252,1,2,0:1:0:0:
400,336,86604,2,0,L|336:336,1,48.0000002980229,2|2,0:1|0:1,0:0:0:0:
304,336,86957,1,14,0:1:0:0:
