osu file format v14

[General]
AudioFilename: audio.mp3
AudioLeadIn: 0
PreviewTime: 35737
Countdown: 0
SampleSet: Soft
StackLeniency: 0.7
Mode: 0
LetterboxInBreaks: 0
WidescreenStoryboard: 0

[Editor]
DistanceSpacing: 0.9
BeatDivisor: 4
GridSize: 16
TimelineZoom: 1.5

[Metadata]
Title:Kaibutsu (TV Size)
TitleUnicode:怪物 (TV Size)
Artist:YOASOBI
ArtistUnicode:YOASOBI
Creator:Ryuusei Aika
Version:UberFazz's Special Insane
Source:BEASTARS
Tags:ビースターズ japanese furry anime op2 pop j-pop jpop opening theme 幾田りら Ikuta Rira Lilas Ayase Monster MoeAsuka Atrue SuperBox Fall Marle Calvaria Mariko Sakuragi Reiji Maigo SB hhjkl [Hatsune Miku] [Hatsune_Miku] Hatsune Miku Remapper _lai Kyrian 09kami Ducky- Acyl Acylica Bellicose wafer iWaifu KAMI NO KOTOBA Addy2607 KaedeharaKazuha Airincat Chompy Yooh Reywateil Amateurre Sparhten Ajisai- HabiHolic newton- Yuuma Ogura Yui fedora- UberFazz xidorn Pata-Mon PataMon Deca Wanpachi cycopton Gibune wiken Fuju Stratos Crystal OneShotFox Elcheer Fieryrage hypercyte hypercute Kittyadventure gokugohan12468 Kyouren Zelq ponbot Yuuma3 Mimari i love ganyu Flake yaspo Regraz Mafumafu bongo Moete Senseabel Senseable Kuse KuBsNia_ZhoYL_ wetdog123 eiri-
BeatmapID:2820248
BeatmapSetID:1335792

[Difficulty]
HPDrainRate:5
CircleSize:4
OverallDifficulty:8
ApproachRate:9
SliderMultiplier:2
SliderTickRate:1

[Events]
//Background and Video events
Video,-200,"OP.mp4"
0,0,"furry.jpg",0,0
//Break Periods
2,84334,85828
//Storyboard Layer 0 (Background)
//Storyboard Layer 1 (Fail)
//Storyboard Layer 2 (Pass)
//Storyboard Layer 3 (Foreground)
//Storyboard Layer 4 (Overlay)
//Storyboard Sound Samples

[TimingPoints]
-3395,352.941176470588,4,2,0,50,1,0
1543,-100,4,2,1,40,0,0
2249,-100,4,2,1,60,0,0
2252,-100,4,2,1,60,0,0
13543,-100,4,2,1,70,0,0
13546,-83.3333333333333,4,2,1,70,0,0
24837,-83.3333333333333,4,2,1,60,0,0
30484,-83.3333333333333,4,2,1,75,0,0
35778,-83.3333333333333,4,2,1,60,0,0
36131,-83.3333333333333,4,2,1,80,0,0
36134,-45.4545454545455,4,2,1,80,0,1
55899,-55.5555555555556,4,2,1,80,0,0
67193,-45.4545454545455,4,2,1,80,0,1
72840,-50,4,2,1,80,0,1
75310,-500,4,2,1,80,0,0
75663,-55.5555555555556,4,2,1,80,0,0
80604,-50,4,2,1,80,0,0
84130,-55.5555555555556,4,2,1,70,0,0
86954,-55.5555555555556,4,2,1,90,0,0

[Colours]
Combo1 : 191,96,0
Combo2 : 143,32,255
Combo3 : 191,0,96
Combo4 : 0,80,159

[HitObjects]
46,146,2075,5,0,0:0:0:0:
46,146,2252,6,0,L|15:264,1,100,10|0,0:0|0:0,0:0:0:0:
224,188,2604,2,0,L|193:306,1,100,10|2,0:0|0:0,0:0:0:0:
164,54,2957,2,0,L|133:172,3,100,10|0|10|2,0:0|0:0|0:0|0:0,0:0:0:0:
256,192,3663,6,0,P|292:158|354:261,1,200,10|8,0:0|0:0,0:0:0:0:
365,247,4193,2,0,P|411:214|464:205,1,100,2|8,0:0|0:0,0:0:0:0:
504,300,4546,2,0,P|458:333|405:342,1,100,2|8,0:0|0:0,0:0:0:0:
256,192,4899,5,2,0:0:0:0:
256,192,5252,2,0,L|156:217,2,100,2|8|2,0:0|0:0|0:0,0:0:0:0:
158,102,5781,2,0,L|58:127,1,100,10|2,0:0|0:0,0:0:0:0:
211,305,6134,2,0,L|111:330,1,100,10|2,0:0|0:0,0:0:0:0:
256,192,6487,5,10,0:0:0:0:
256,192,6663,2,0,P|268:125|186:18,1,200,2|2,0:0|0:0,0:0:0:0:
196,22,7193,1,10,0:0:0:0:
196,22,7369,1,2,0:0:0:0:
196,22,7546,1,10,0:0:0:0:
196,22,7722,1,2,0:0:0:0:
256,192,7899,6,0,L|286:313,1,100,10|0,0:0|0:0,0:0:0:0:
342,99,8252,2,0,L|372:220,1,100,10|2,0:0|0:0,0:0:0:0:
462,143,8604,2,0,L|492:264,1,100,10|2,0:0|0:0,0:0:0:0:
342,99,8957,1,10,0:0:0:0:
342,99,9134,1,2,0:0:0:0:
342,99,9310,2,0,L|372:220,2,100,10|0|10,0:0|0:0|0:0,0:0:0:0:
256,192,9840,1,2,0:0:0:0:
256,192,10193,1,2,0:0:0:0:
256,192,10546,1,2,0:0:0:0:
256,192,10899,1,2,0:0:0:0:
55,173,11957,1,2,0:0:0:0:
71,270,12134,1,10,0:0:0:0:
168,254,12310,1,2,0:0:0:0:
152,157,12487,1,10,0:0:0:0:
256,192,12663,2,0,L|432:69,1,200,2|2,0:0|0:0,0:0:0:0:
419,77,13369,1,0,0:0:0:0:
472,276,13546,6,0,L|361:348,1,119.999996337891,10|0,0:0|0:0,0:0:0:0:
444,181,13899,2,0,L|333:253,1,119.999996337891,2|2,1:2|0:0,0:0:0:0:
419,77,14252,2,0,L|308:149,1,119.999996337891,10|2,0:0|0:0,0:0:0:0:
444,181,14604,2,0,L|333:253,1,119.999996337891,2|2,1:2|0:0,0:0:0:0:
99,214,14957,6,0,P|139:180|330:144,1,239.999992675781,10|0,0:0|1:0,0:0:0:0:
223,43,15487,2,0,P|248:94|257:167,1,119.999996337891,2|8,0:0|0:0,0:0:0:0:
118,211,15840,2,0,P|93:160|84:87,1,119.999996337891,2|0,0:0|1:0,0:0:0:0:
223,43,16193,5,2,0:0:0:0:
223,43,16546,1,2,0:0:0:0:
223,43,16722,2,0,L|305:142,1,119.999996337891,0|2,1:0|0:0,0:0:0:0:
190,171,17075,2,0,L|272:270,3,119.999996337891,10|2|2|2,0:0|0:0|1:2|0:0,0:0:0:0:
369,349,17781,6,0,P|372:284|418:236,1,119.999996337891,10|2,0:0|0:0,0:0:0:0:
405,243,18310,1,2,0:0:0:0:
405,243,18487,2,0,P|399:180|372:113,1,119.999996337891,10|2,0:0|0:0,0:0:0:0:
400,35,18840,2,0,P|405:94|425:150,1,119.999996337891,2|2,1:2|0:0,0:0:0:0:
256,192,19193,6,0,L|137:120,1,119.999996337891,10|0,0:0|0:0,0:0:0:0:
236,329,19546,2,0,L|117:257,1,119.999996337891,2|0,1:2|0:0,0:0:0:0:
437,193,19899,2,0,L|318:121,1,119.999996337891,10|2,0:0|0:0,0:0:0:0:
417,330,20252,1,2,1:2:0:0:
417,330,20428,2,0,L|201:199,1,239.999992675781,2|2,0:0|0:0,0:0:0:0:
256,192,20957,1,2,1:2:0:0:
256,192,21134,2,0,L|29:55,1,239.999992675781,2|2,0:0|0:0,0:0:0:0:
50,67,21840,1,2,0:0:0:0:
50,67,22193,1,2,0:0:0:0:
314,18,23252,5,2,0:0:0:0:
314,18,23428,2,0,P|346:68|364:148,1,119.999996337891,10|0,0:0|0:0,0:0:0:0:
398,88,23781,2,0,P|385:145|341:215,1,119.999996337891,2|0,1:2|0:0,0:0:0:0:
353,282,24134,2,0,P|296:299|214:296,1,119.999996337891,10|0,0:0|0:0,0:0:0:0:
80,262,24487,2,0,P|62:205|65:123,1,119.999996337891,2|0,1:2|0:0,0:0:0:0:
256,0,24840,5,10,0:1:0:0:
209,95,25369,1,10,1:1:0:0:
303,95,25546,1,2,0:0:0:0:
432,192,25722,1,10,0:1:0:0:
303,95,26075,1,10,0:1:0:0:
256,192,26252,1,2,0:0:0:0:
209,95,26428,1,2,0:0:0:0:
256,192,26604,1,2,1:2:0:0:
80,192,26781,1,2,1:2:0:0:
256,373,27134,1,10,0:1:0:0:
256,249,27310,1,2,1:2:0:0:
256,125,27487,1,2,0:0:0:0:
256,1,27663,1,10,0:1:0:0:
256,125,28016,1,2,1:2:0:0:
256,249,28369,1,2,0:0:0:0:
256,373,28546,1,10,0:1:0:0:
303,289,28899,1,10,0:1:0:0:
256,192,29076,1,2,0:0:0:0:
209,289,29252,1,2,0:0:0:0:
256,192,29428,1,2,1:2:0:0:
256,0,29604,1,2,1:2:0:0:
256,94,29958,1,2,0:0:0:0:
256,192,30134,1,10,0:1:0:0:
256,290,30310,1,2,0:0:0:0:
256,290,30487,6,0,P|347:297|374:383,1,179.999994506836,14|0,0:0|0:0,0:0:0:0:
408,343,30840,2,0,P|354:273|267:260,1,179.999994506836,2|0,1:2|0:0,0:0:0:0:
283,214,31193,2,0,P|353:234|407:282,1,119.999996337891,10|2,0:0|0:0,0:0:0:0:
483,257,31722,2,0,P|405:203|264:152,1,239.999992675781,2|2,0:0|0:0,0:0:0:0:
32,234,32252,1,2,1:2:0:0:
32,234,32428,2,0,B|81:237|81:237|202:200|202:200|269:201,1,239.999992675781,2|2,1:2|0:0,0:0:0:0:
213,237,32957,2,0,B|180:240|180:240|125:257|125:257|89:257,1,119.999996337891,2|2,1:2|0:0,0:0:0:0:
256,384,33310,5,10,0:0:0:0:
0,192,33663,1,2,1:2:0:0:
256,1,34016,1,10,0:0:0:0:
256,1,34193,1,2,0:0:0:0:
512,192,34546,1,2,0:0:0:0:
256,192,34899,5,2,0:0:0:0:
256,192,35075,5,10,0:0:0:0:
256,192,35252,5,2,0:0:0:0:
256,192,35428,5,10,0:0:0:0:
256,192,35781,5,2,0:1:0:0:
278,172,35869,1,0,1:0:0:0:
288,128,35957,1,0,1:0:0:0:
276,84,36046,1,0,1:0:0:0:
245,45,36134,5,14,0:0:0:0:
414,178,36310,2,0,L|88:47,1,330.000010070801,2|0,0:0|0:0,0:0:0:0:
89,84,36663,5,2,0:0:0:0:
92,340,36840,2,0,L|125:-3,1,330.000010070801,10|0,0:0|0:0,0:0:0:0:
155,3,37193,5,2,1:2:0:0:
386,49,37369,2,0,P|441:184|245:143,1,440.000013427735,2|2,0:0|0:0,0:0:0:0:
245,145,37899,2,0,P|237:202|101:171,1,220.000006713867,2|2,1:2|0:0,0:0:0:0:
386,49,38252,5,10,0:0:0:0:
106,193,38604,1,2,1:2:0:0:
496,371,38957,6,0,B|476:335|476:335|498:148,1,220.000006713867,10|2,0:0|0:0,0:0:0:0:
16,13,39487,2,0,B|36:49|36:49|15:226,1,220.000006713867,2|10,0:0|0:0,0:0:0:0:
256,304,40016,2,0,L|256:80,1,220.000006713867,2|2,1:2|0:0,0:0:0:0:
256,84,40546,1,2,0:0:0:0:
378,65,40722,1,2,1:2:0:0:
214,198,40899,1,2,0:0:0:0:
421,225,41075,1,10,0:0:0:0:
429,142,41252,1,2,0:0:0:0:
331,136,41428,1,2,1:2:0:0:
323,219,41605,1,2,0:0:0:0:
396,369,41781,6,0,B|308:355|231:288|231:288|97:287|-7:381,3,440.000013427735,10|2|10|2,0:0|1:2|0:0|1:2,0:0:0:0:
260,0,43193,2,0,B|289:-1|318:1|318:1|381:67|359:272|359:272|358:212|334:162,1,440.000013427735,10|2,0:0|1:2,0:0:0:0:
7,28,43899,2,2,B|14:6|49:-11|49:-11|45:50|-4:95|-4:95|3:216|3:216|39:175,1,330.000010070801,10|0,0:0|0:0,0:1:0:0:
85,130,44252,2,2,B|87:98|103:81|133:72|188:68|271:79|384:120|483:212,1,440.000013427735,2|10,1:2|0:1,0:1:0:0:
85,130,44957,1,2,1:2:0:0:
469,198,45310,1,10,0:0:0:0:
40,226,45663,2,0,B|-16:209|-16:209|60:200,1,110.000003356934,2|0,1:2|0:0,0:0:0:0:
116,202,45840,2,0,B|142:190|161:168|161:168|228:309|323:358|323:358|324:311,1,330.000010070801,2|0,0:0|0:0,0:0:0:0:
323,259,46193,1,2,0:0:0:0:
116,202,46369,1,2,1:2:0:0:
26,218,46546,2,0,B|50:117|15:22|15:22|52:66|123:93|232:78|260:48,1,440.000013427735,2|2,0:0|1:2,0:0:0:0:
26,218,47075,1,2,1:2:0:0:
239,61,47252,1,2,1:2:0:0:
239,61,47340,1,2,1:2:0:0:
239,61,47428,6,0,B|300:75|300:75|340:137|372:199|338:279|338:279|314:200|370:107,1,440.000013427735,14|0,0:1|1:0,0:0:0:0:
452,45,47957,1,2,0:0:0:0:
337,276,48134,1,10,0:0:0:0:
170,7,48310,2,0,B|108:42|108:42|35:89|109:223|109:223|235:168|235:168|206:114,1,440.000013427735,2|2,0:0|0:0,0:0:0:0:
170,7,48840,1,10,0:0:0:0:
229,164,49016,1,2,0:0:0:0:
477,70,49193,1,2,1:0:0:0:
450,351,49369,2,0,B|367:332|367:332|317:246|327:210|351:187|371:176|402:194|416:231|408:287|229:289,1,440.000013427735,2|2,0:1|0:1,0:0:0:0:
0,299,49899,5,2,1:0:0:0:
254,288,50075,2,2,B|199:255|199:255|153:175|147:109|199:54|199:54|236:97|246:141|195:254,1,440.000013427735,2|2,0:0|0:1,0:1:0:0:
0,299,50604,5,2,1:0:0:0:
258,288,50781,2,2,B|313:255|313:255|359:175|365:109|313:54|313:54|276:97|266:141|317:254,1,440.000013427735,2|2,0:0|0:1,0:1:0:0:
497,372,51310,5,2,1:0:0:0:
510,106,51487,1,2,0:1:0:0:
510,106,51840,5,2,0:0:0:0:
497,372,52016,1,2,1:2:0:0:
497,372,52369,2,0,B|503:342|503:342|481:321|481:321|346:349|346:349|300:329,1,220.000006713867,10|2,0:0|0:0,0:0:0:0:
326,340,52722,1,2,1:2:0:0:
156,372,52899,2,0,B|150:342|150:342|172:321|172:321|307:349|307:349|353:329,1,220.000006713867,2|10,0:0|0:0,0:0:0:0:
256,0,53428,5,2,1:2:0:0:
256,384,53781,1,10,0:0:0:0:
0,192,54134,1,2,1:2:0:0:
512,192,54487,1,10,0:0:0:0:
0,0,54840,1,2,1:2:0:0:
512,384,55193,1,10,0:0:0:0:
0,384,55546,1,2,1:2:0:0:
512,0,55899,1,14,0:0:0:0:
256,192,55987,12,10,58722,0:0:0:0:
459,57,59075,6,0,P|484:144|494:259,1,179.999994506836,10|0,1:0|0:0,0:0:0:0:
333,268,59428,2,0,P|346:179|344:89,1,179.999994506836,10|0,0:1|0:0,0:0:0:0:
194,92,59781,2,0,P|172:179|136:261,1,179.999994506836,10|0,1:0|0:0,0:0:0:0:
270,16,60134,5,10,0:0:0:0:
57,257,60487,2,0,L|432:243,2,359.999989013672,10|10|10,1:0|0:1|1:0,0:0:0:0:
180,384,61546,6,0,L|81:20,1,359.999989013672,10|10,0:1|1:0,0:0:0:0:
290,362,62252,2,0,L|288:-14,1,359.999989013672,10|10,0:1|1:0,0:0:0:0:
412,370,62957,2,0,L|508:5,2,359.999989013672,10|8|10,0:1|1:2|0:1,0:0:0:0:
412,370,64016,1,10,1:0:0:0:
30,325,64369,6,0,P|121:309|225:253,1,179.999994506836,10|0,0:1|0:0,0:0:0:0:
294,122,64722,2,0,P|385:138|489:194,1,179.999994506836,10|0,1:0|0:0,0:0:0:0:
0,217,65075,2,0,P|91:201|195:145,1,179.999994506836,10|0,0:1|0:0,0:0:0:0:
274,25,65428,2,0,P|281:135|262:218,1,179.999994506836,10|8,1:0|0:0,0:0:0:0:
267,202,65693,1,8,0:0:0:0:
267,202,65781,6,0,P|357:208|371:297,1,179.999994506836,10|0,0:1|0:0,0:0:0:0:
376,283,66134,5,8,1:2:0:0:
391,36,66310,2,0,P|271:98|124:134,1,269.999991760254,2|0,0:1|0:0,0:0:0:0:
141,132,66663,5,2,0:0:0:0:
422,151,66840,1,2,1:2:0:0:
141,132,67016,1,2,0:0:0:0:
422,151,67193,5,14,0:0:0:0:
261,388,67369,2,0,B|251:356|232:330|232:330|272:271|297:205|297:205|231:114|256:-35,1,440.000013427735,2|2,0:0|0:0,0:0:0:0:
142,360,67899,1,10,0:0:0:0:
2,115,68075,2,0,B|20:64|20:64|187:16|141:376,1,440.000013427735,2|2,0:0|0:0,0:0:0:0:
142,360,68604,1,10,0:1:0:0:
299,318,68781,1,2,0:1:0:0:
44,234,68957,1,2,1:1:0:0:
322,103,69134,2,0,B|275:100|232:122|232:122|273:212|426:214|467:118,1,330.000010070801,2|0,0:1|0:0,0:0:0:0:
495,100,69487,5,2,0:1:0:0:
424,347,69663,1,2,1:1:0:0:
199,40,69840,6,2,B|201:99|201:99|150:135|81:147|81:147|80:183|99:220|99:220|85:253|86:332|137:389,1,440.000013427735,2|2,0:0|0:1,0:1:0:0:
424,347,70369,1,2,1:0:0:0:
187,31,70546,6,2,B|189:90|189:90|138:126|69:138|69:138|68:174|87:211|87:211|73:244|74:323|125:380,1,440.000013427735,2|2,0:0|0:1,0:1:0:0:
424,347,71075,1,2,1:0:0:0:
175,22,71252,6,2,B|177:81|177:81|126:117|57:129|57:129|56:165|75:202|75:202|61:235|62:314|113:371,1,440.000013427735,2|2,0:0|0:1,0:1:0:0:
108,366,71781,1,2,1:0:0:0:
388,174,72134,2,0,B|375:93|375:93|346:240,1,220.000006713867,8|2,0:0|0:0,0:0:0:0:
289,242,72487,2,0,B|302:161|302:161|331:308,1,220.000006713867,2|2,1:2|0:0,0:0:0:0:
232,378,72840,6,0,L|11:12,3,400,10|2|10|2,0:0|1:2|0:0|1:2,0:0:0:0:
244,24,74252,2,0,P|226:139|-4:288,1,400,10|2,0:0|1:2,0:0:0:0:
512,282,74957,2,0,P|396:294|192:110,1,400,10|2,0:0|0:0,0:0:0:0:
195,119,75663,5,14,0:1:0:0:
195,119,75928,5,2,0:1:0:0:
195,119,76193,5,2,0:1:0:0:
302,66,76369,2,0,B|320:107|320:107|315:255,1,179.999994506836,10|0,0:1|0:0,0:0:0:0:
441,78,76722,2,0,B|424:114|424:114|448:221|448:221|429:260,1,179.999994506836,2|2,1:1|0:1,0:0:0:0:
361,356,77075,5,14,0:1:0:0:
215,366,77340,5,2,0:1:0:0:
69,376,77604,5,2,0:1:0:0:
69,376,77781,2,0,P|105:291|92:200,1,179.999994506836,10|2,0:1|0:1,0:0:0:0:
0,104,78134,2,0,L|190:101,1,179.999994506836,2|2,1:1|0:1,0:0:0:0:
318,105,78487,5,14,0:1:0:0:
318,105,78752,5,2,0:1:0:0:
318,105,79016,5,2,0:1:0:0:
434,41,79193,1,10,0:1:0:0:
436,174,79369,1,0,0:0:0:0:
422,32,79546,1,2,1:1:0:0:
318,105,79722,1,2,0:1:0:0:
506,102,79899,5,14,0:1:0:0:
502,242,80163,5,2,0:1:0:0:
498,382,80428,5,2,0:1:0:0:
498,382,80604,2,0,P|429:308|314:258,3,200,10|2|2|2,0:1|0:1|1:1|0:1,0:0:0:0:
164,249,81310,5,14,0:1:0:0:
164,249,81575,5,2,0:1:0:0:
164,249,81840,5,2,0:1:0:0:
24,168,82016,2,0,B|17:222|17:222|80:364,2,200,10|0|2,0:1|0:0|1:1,0:0:0:0:
24,168,82546,1,2,0:1:0:0:
150,53,82722,5,14,0:1:0:0:
289,61,82987,5,2,0:1:0:0:
428,69,83252,5,2,0:1:0:0:
428,69,83428,1,10,0:1:0:0:
420,208,83604,1,2,0:1:0:0:
281,200,83781,1,2,1:1:0:0:
289,61,83957,1,2,0:1:0:0:
353,133,84134,5,14,0:1:0:0:
156,150,86428,5,2,0:1:0:0:
211,291,86604,1,2,0:1:0:0:
352,236,86781,1,2,0:1:0:0:
297,95,86957,5,14,0:1:0:0:
