osu file format v14

[General]
AudioFilename: audio.mp3
AudioLeadIn: 0
PreviewTime: 35737
Countdown: 0
SampleSet: Soft
StackLeniency: 0.2
Mode: 0
LetterboxInBreaks: 0
WidescreenStoryboard: 0

[Editor]
Bookmarks: 65252,84134
DistanceSpacing: 0.2
BeatDivisor: 4
GridSize: 32
TimelineZoom: 2.5

[Metadata]
Title:Kaibutsu (TV Size)
TitleUnicode:怪物 (TV Size)
Artist:YOASOBI
ArtistUnicode:YOASOBI
Creator:Ryuusei Aika
Version:Senseabel's Extra
Source:BEASTARS
Tags:ビースターズ japanese furry anime op2 pop j-pop jpop opening theme 幾田りら Ikuta Rira Lilas Ayase Monster MoeAsuka Atrue SuperBox Fall Marle Calvaria Mariko Sakuragi Reiji Maigo SB hhjkl [Hatsune Miku] [Hatsune_Miku] Hatsune Miku Remapper _lai Kyrian 09kami Ducky- Acyl Acylica Bellicose wafer iWaifu KAMI NO KOTOBA Addy2607 KaedeharaKazuha Airincat Chompy Yooh Reywateil Amateurre Sparhten Ajisai- HabiHolic newton- Yuuma Ogura Yui fedora- UberFazz xidorn Pata-Mon PataMon Deca Wanpachi cycopton Gibune wiken Fuju Stratos Crystal OneShotFox Elcheer Fieryrage hypercyte hypercute Kittyadventure gokugohan12468 Kyouren Zelq ponbot Yuuma3 Mimari i love ganyu Flake yaspo Regraz Mafumafu bongo Moete Senseabel Senseable Kuse KuBsNia_ZhoYL_ wetdog123 eiri-
BeatmapID:2820246
BeatmapSetID:1335792

[Difficulty]
HPDrainRate:5
CircleSize:5
OverallDifficulty:8.7
ApproachRate:9.3
SliderMultiplier:1.80000000596046
SliderTickRate:1

[Events]
//Background and Video events
0,0,"furry.jpg",0,0
Video,-200,"OP.mp4"
//Break Periods
//Storyboard Layer 0 (Background)
//Storyboard Layer 1 (Fail)
//Storyboard Layer 2 (Pass)
//Storyboard Layer 3 (Foreground)
//Storyboard Layer 4 (Overlay)
//Storyboard Sound Samples

[TimingPoints]
-3395,352.941176470588,4,2,1,40,1,0
2252,-142.857142857143,4,2,1,60,0,0
2957,-125,4,2,1,60,0,0
3663,-100,4,2,1,60,0,0
3927,-100,4,2,1,5,0,0
4016,-100,4,2,1,60,0,0
4722,-125,4,2,1,60,0,0
6310,-125,4,2,1,60,0,0
13546,-125,4,2,1,70,0,0
15487,-100,4,2,1,70,0,0
16193,-125,4,2,1,70,0,0
20428,-100,4,2,1,70,0,0
21663,-125,4,2,1,70,0,0
24840,-50,4,2,1,60,0,0
28193,-125,4,2,1,60,0,0
30487,-66.6666666666667,4,2,1,75,0,0
31546,-125,4,2,1,75,0,0
31899,-66.6666666666667,4,2,1,75,0,0
32781,-125,4,2,1,75,0,0
35781,-125,4,2,1,60,0,0
36045,-125,4,2,1,5,0,0
36134,-57.1428571428571,4,2,1,80,0,0
36840,-66.6666666666667,4,2,1,80,0,0
41781,-45.4545454545455,4,2,1,80,0,0
42134,-66.6666666666667,4,2,1,80,0,0
42487,-66.6666666666667,4,2,1,80,0,0
43193,-66.6666666666667,4,2,1,80,0,0
44957,-83.3333333333333,4,2,1,80,0,0
45310,-66.6666666666667,4,2,1,80,0,0
47428,-50,4,2,1,80,0,0
48310,-66.6666666666667,4,2,1,80,0,0
49193,-50,4,2,1,80,0,0
49722,-45.4545454545455,4,2,1,80,0,0
51663,-52.6315789473684,4,2,1,80,0,0
52016,-58.8235294117647,4,2,1,80,0,0
53075,-66.6666666666667,4,2,1,80,0,0
53781,-100,4,2,1,80,0,0
54134,-55.5555555555556,4,2,1,80,0,0
55193,-76.9230769230769,4,2,1,80,0,0
55546,-62.5,4,2,1,80,0,0
55899,-71.4285714285714,4,2,1,80,0,0
56428,-83.3333333333333,4,2,1,80,0,0
56604,-71.4285714285714,4,2,1,80,0,0
57663,-100,4,2,1,80,0,0
58016,-83.3333333333333,4,2,1,80,0,0
59428,-66.6666666666667,4,2,1,80,0,0
60310,-83.3333333333333,4,2,1,80,0,0
61546,-71.4285714285714,4,2,1,80,0,0
62075,-83.3333333333333,4,2,1,80,0,0
62252,-62.5,4,2,1,80,0,0
62604,-71.4285714285714,4,2,1,80,0,0
63663,-83.3333333333333,4,2,1,80,0,0
65781,-66.6666666666667,4,2,1,80,0,0
66134,-83.3333333333333,4,2,1,80,0,0
66487,-66.6666666666667,4,2,1,80,0,0
67193,-55.5555555555556,4,2,1,80,0,0
68075,-71.4285714285714,4,2,1,80,0,0
69487,-45.4545454545455,4,2,1,80,0,0
70016,-71.4285714285714,4,2,1,80,0,0
70193,-45.4545454545455,4,2,1,80,0,0
70722,-71.4285714285714,4,2,1,80,0,0
70899,-45.4545454545455,4,2,1,80,0,0
71428,-71.4285714285714,4,2,1,80,0,0
71781,-58.8235294117647,4,2,1,80,0,0
73104,-71.4285714285714,4,2,1,80,0,0
73899,-100,4,2,1,80,0,0
74252,-58.8235294117647,4,2,1,80,0,0
74604,-58.8235294117647,4,2,1,80,0,0
75134,-100,4,2,1,80,0,0
75663,-71.4285714285714,4,2,1,80,0,0
76193,-47.6190476190476,4,2,1,80,0,0
76722,-62.5,4,2,1,80,0,0
77604,-45.4545454545455,4,2,1,80,0,0
78222,-62.5,4,2,1,80,0,0
79016,-43.4782608695652,4,2,1,80,0,0
79634,-71.4285714285714,4,2,1,80,0,0
79899,-62.5,4,2,1,80,0,0
80163,-62.5,4,2,1,80,0,0
80428,-62.5,4,2,1,80,0,0
80604,-55.5555555555556,4,2,1,80,0,0
80781,-62.5,4,2,1,80,0,0
80957,-55.5555555555556,4,2,1,80,0,0
81134,-62.5,4,2,1,80,0,0
81310,-62.5,4,2,1,80,0,0
81840,-41.6666666666667,4,2,1,80,0,0
82457,-71.4285714285714,4,2,1,80,0,0
82722,-62.5,4,2,1,80,0,0
83252,-40,4,2,1,80,0,0
83869,-62.5,4,2,1,80,0,0
84134,-125,4,2,1,70,0,0
86957,-125,4,2,1,90,0,0

[Colours]
Combo1 : 243,12,52
Combo2 : 143,32,255
Combo3 : 191,0,96
Combo4 : 0,80,159
Combo5 : 0,255,128
Combo6 : 0,128,255
Combo7 : 255,128,0
Combo8 : 128,128,255

[HitObjects]
430,365,1546,6,2,B|427:373|464:424|551:381|532:289|458:301|458:301|426:306|406:279|411:250,1,270.000000894069,2|0,0:0|0:0,0:1:0:0:
344,157,2252,6,0,P|364:138|417:145,1,62.9999982860087,10|0,0:0|0:0,0:0:0:0:
410,259,2604,2,0,P|415:232|462:206,1,62.9999982860087,10|2,0:0|0:0,0:0:0:0:
346,365,2957,5,10,0:0:0:0:
278,340,3134,1,0,0:0:0:0:
152,357,3310,1,10,0:0:0:0:
152,357,3487,1,2,0:0:0:0:
83,321,3663,6,0,B|66:247|5:304|11:180,1,135.000000447034,10|0,0:0|0:0,0:0:0:0:
11,214,4016,1,8,0:0:0:0:
176,267,4193,2,0,B|179:228|148:237|163:181,1,90.000000298023,2|8,0:0|0:0,0:0:0:0:
233,320,4546,1,2,0:0:0:0:
278,264,4722,2,0,B|293:227|261:226|292:178,1,72.0000002384184,8|2,0:0|0:0,0:0:0:0:
352,346,5075,5,8,0:0:0:0:
420,368,5252,1,2,0:0:0:0:
443,300,5428,1,8,0:0:0:0:
374,277,5604,1,2,0:0:0:0:
420,368,5781,5,10,0:0:0:0:
302,293,5957,1,2,0:0:0:0:
183,339,6134,1,10,0:0:0:0:
109,322,6310,1,2,0:0:0:0:
109,322,6487,6,0,P|78:283|74:220,1,108.000000357628,10|0,0:0|0:0,0:0:0:0:
72,226,6840,1,8,0:0:0:0:
211,271,7016,2,0,P|209:236|190:206,1,72.0000002384184,2|10,0:0|0:0,0:0:0:0:
0,125,7369,5,2,0:0:0:0:
59,81,7546,1,10,0:0:0:0:
59,81,7722,1,2,0:0:0:0:
280,78,7899,6,0,P|293:111|287:146,1,72.0000002384184,10|0,0:0|0:0,0:0:0:0:
183,108,8252,2,0,P|190:143|213:169,1,72.0000002384184,10|2,0:0|0:0,0:0:0:0:
302,10,8604,6,0,P|332:29|348:60,1,72.0000002384184,10|2,0:0|0:0,0:0:0:0:
127,61,8957,2,0,P|111:93|114:128,1,72.0000002384184,10|2,0:0|0:0,0:0:0:0:
213,169,9310,5,10,0:0:0:0:
287,146,9487,1,0,0:0:0:0:
238,243,9663,1,10,0:0:0:0:
312,219,9840,1,2,0:0:0:0:
312,219,10193,6,0,P|371:221|400:300,1,144.000000476837,2|2,0:0|0:0,0:0:0:0:
356,351,10722,1,8,0:0:0:0:
419,164,10899,2,0,P|398:131|401:89,2,72.0000002384184,2|10|0,0:0|0:0|0:0,0:0:0:0:
489,200,11428,1,8,0:0:0:0:
489,200,11781,1,10,0:0:0:0:
489,200,11957,5,2,0:0:0:0:
443,265,12134,1,10,0:0:0:0:
349,288,12310,1,0,0:0:0:0:
232,234,12487,1,10,0:0:0:0:
232,234,12840,1,8,0:0:0:0:
232,234,13193,1,2,0:3:0:0:
222,214,13281,1,0,0:0:0:0:
225,192,13369,1,0,0:0:0:0:
303,202,13546,5,10,0:0:0:0:
165,269,13722,1,0,0:0:0:0:
232,234,13899,1,2,1:2:0:0:
268,301,14075,1,2,0:0:0:0:
195,167,14252,1,10,0:0:0:0:
165,269,14428,5,2,0:0:0:0:
70,182,14604,2,0,B|104:178|104:178|141:198,1,72.0000002384184,2|2,1:2|0:0,0:0:0:0:
85,364,14957,2,0,B|119:368|119:368|156:348,2,72.0000002384184,10|0|0,0:0|0:0|1:0,0:0:0:0:
30,262,15487,6,0,B|68:265|68:265|71:263|71:263|164:268,1,135.000000447034,2|0,0:0|0:0,0:0:0:0:
164,268,15840,1,2,0:0:0:0:
55,127,16016,1,0,1:0:0:0:
115,88,16193,2,0,B|118:68|118:68|109:31,1,36.0000001192092,2|0,0:0|0:0,0:0:0:0:
16,34,16369,5,8,0:0:0:0:
123,159,16546,1,2,0:0:0:0:
202,17,16722,1,0,1:0:0:0:
115,88,16899,1,2,0:0:0:0:
226,177,17075,5,10,0:0:0:0:
226,177,17252,1,2,0:0:0:0:
226,177,17428,1,2,1:2:0:0:
226,177,17604,1,2,0:0:0:0:
244,159,17693,1,0,0:0:0:0:
268,153,17781,1,10,0:0:0:0:
339,188,17957,1,2,0:0:0:0:
339,188,18310,6,0,P|357:154|351:110,1,72.0000002384184,2|10,0:0|0:0,0:0:0:0:
441,238,18663,1,2,0:0:0:0:
287,262,18840,1,2,1:2:0:0:
441,238,19016,1,2,0:0:0:0:
358,310,19193,2,0,P|376:344|370:388,1,72.0000002384184,10|0,0:0|0:0,0:0:0:0:
219,306,19546,5,2,1:2:0:0:
152,348,19722,1,0,0:0:0:0:
112,278,19899,1,10,0:0:0:0:
178,236,20075,1,2,0:0:0:0:
70,350,20252,1,2,1:2:0:0:
256,238,20428,2,0,B|306:268|347:216|330:207|369:172|423:204,1,180.000000596046,2|2,0:0|0:0,0:0:0:0:
354,298,20957,5,2,1:2:0:0:
316,139,21134,1,2,0:0:0:0:
334,221,21310,1,8,0:0:0:0:
334,221,21487,1,2,0:0:0:0:
415,200,21663,6,0,B|416:159|440:185|439:122,1,72.0000002384184,2|2,1:2|0:0,0:0:0:0:
468,262,22016,2,0,B|503:283|468:291|523:321,1,72.0000002384184,8|2,0:0|0:0,0:0:0:0:
388,286,22369,2,0,B|351:305|362:271|308:304,1,72.0000002384184,2|0,1:2|0:0,0:0:0:0:
368,133,22722,1,10,0:0:0:0:
368,133,23075,5,0,1:0:0:0:
359,145,23252,1,2,0:0:0:0:
368,133,23340,1,0,0:0:0:0:
363,119,23428,1,10,0:0:0:0:
433,146,23781,1,2,1:2:0:0:
368,133,24134,1,10,0:0:0:0:
433,146,24487,1,2,1:2:0:0:
368,133,24840,6,0,B|372:164|344:173|344:173|360:157|359:125,1,90.000000298023,10|0,0:1|0:0,0:0:0:0:
318,82,25193,5,2,1:2:0:0:
135,23,25369,1,10,1:1:0:0:
183,150,25546,5,0,0:0:0:0:
249,128,25722,1,10,0:1:0:0:
183,150,25899,1,0,1:2:0:0:
323,263,26076,5,10,0:1:0:0:
268,217,26252,1,0,0:0:0:0:
209,248,26428,1,0,0:0:0:0:
172,373,26604,5,2,1:2:0:0:
348,346,26781,1,2,1:2:0:0:
348,346,27134,5,10,0:1:0:0:
281,296,27310,1,2,1:2:0:0:
297,218,27487,1,2,0:0:0:0:
209,336,27663,2,0,P|162:311|112:315,1,90.000000298023,10|0,0:1|0:0,0:0:0:0:
126,312,28016,5,2,1:2:0:0:
259,271,28193,2,0,P|252:246|254:217,1,36.0000001192092,10|0,1:1|0:0,0:0:0:0:
329,257,28546,2,0,P|323:239|321:222,1,36.0000001192092,10|0,0:1|0:0,0:0:0:0:
394,224,28722,1,0,1:2:0:0:
394,224,28899,5,10,0:1:0:0:
259,271,29075,1,2,0:0:0:0:
165,236,29251,1,2,0:0:0:0:
142,163,29428,1,2,1:2:0:0:
142,163,29604,1,2,1:2:0:0:
142,163,29957,5,2,0:0:0:0:
348,86,30134,1,10,0:1:0:0:
217,140,30310,1,2,0:0:0:0:
278,117,30399,1,0,0:0:0:0:
251,147,30487,2,0,B|260:164|306:178|338:148|326:146|358:112|397:113|418:138|433:127|433:127|406:168|402:209,1,270.000011193752,14|2,0:0|1:2,0:0:0:0:
423,55,31016,5,2,1:2:0:0:
462,259,31193,2,0,P|482:199|514:131,1,135.000005596876,10|2,0:0|0:0,0:0:0:0:
312,10,31546,6,0,P|325:43|333:78,1,72.0000002384184,0|2,1:0|0:0,0:0:0:0:
258,105,31899,2,0,B|268:27|170:11|170:11|172:44|158:72,1,202.500008395314,8|0,0:0|0:0,0:0:0:0:
160,66,32252,1,2,1:2:0:0:
333,78,32428,1,2,1:2:0:0:
147,167,32604,2,0,B|180:200|227:176|227:176|199:161|191:143,1,135.000005596876,8|2,0:0|0:0,0:0:0:0:
98,111,32957,5,2,1:2:0:0:
305,157,33134,1,2,0:0:0:0:
98,111,33310,1,10,0:0:0:0:
98,111,33663,5,2,1:2:0:0:
28,271,33840,1,0,1:0:0:0:
98,111,34016,2,0,P|67:147|59:187,1,72.0000002384184,10|2,0:0|0:0,0:0:0:0:
22,40,34369,1,0,1:0:0:0:
149,167,34546,2,0,P|134:189|126:208,1,36.0000001192092,2|0,0:0|0:0,0:0:0:0:
28,271,34722,5,8,0:0:0:0:
136,295,35075,5,10,0:0:0:0:
288,329,35428,5,10,0:0:0:0:
361,299,35781,6,0,B|372:270|357:248|344:264|329:231|350:193,1,108.000000357628,2|0,0:1|0:0,0:0:0:0:
440,295,36134,6,0,B|462:307|460:337|460:337|410:286|369:284|369:284|369:278|369:278|324:265|268:286|268:286|289:302|288:340,1,315.000004047155,14|0,0:0|1:0,0:0:0:0:
120,248,36663,1,2,0:0:0:0:
207,316,36840,2,0,B|207:309|198:359|273:380|273:380|306:312|265:284,1,202.500008395314,10|0,0:0|0:0,0:0:0:0:
208,245,37193,1,2,1:2:0:0:
270,176,37369,5,2,0:0:0:0:
76,329,37546,2,0,P|154:289|294:294,1,202.500008395314,8|0,0:0|0:0,0:0:0:0:
267,286,37899,1,2,1:2:0:0:
18,186,38075,1,2,0:0:0:0:
207,245,38252,2,0,P|192:215|164:197,1,67.500002798438,10|0,0:0|0:0,0:0:0:0:
83,254,38428,1,0,0:0:0:0:
83,254,38604,2,0,B|85:203|85:203|89:198|89:198|97:27,1,202.500008395314,2|0,1:2|0:0,0:0:0:0:
95,53,38957,5,10,0:0:0:0:
306,94,39134,2,0,L|239:106,1,67.500002798438,2|0,0:0|0:0,0:0:0:0:
207,245,39310,2,0,P|253:186|322:175,1,135.000005596876,0|2,1:0|0:0,0:0:0:0:
441,86,39663,2,0,B|474:138|433:190|433:190|403:186,1,135.000005596876,10|0,0:0|0:0,0:0:0:0:
319,293,40016,5,2,1:2:0:0:
246,310,40193,2,0,B|230:340|230:340|248:375,1,67.500002798438,2|0,0:0|0:0,0:0:0:0:
159,160,40369,5,8,0:0:0:0:
352,223,40546,1,2,0:0:0:0:
84,248,40722,1,2,1:2:0:0:
428,136,40899,1,2,0:0:0:0:
39,180,41075,1,10,0:0:0:0:
472,203,41252,1,2,0:0:0:0:
270,149,41428,1,2,1:2:0:0:
242,235,41604,1,2,0:0:0:0:
74,29,41781,6,0,B|115:66|185:84|201:38|206:45|256:9|297:38|302:32|364:132|332:-28|462:66,3,396.000013396263,10|2|10|2,0:0|1:2|0:0|1:2,0:0:0:0:
500,120,43016,1,0,0:0:0:0:
333,340,43193,6,0,B|317:299|273:298|273:298|243:284|240:240,1,135.000005596876,10|0,0:0|0:0,0:0:0:0:
101,112,43546,2,0,B|138:135|174:110|174:110|206:104|235:138,1,135.000005596876,2|0,1:2|0:0,0:0:0:0:
431,158,43899,2,0,B|387:160|372:202|372:202|349:226|307:215,1,135.000005596876,10|0,0:0|0:0,0:0:0:0:
134,309,44252,2,0,B|168:281|155:238|155:238|159:206|200:189,1,135.000005596876,2|0,1:2|0:0,0:0:0:0:
279,15,44604,2,0,B|267:57|302:84|302:84|318:113|295:150,1,135.000005596876,10|0,0:0|0:0,0:0:0:0:
385,89,44869,5,0,0:0:0:0:
385,89,44957,2,0,B|387:48|352:20|352:20|403:35|461:-24,1,161.999995592594,2|0,1:2|0:0,0:0:0:0:
467,73,45310,2,0,P|369:66|301:138,1,202.500008395314,10|0,0:0|0:0,0:0:0:0:
301,138,45663,1,2,1:2:0:0:
433,334,45840,2,0,P|393:316|352:312,1,67.500002798438,2|0,0:0|0:0,0:0:0:0:
484,276,46016,2,0,P|449:259|335:236,1,135.000005596876,8|2,0:0|0:0,0:0:0:0:
486,194,46369,5,2,1:2:0:0:
301,138,46546,1,2,0:0:0:0:
243,326,46722,1,10,0:0:0:0:
428,382,46899,1,2,1:2:0:0:
141,251,47075,5,2,1:2:0:0:
186,194,47163,1,0,1:0:0:0:
186,145,47252,1,2,1:2:0:0:
169,123,47340,1,2,1:2:0:0:
111,73,47428,6,0,B|139:11|208:21|208:21|195:79|270:112|307:82|286:61|300:35|363:24|410:71,1,360.000001192092,14|0,0:0|1:0,0:0:0:0:
444,113,47957,5,2,0:0:0:0:
258,198,48134,1,10,0:0:0:0:
413,232,48310,2,0,B|397:203|397:203|412:173,1,67.500002798438,2|0,0:0|0:0,0:0:0:0:
333,285,48487,2,0,B|250:303|250:303|248:306|248:306|203:316,1,135.000005596876,0|2,1:0|0:0,0:0:0:0:
167,242,48840,5,10,0:0:0:0:
82,356,49016,1,2,0:0:0:0:
258,198,49193,2,0,B|205:171|205:171|189:94|189:94|188:95|188:95|176:37,2,180.000000596046,2|2|8,1:2|0:0|0:0,0:0:0:0:
372,335,49722,6,0,B|341:257|427:244|432:228|432:228|428:277|486:301,2,198.000006698131,2|2|2,0:0|1:2|0:0,0:0:0:0:
281,270,50252,1,8,0:0:0:0:
509,234,50428,6,0,B|451:279|412:225|419:222|383:156|308:231,2,198.000006698131,2|2|2,0:0|1:2|0:0,0:0:0:0:
308,139,50957,1,8,0:0:0:0:
449,127,51134,6,0,B|428:203|428:203|429:204|429:204|401:317,2,198.000006698131,2|2|2,0:0|1:2|0:0,0:0:0:0:
226,349,51663,6,0,B|206:310|206:310|70:291|69:291,1,170.999996000051,8|2,0:0|0:0,0:0:0:0:
209,196,52016,2,0,B|220:241|164:274|164:274|158:242|122:224,1,153.000003424883,2|0,1:2|0:0,0:0:0:0:
80,292,52281,1,0,0:0:0:0:
80,292,52369,2,0,B|56:308|56:308|-16:295,1,76.5000017124413,10|0,0:0|0:0,0:0:0:0:
94,145,52546,2,0,B|70:129|70:129|-2:142,1,76.5000017124413,2|0,0:0|0:0,0:0:0:0:
58,214,52722,5,2,1:2:0:0:
133,230,52899,1,2,0:0:0:0:
226,349,53075,2,0,L|443:363,1,202.500008395314,10|0,0:0|0:0,0:0:0:0:
474,288,53428,2,0,B|440:252|440:252|348:270,1,135.000005596876,2|0,1:2|0:0,0:0:0:0:
428,362,53781,6,0,B|472:365|472:365|498:323|498:323|457:263,1,135.000000447034,10|0,0:0|0:0,0:0:0:0:
428,362,54134,6,0,B|476:290|476:290|450:210|450:210|371:183|371:183|346:103,1,323.999991185188,2|10,1:2|0:0,0:0:0:0:
468,3,54663,1,0,0:0:0:0:
429,128,54840,6,0,B|392:147|356:126|359:115|320:75|247:146,1,161.999995592594,2|0,1:2|0:0,0:0:0:0:
317,330,55193,6,0,P|334:296|345:271,1,58.4999975157976,10|0,0:0|0:0,0:0:0:0:
280,245,55369,2,0,P|267:271|254:297,1,58.4999975157976
407,313,55546,6,0,P|288:321|167:343,1,216.000000715255,2|0,1:2|0:0,0:0:0:0:
104,296,55899,38,0,B|70:322|75:372|129:402|202:367|200:292|167:246,1,251.999993144035,14|0,0:0|1:0,0:0:0:0:
13,194,56340,1,0,0:0:0:0:
13,194,56428,2,0,P|3:169|6:129,1,53.9999985308646
86,182,56604,2,0,B|52:130|97:92|98:111|145:67|95:0,1,188.999994858026,10|0,0:0|0:0,0:0:0:0:
42,54,56957,2,0,P|63:139|165:145,1,188.999994858026,2|0,1:2|0:0,0:0:0:0:
227,203,57310,6,0,P|306:174|410:153,1,188.999994858026,10|0,0:0|0:0,0:0:0:0:
403,234,57663,6,0,P|337:248|274:272,1,135.000000447034,2|0,1:2|0:0,0:0:0:0:
331,333,58016,6,0,P|360:322|399:314,1,53.9999985308646,10|0,0:0|0:0,0:0:0:0:
433,373,58193,1,0,0:0:0:0:
273,272,58369,1,2,1:2:0:0:
110,368,58546,2,0,P|97:341|94:310,1,53.9999985308646
25,366,58722,6,0,P|147:326|213:341,1,161.999995592594,10|0,0:0|0:0,0:0:0:0:
245,367,59075,1,2,1:2:0:0:
116,246,59252,1,0,0:0:0:0:
110,368,59428,2,0,B|151:293|73:232|62:294|-19:212|70:125,2,270.000011193752,10|2|10,0:0|1:2|0:0,0:0:0:0:
210,211,60310,6,0,P|219:174|219:156,1,53.9999985308646
289,222,60487,2,0,P|290:195|298:169,1,53.9999985308646,2|0,1:2|0:0,0:0:0:0:
132,169,60663,1,0,0:0:0:0:
381,211,60840,1,10,0:0:0:0:
284,74,61016,1,0,0:0:0:0:
229,306,61193,1,2,1:2:0:0:
378,107,61369,1,0,0:0:0:0:
84,236,61546,2,0,P|190:233|374:279,1,251.999993144035,10|2,0:0|1:2,0:0:0:0:
185,125,62075,6,0,P|211:130|238:129,1,53.9999985308646
187,50,62252,2,0,B|252:83|297:31|272:20|319:-26|408:21,1,216.000000715255,10|0,0:0|0:0,0:0:0:0:
345,93,62604,38,0,B|348:135|392:159|447:132|459:51|396:11|341:12,1,251.999993144035,2|10,1:2|0:0,0:0:0:0:
187,50,63134,1,0,0:0:0:0:
346,94,63310,2,0,P|397:55|470:50,1,125.999996572017,2|2,1:2|0:0,0:0:0:0:
454,128,63575,1,0,0:0:0:0:
454,128,63663,2,0,P|428:134|407:151,1,53.9999985308646,10|0,0:0|0:0,0:0:0:0:
512,226,63840,2,0,P|487:215|460:216,1,53.9999985308646
477,320,64016,5,2,1:2:0:0:
390,229,64193,1,0,0:0:0:0:
239,185,64369,1,10,0:0:0:0:
73,272,64546,1,0,0:0:0:0:
233,192,64722,1,2,1:2:0:0:
384,236,64898,1,0,0:0:0:0:
471,327,65075,1,10,0:0:0:0:
506,219,65252,6,0,P|481:208|454:209,1,53.9999985308646
448,120,65429,2,0,P|422:126|401:143,1,53.9999985308646,2|0,1:2|0:0,0:0:0:0:
466,334,65604,1,0,0:0:0:0:
512,144,65781,2,0,B|454:179|408:138|439:131|375:69|305:136,1,202.500008395314,10|0,0:0|0:0,0:0:0:0:
335,25,66134,6,0,P|309:37|281:43,1,53.9999985308646,0|0,1:0|0:0,0:0:0:0:
285,190,66310,2,0,P|311:196|335:208,1,53.9999985308646,2|0,0:0|0:0,0:0:0:0:
215,103,66487,1,8,0:0:0:0:
423,122,66663,1,2,0:0:0:0:
219,20,66840,1,2,1:2:0:0:
412,204,67016,1,2,0:0:0:0:
152,63,67193,6,0,B|213:115|207:222|103:214|103:232|103:232|106:189|82:178|90:159|108:137,1,323.999991185188,14|0,0:0|1:0,0:0:0:0:
24,155,67722,1,2,0:0:0:0:
219,20,67899,1,10,0:0:0:0:
31,241,68075,2,0,P|107:263|153:304,1,125.999996572017,2|0,0:0|1:0,0:0:0:0:
299,366,68428,5,2,0:0:0:0:
236,170,68604,1,10,0:0:0:0:
486,232,68781,5,2,0:0:0:0:
446,319,68957,1,2,1:2:0:0:
411,252,69134,1,2,0:0:0:0:
488,72,69310,6,0,B|499:47|499:47|482:5,1,62.9999982860087,8|0,0:0|0:0,0:0:0:0:
417,92,69487,2,0,B|396:57|409:15|409:15|399:30|332:30|331:93,2,198.000006698131,2|2|2,0:0|1:2|0:0,0:0:0:0:
335,175,70016,6,0,B|346:200|346:200|329:242,1,62.9999982860087,8|0,0:0|0:0,0:0:0:0:
425,174,70193,2,0,B|371:214|331:171|341:165|290:116|218:186,2,198.000006698131,2|2|2,0:0|1:2|0:0,0:0:0:0:
160,86,70722,6,0,B|149:61|149:61|166:19,1,62.9999982860087,8|0,0:0|0:0,0:0:0:0:
230,64,70899,2,0,P|259:199|269:271,2,198.000006698131,2|2|2,0:0|1:2|0:0,0:0:0:0:
163,238,71428,6,0,P|159:204|150:165,1,62.9999982860087,8|0,0:0|0:0,0:0:0:0:
80,189,71604,2,0,P|86:219|89:251,1,62.9999982860087,2|0,0:0|0:0,0:0:0:0:
15,237,71781,2,0,P|116:240|130:357,1,229.500005137324,2|0,1:2|0:0,0:0:0:0:
135,349,72134,5,8,0:0:0:0:
163,238,72310,1,2,0:0:0:0:
351,135,72487,5,2,1:2:0:0:
323,23,72663,1,2,0:0:0:0:
269,241,72840,6,0,B|300:162|212:191|240:100,1,153.000003424883,10|0,0:0|0:0,0:0:0:0:
450,250,73104,5,0,0:0:0:0:
450,250,73193,2,0,P|445:302|393:219,1,251.999993144035,2|10,1:2|0:0,0:0:0:0:
487,184,73634,1,0,0:0:0:0:
487,184,73722,2,0,P|504:152|496:103,1,62.9999982860087
302,149,73899,6,0,P|354:112|431:136,1,135.000000447034,2|0,1:2|0:0,0:0:0:0:
419,126,74252,2,0,B|380:99|339:117|339:117|304:35|381:-6,1,229.500005137324,10|0,0:0|0:0,0:0:0:0:
445,23,74604,2,0,B|482:154|344:114|381:226,1,229.500005137324,2|0,1:2|0:0,0:0:0:0:
380,223,74957,1,10,0:0:0:0:
445,271,75134,2,0,P|465:269|493:250,1,45.0000001490115
486,256,75663,6,0,P|485:224|491:185,2,62.9999982860087,14|0|0,0:1|0:0|0:0,0:0:0:0:
342,284,75928,1,2,0:1:0:0:
342,284,76016,2,0,P|347:319|347:355,1,62.9999982860087,0|0,1:0|0:0,0:0:0:0:
436,330,76193,6,0,P|323:318|208:323,3,188.999994858026,2|10|0|2,0:1|0:1|0:0|1:1,0:0:0:0:
196,229,76810,5,0,0:0:0:0:
196,229,76898,2,0,B|183:197|183:197|194:155,1,72.0000002384184,2|0,0:1|0:0,0:0:0:0:
273,225,77075,2,0,B|282:188|282:188|269:156,2,72.0000002384184,14|0|0,0:1|0:0|0:0,0:0:0:0:
102,210,77340,1,2,0:1:0:0:
102,210,77428,2,0,P|62:227|34:259,1,72.0000002384184,0|0,1:0|0:0,0:0:0:0:
0,351,77604,6,0,B|64:373|90:317|72:325|103:254|176:300,3,198.000006698131,2|10|2|2,0:1|0:1|0:1|1:1,0:0:0:0:
153,381,78222,5,0,0:0:0:0:
153,381,78310,2,0,B|176:383|176:383|228:339,1,72.0000002384184,2|0,0:1|0:0,0:0:0:0:
310,234,78487,6,0,B|330:244|330:244|353:323,2,72.0000002384184,14|0|0,0:1|0:0|0:0,0:0:0:0:
284,97,78752,1,2,0:1:0:0:
284,97,78840,2,0,B|304:87|304:87|327:8,1,72.0000002384184,0|0,1:0|0:0,0:0:0:0:
173,194,79016,6,0,L|445:133,3,207.000004633665,2|10|0|2,0:1|0:1|0:0|1:1,0:0:0:0:
393,87,79634,5,0,0:0:0:0:
393,87,79722,2,0,B|426:90|426:90|452:127,1,62.9999982860087,2|0,0:1|0:0,0:0:0:0:
310,234,79899,2,0,B|334:238|334:238|389:216,2,72.0000002384184,14|0|0,0:1|0:0|0:0,0:0:0:0:
205,0,80163,1,2,0:1:0:0:
205,0,80251,2,0,B|245:-4|245:-4|295:35,1,72.0000002384184,0|0,1:0|0:0,0:0:0:0:
40,185,80428,6,0,P|17:160|21:85,1,72.0000002384184,2|0,0:1|0:0,0:0:0:0:
124,132,80604,2,0,P|120:98|169:40,1,80.9999977962969,10|0,0:1|0:0,0:0:0:0:
228,316,80781,6,0,P|224:349|273:407,1,72.0000002384184,2|0,0:1|0:0,0:0:0:0:
144,263,80957,2,0,P|121:288|125:363,1,80.9999977962969,2|0,1:1|0:0,0:0:0:0:
247,185,81134,6,0,P|227:198|245:181,1,72.0000002384184,2|0,0:1|0:0,0:0:0:0:
414,223,81310,6,0,B|409:172|352:156|352:156|362:188|346:210,1,144.000000476837,14|0,0:1|0:0,0:0:0:0:
305,342,81575,1,2,0:1:0:0:
305,342,81663,2,0,P|338:320|383:321,1,72.0000002384184,0|0,1:0|0:0,0:0:0:0:
339,209,81840,2,0,B|374:141|302:122|332:113|253:90|339:-2,3,215.999994123458,2|10|0|2,0:1|0:1|0:0|1:1,0:0:0:0:
202,113,82457,1,0,0:0:0:0:
202,113,82546,2,0,P|174:126|151:168,1,62.9999982860087,2|0,0:1|0:0,0:0:0:0:
199,247,82722,6,0,P|228:224|265:218,2,72.0000002384184,14|0|0,0:1|0:0|0:0,0:0:0:0:
105,42,82987,1,2,0:1:0:0:
105,42,83075,2,0,P|81:62|71:108,1,72.0000002384184,0|0,1:0|0:0,0:0:0:0:
265,300,83252,6,0,P|400:307|497:336,3,225.000000745057,2|10|2|2,0:1|0:1|0:1|1:1,0:0:0:0:
320,178,83957,1,2,0:1:0:0:
185,366,84134,6,0,L|180:318,1,36.0000001192092,14|0,0:1|0:0,0:0:0:0:
185,366,84399,6,0,L|180:318,1,36.0000001192092,2|0,0:1|0:0,0:0:0:0:
185,366,84663,6,0,L|180:318,1,36.0000001192092,2|0,0:1|0:0,0:0:0:0:
115,297,84840,6,0,L|120:249,1,36.0000001192092,2|0,0:1|0:0,0:0:0:0:
202,237,85016,5,2,0:1:0:0:
305,207,85193,5,2,0:1:0:0:
381,216,85369,5,2,0:1:0:0:
134,146,85546,6,0,L|129:98,1,36.0000001192092,10|0,0:1|0:0,0:0:0:0:
134,146,85810,6,0,L|129:98,1,36.0000001192092,2|0,0:1|0:0,0:0:0:0:
134,146,86075,6,0,L|129:98,1,36.0000001192092,2|0,0:1|0:0,0:0:0:0:
56,117,86252,5,2,0:1:0:0:
256,80,86428,5,2,0:1:0:0:
456,50,86604,5,2,0:1:0:0:
234,11,86781,5,2,0:1:0:0:
280,152,86957,5,14,0:1:0:0:
280,152,87046,6,0,L|275:210,1,36.0000001192092,0|0,3:0|0:0,0:0:0:0:
