osu file format v14

[General]
AudioFilename: audio.mp3
AudioLeadIn: 0
PreviewTime: 35737
Countdown: 0
SampleSet: Soft
StackLeniency: 1
Mode: 0
LetterboxInBreaks: 0
WidescreenStoryboard: 1

[Editor]
DistanceSpacing: 0.3
BeatDivisor: 8
GridSize: 8
TimelineZoom: 2.9

[Metadata]
Title:Kaibutsu (TV Size)
TitleUnicode:怪物 (TV Size)
Artist:YOASOBI
ArtistUnicode:YOASOBI
Creator:Ryuusei Aika
Version:Reywateil's Insane
Source:BEASTARS
Tags:ビースターズ japanese furry anime op2 pop j-pop jpop opening theme 幾田りら Ikuta Rira Lilas Ayase Monster MoeAsuka Atrue SuperBox Fall Marle Calvaria Mariko Sakuragi Reiji Maigo SB hhjkl [Hatsune Miku] [Hatsune_Miku] Hatsune Miku Remapper _lai Kyrian 09kami Ducky- Acyl Acylica Bellicose wafer iWaifu KAMI NO KOTOBA Addy2607 KaedeharaKazuha Airincat Chompy Yooh Reywateil Amateurre Sparhten Ajisai- HabiHolic newton- Yuuma Ogura Yui fedora- UberFazz xidorn Pata-Mon PataMon Deca Wanpachi cycopton Gibune wiken Fuju Stratos Crystal OneShotFox Elcheer Fieryrage hypercyte hypercute Kittyadventure gokugohan12468 Kyouren Zelq ponbot Yuuma3 Mimari i love ganyu Flake yaspo Regraz Mafumafu bongo Moete Senseabel Senseable Kuse KuBsNia_ZhoYL_ wetdog123 eiri-
BeatmapID:2820254
BeatmapSetID:1335792

[Difficulty]
HPDrainRate:5.7
CircleSize:4.3
OverallDifficulty:8
ApproachRate:9
SliderMultiplier:2.00000000596046
SliderTickRate:1

[Events]
//Background and Video events
0,0,"furry.jpg",0,0
Video,-200,"OP.mp4"
//Break Periods
//Storyboard Layer 0 (Background)
//Storyboard Layer 1 (Fail)
//Storyboard Layer 2 (Pass)
//Storyboard Layer 3 (Foreground)
//Storyboard Layer 4 (Overlay)
//Storyboard Sound Samples

[TimingPoints]
-3395,352.941176470588,4,2,1,40,1,0
1546,-181.818181818181,4,2,1,40,0,0
1987,-181.818181818181,4,2,1,5,0,0
2075,-117.647058823529,4,2,1,40,0,0
2252,-74.074074074074,4,2,1,60,0,0
3663,-64.5161290322581,4,2,1,60,0,0
4016,-74.074074074074,4,2,1,60,0,0
4457,-74.074074074074,4,2,1,5,0,0
4546,-74.074074074074,4,2,1,60,0,0
4810,-74.074074074074,4,2,1,5,0,0
4899,-74.074074074074,4,2,1,60,0,0
6487,-60.6060606060606,4,2,1,60,0,0
6840,-74.074074074074,4,2,1,60,0,0
7281,-74.074074074074,4,2,1,5,0,0
7369,-74.074074074074,4,2,1,60,0,0
10104,-74.074074074074,4,2,1,5,0,0
10193,-60.6060606060606,4,2,1,60,0,0
10546,-74.074074074074,4,2,1,60,0,0
10810,-74.074074074074,4,2,1,5,0,0
10899,-74.074074074074,4,2,1,60,0,0
12134,-86.9565217391304,4,2,1,60,0,0
13193,-133.333333333333,4,2,1,60,0,0
13546,-68.9655172413793,4,2,1,70,0,0
14604,-68.9655172413793,4,2,1,70,0,0
17781,-57.1428571428571,4,2,1,70,0,0
18310,-68.9655172413793,4,2,1,70,0,0
18575,-68.9655172413793,4,2,1,5,0,0
18663,-68.9655172413793,4,2,1,70,0,0
19457,-68.9655172413793,4,2,5,5,0,0
19546,-68.9655172413793,4,2,1,70,0,0
19810,-68.9655172413793,4,2,5,5,0,0
19899,-68.9655172413793,4,2,1,70,0,0
20693,-68.9655172413793,4,2,1,5,0,0
20781,-68.9655172413793,4,2,1,70,0,0
23428,-57.1428571428571,4,2,1,70,0,0
24840,-133.333333333333,4,2,1,60,0,0
29781,-249.999999999999,4,2,1,60,0,0
30046,-249.999999999999,4,2,1,5,0,0
30134,-249.999999999999,4,2,1,60,0,0
30487,-80,4,2,1,75,0,0
30752,-80,4,2,1,5,0,0
30840,-80,4,2,1,75,0,0
31634,-80,4,2,1,5,0,0
31722,-80,4,2,1,75,0,0
31987,-80,4,2,1,5,0,0
32075,-80,4,2,1,75,0,0
32693,-80,4,2,1,5,0,0
32781,-80,4,2,1,75,0,0
33575,-80,4,2,1,5,0,0
33663,-80,4,2,1,75,0,0
33928,-80,4,2,1,5,0,0
34016,-80,4,2,1,75,0,0
34457,-80,4,2,1,5,0,0
34546,-80,4,2,1,75,0,0
35781,-222.222222222221,4,2,1,60,0,0
36046,-222.222222222221,4,2,1,5,0,0
36134,-60.6060606060606,4,2,1,80,0,1
36222,-60.6060606060606,4,2,1,80,0,0
37634,-60.6060606060606,4,2,1,5,0,0
37722,-60.6060606060606,4,2,1,80,0,0
38516,-60.6060606060606,4,2,1,5,0,0
38604,-60.6060606060606,4,2,1,80,0,0
38869,-60.6060606060606,4,2,1,5,0,0
38957,-60.6060606060606,4,2,1,80,0,0
40457,-60.6060606060606,4,2,1,5,0,0
40546,-60.6060606060606,4,2,1,80,0,0
41781,-80,4,2,1,80,0,0
42046,-80,4,2,1,5,0,0
42134,-74.0740740740741,4,2,1,80,0,0
42399,-74.0740740740741,4,2,1,5,0,0
42487,-68.9655172413793,4,2,1,80,0,0
42840,-57.1428571428571,4,2,1,80,0,0
43104,-57.1428571428571,4,2,1,5,0,0
43193,-74.0740740740741,4,2,1,80,0,0
43457,-74.0740740740741,4,2,1,5,0,0
43546,-80,4,2,1,80,0,0
43810,-80,4,2,1,5,0,0
43899,-60.6060606060606,4,2,1,80,0,0
44163,-60.6060606060606,4,2,1,5,0,0
44252,-66.6666666666667,4,2,1,80,0,0
44604,-57.1428571428571,4,2,1,80,0,0
44869,-57.1428571428571,4,2,1,5,0,0
44957,-64.5161290322581,4,2,1,80,0,0
45222,-64.5161290322581,4,2,1,5,0,0
45310,-54.054054054054,4,2,1,80,0,0
45354,-54.054054054054,4,2,1,5,0,0
45663,-80,4,2,1,80,0,0
45840,-68.9655172413793,4,2,1,80,0,0
46104,-68.9655172413793,4,2,1,5,0,0
46193,-68.9655172413793,4,2,1,80,0,0
46810,-68.9655172413793,4,2,1,5,0,0
46899,-68.9655172413793,4,2,1,80,0,0
47428,-60.6060606060606,4,2,1,80,0,1
47516,-60.6060606060606,4,2,1,80,0,0
49722,-54.054054054054,4,2,1,80,0,0
51134,-60.6060606060606,4,2,1,80,0,0
51752,-60.6060606060606,4,2,1,5,0,0
51840,-60.6060606060606,4,2,1,80,0,0
53075,-68.9655172413793,4,2,1,80,0,0
53340,-68.9655172413793,4,2,1,5,0,0
53428,-68.9655172413793,4,2,1,80,0,0
53693,-68.9655172413793,4,2,1,5,0,0
53781,-68.9655172413793,4,2,1,80,0,0
54134,-60.6060606060606,4,2,1,80,0,0
54399,-60.6060606060606,4,2,1,5,0,0
54487,-68.9655172413793,4,2,1,80,0,0
54752,-68.9655172413793,4,2,1,5,0,0
54840,-68.9655172413793,4,2,1,80,0,0
55104,-68.9655172413793,4,2,1,5,0,0
55193,-68.9655172413793,4,2,1,80,0,0
55810,-68.9655172413793,4,2,1,5,0,0
55899,-285.714285714286,4,2,1,80,0,1
55987,-181.818181818182,4,2,1,80,0,0
56516,-181.818181818182,4,2,1,5,0,0
56604,-181.818181818182,4,2,1,80,0,0
57222,-181.818181818182,4,2,1,5,0,0
57310,-95.2380952380952,4,2,1,80,0,0
57663,-80,4,2,1,80,0,0
58016,-74.0740740740741,4,2,1,80,0,0
58369,-68.9655172413793,4,2,1,80,0,0
58722,-285.714285714286,4,2,1,80,0,0
58987,-285.714285714286,4,2,1,5,0,0
59075,-86.9565217391304,4,2,1,80,0,0
59428,-80,4,2,1,80,0,0
59781,-74.0740740740741,4,2,1,80,0,0
60134,-285.714285714286,4,2,1,80,0,0
60399,-285.714285714286,4,2,1,5,0,0
60487,-74.0740740740741,4,2,1,80,0,0
60840,-80,4,2,1,80,0,0
61192,-86.9565217391304,4,2,1,80,0,0
61546,-74.0740740740741,4,2,1,80,0,0
62604,-68.9655172413793,4,2,1,80,0,0
62957,-285.714285714286,4,2,1,80,0,0
63575,-285.714285714286,4,2,1,5,0,0
63663,-74.0740740740741,4,2,1,80,0,0
64016,-80,4,2,1,80,0,0
64722,-80,4,2,1,80,0,0
65075,-74.0740740740741,4,2,1,80,0,0
65428,-68.9655172413793,4,2,1,80,0,0
65781,-222.222222222222,4,2,1,80,0,0
66222,-222.222222222222,4,2,1,5,0,0
66310,-181.818181818182,4,2,1,80,0,0
66575,-181.818181818182,4,2,1,5,0,0
66663,-74.0740740740741,4,2,1,80,0,0
67193,-68.9655172413793,4,2,1,80,0,0
69134,-57.1428571428571,4,2,1,80,0,0
69487,-54.054054054054,4,2,1,80,0,0
71516,-54.054054054054,4,2,1,5,0,0
71604,-54.054054054054,4,2,1,80,0,0
72134,-74.0740740740741,4,2,1,80,0,0
73104,-74.0740740740741,4,2,1,5,0,0
73193,-74.0740740740741,4,2,1,80,0,0
73457,-74.0740740740741,4,2,1,5,0,0
73546,-74.0740740740741,4,2,1,80,0,0
73810,-74.0740740740741,4,2,1,5,0,0
73899,-74.0740740740741,4,2,1,80,0,0
74163,-74.0740740740741,4,2,1,5,0,0
74252,-74.0740740740741,4,2,1,80,0,0
74869,-74.0740740740741,4,2,1,5,0,0
74957,-64.5161290322581,4,2,1,80,0,0
75222,-64.5161290322581,4,2,1,5,0,0
75310,-285.714285714286,4,2,1,80,0,0
75575,-285.714285714286,4,2,1,5,0,0
75663,-57.1428571428571,4,2,1,80,0,1
76369,-44.4444444444445,4,2,1,80,0,1
77075,-51.2820512820513,4,2,1,80,0,1
77781,-74.0740740740741,4,2,1,80,0,1
77913,-74.0740740740741,4,2,1,5,0,1
77957,-51.2820512820513,4,2,1,80,0,1
78090,-51.2820512820513,4,2,1,5,0,1
78134,-51.2820512820513,4,2,1,80,0,1
78267,-51.2820512820513,4,2,1,5,0,1
78310,-74.0740740740741,4,2,1,80,0,1
78443,-74.0740740740741,4,2,1,5,0,1
78487,-57.1428571428571,4,2,1,80,0,1
79193,-44.4444444444445,4,2,1,80,0,1
79899,-51.2820512820513,4,2,1,80,0,1
80604,-74.0740740740741,4,2,1,80,0,1
80737,-74.0740740740741,4,2,1,5,0,1
80781,-51.2820512820513,4,2,1,80,0,1
80914,-51.2820512820513,4,2,1,5,0,1
80957,-74.0740740740741,4,2,1,80,0,1
81091,-51.2820512820513,4,2,1,5,0,1
81134,-51.2820512820513,4,2,1,80,0,1
81267,-74.0740740740741,4,2,1,5,0,1
81310,-51.2820512820513,4,2,1,80,0,1
81663,-57.1428571428571,4,2,1,80,0,1
82016,-44.4444444444445,4,2,1,80,0,1
82722,-51.2820512820513,4,2,1,80,0,1
83428,-74.0740740740741,4,2,1,80,0,1
83560,-74.0740740740741,4,2,1,5,0,1
83604,-51.2820512820513,4,2,1,80,0,1
83737,-51.2820512820513,4,2,1,5,0,1
83781,-51.2820512820513,4,2,1,80,0,1
83914,-51.2820512820513,4,2,1,5,0,1
83957,-74.0740740740741,4,2,1,80,0,1
84090,-74.0740740740741,4,2,1,5,0,1
84134,-80,4,2,1,70,0,0
85546,-105.263157894737,4,2,1,70,0,0
86252,-133.333333333333,4,2,1,70,0,0
86957,-133.333333333333,4,2,1,90,0,0

[Colours]
Combo1 : 191,96,0
Combo2 : 143,32,255
Combo3 : 191,0,96
Combo4 : 0,80,159

[HitObjects]
12,14,1546,6,2,P|32:83|44:149,1,137.500004605949,2|0,0:0|0:0,0:1:0:0:
31,164,2075,1,0,0:0:0:0:
131,244,2252,6,0,P|197:228|264:218,1,135.000000917315,10|0,0:0|0:0,0:0:0:0:
309,85,2604,2,0,P|301:52|395:40,1,135.000000917315,10|2,0:0|0:0,0:0:0:0:
507,163,2957,6,0,P|441:147|374:137,1,135.000000917315,10|0,0:0|0:0,0:0:0:0:
431,244,3222,1,0,0:0:0:0:
442,253,3310,2,0,P|504:241|512:178,1,135.000000917315,10|2,0:0|0:0,0:0:0:0:
335,164,3663,2,0,P|354:230|366:343,2,155.000001644492,10|0|8,0:0|0:0|0:0,0:0:0:0:
258,330,4193,2,0,B|270:368|295:395|341:404|381:395|404:334|347:299,1,202.500001375973,2|0,0:0|0:0,0:0:0:0:
273,315,4546,2,0,B|219:294|178:337|190:339|143:379|76:348,1,202.500001375973,2|0,0:0|0:0,0:0:0:0:
4,318,4899,1,2,0:0:0:0:
175,159,5252,6,0,P|157:198|153:237,1,67.5000004586576,2|0,0:0|0:0,0:0:0:0:
138,229,5428,1,8,0:0:0:0:
114,64,5604,1,2,0:0:0:0:
20,14,5781,1,10,0:0:0:0:
128,54,5957,1,2,0:0:0:0:
239,17,6134,6,0,P|311:26|397:53,1,135.000000917315,10|2,0:0|0:0,0:0:0:0:
459,150,6399,1,0,0:0:0:0:
457,168,6487,2,0,P|363:179|251:214,2,165.000002065301,10|2|8,0:0|0:0|0:0,0:0:0:0:
503,341,7016,2,0,P|420:310|266:296,1,202.500001375973,2|0,0:0|0:0,0:0:0:0:
224,339,7369,2,0,P|224:362|276:376,1,67.5000004586576,2|0,0:0|0:0,0:0:0:0:
143,223,7546,2,0,P|119:267|100:316,1,67.5000004586576,10|0,0:0|0:0,0:0:0:0:
87,354,7722,1,2,0:0:0:0:
0,176,7899,6,0,P|62:165|137:139,1,135.000000917315,10|0,0:0|0:0,0:0:0:0:
153,1,8252,2,0,P|215:12|290:38,1,135.000000917315,10|2,0:0|0:0,0:0:0:0:
428,98,8604,2,0,P|363:76|375:8,1,135.000000917315,10|2,0:0|0:0,0:0:0:0:
486,37,8869,1,0,0:0:0:0:
489,51,8957,2,0,P|452:137|438:215,1,135.000000917315,10|2,0:0|0:0,0:0:0:0:
414,336,9310,2,0,P|381:277|364:195,1,135.000000917315,10|0,0:0|0:0,0:0:0:0:
489,345,9663,2,0,P|461:323|425:335,1,67.5000004586576,10|0,0:0|0:0,0:0:0:0:
349,379,9840,2,0,P|301:280|291:165,1,202.500001375973,2|0,0:0|0:0,0:0:0:0:
238,103,10193,6,0,P|306:70|348:134,1,165.000002065301,2|8,0:0|0:0,0:0:0:0:
269,275,10546,2,0,P|189:252|68:243,1,202.500001375973,2|0,0:0|0:0,0:0:0:0:
0,193,10899,2,0,P|28:263|44:346,2,135.000000917315,2|10|0,0:0|0:0|0:0,0:0:0:0:
80,55,11428,2,0,P|146:62|209:86,1,135.000000917315,8|2,0:0|0:0,0:0:0:0:
284,30,11781,1,10,0:0:0:0:
362,69,11957,5,2,0:0:0:0:
439,26,12134,2,0,P|346:41|186:118,2,230.000005072355,10|10|8,0:0|0:0|0:0,0:0:0:0:
439,26,13193,2,0,P|464:54|506:46,1,75.0000030845403,2|2,0:3|0:0,0:0:0:0:
512,208,13546,6,0,P|473:183|376:149,1,145.000004857182,10|0,0:0|0:0,0:0:0:0:
481,287,13899,2,0,P|442:262|345:228,1,145.000004857182,2|2,1:2|0:0,0:0:0:0:
230,384,14252,2,0,B|289:392|298:352|305:308|275:267,1,145.000004857182,10|2,0:0|0:0,0:0:0:0:
221,198,14516,1,0,0:0:0:0:
208,180,14604,2,0,P|238:115|307:161,1,145.000004857182,2|2,1:2|0:0,0:0:0:0:
157,297,14957,6,0,P|103:165|21:35,1,290.000009714365,10|0,0:0|1:0,0:0:0:0:
154,0,15487,2,0,P|134:62|116:161,1,145.000004857182,2|8,0:0|0:0,0:0:0:0:
90,342,15840,2,0,P|14:334|0:273,2,145.000004857182,2|0|2,0:0|1:0|0:0,0:0:0:0:
309,366,16546,5,2,0:0:0:0:
384,384,16722,2,0,P|388:321|380:234,1,145.000004857182,0|2,1:0|0:0,0:0:0:0:
465,381,17075,2,0,P|469:318|461:231,1,145.000004857182,10|2,0:0|0:0,0:0:0:0:
425,113,17340,1,0,0:0:0:0:
405,116,17428,2,0,P|352:160|364:229,1,145.000004857182,2|2,1:2|0:0,0:0:0:0:
512,95,17781,2,0,P|416:81|338:32,1,175.00000219047,10|2,0:0|0:0,0:0:0:0:
13,13,18310,6,0,P|62:113|97:244,1,217.500007285774,2|0,0:0|0:0,0:0:0:0:
83,302,18663,2,0,P|23:304|3:229,2,145.000004857182,2|2|2,0:0|1:2|0:0,0:0:0:0:
224,360,19193,6,0,P|253:264|317:134,1,217.500007285774,10|0,0:0|0:0,0:0:0:0:
253,84,19546,2,0,P|200:182|161:284,1,217.500007285774,2|0,1:2|0:0,0:0:0:0:
238,371,19899,2,0,P|319:362|336:281,2,145.000004857182,10|2|2,0:0|0:0|1:2,0:0:0:0:
227,195,20428,2,0,B|285:159|344:208|310:221|370:262|433:229,1,217.500007285774,2|0,0:0|0:0,0:0:0:0:
494,196,20781,2,0,B|518:170|517:117|424:97|392:170,1,145.000004857182,2|2,0:0|1:2,0:0:0:0:
343,187,21134,1,2,0:0:0:0:
35,0,21487,6,0,P|66:65|91:133,1,145.000004857182,2|2,0:0|1:2,0:0:0:0:
66,264,21840,2,0,B|5:285|-30:214|-14:161|59:142|124:160|171:200,1,290.000009714365,2|2,0:0|0:0,0:0:0:0:
239,238,22281,1,0,0:0:0:0:
233,259,22369,2,0,P|260:332|330:336,1,145.000004857182,2|0,1:2|0:0,0:0:0:0:
418,232,22722,2,0,P|349:208|285:175,2,145.000004857182,10|2|0,0:0|0:0|1:0,0:0:0:0:
492,87,23252,5,2,0:0:0:0:
473,9,23428,2,0,B|389:-30|284:49|360:71|247:137|158:95,2,350.000004380941,10|2|10,0:0|1:2|0:0,0:0:0:0:
512,347,24487,2,0,P|380:308|143:288,1,350.000004380941,2|10,1:2|0:1,0:0:0:0:
57,182,25193,5,2,1:2:0:0:
58,163,25369,2,0,P|24:129|-9:122,2,75.0000030845403,10|2|10,1:1|0:0|0:1,0:0:0:0:
231,103,26075,5,10,0:1:0:0:
244,116,26252,2,0,P|256:71|284:48,1,75.0000030845403,2|2,0:0|0:0,0:0:0:0:
126,38,26604,1,2,1:2:0:0:
169,209,26781,1,2,1:2:0:0:
41,21,27134,5,10,0:1:0:0:
113,50,27310,2,0,L|136:143,1,75.0000030845403,2|2,1:2|0:0,0:0:0:0:
256,242,27663,2,0,B|294:218|294:218|325:94,1,150.000006169081,10|2,0:1|1:2,0:0:0:0:
415,0,28369,6,0,P|365:7|342:38,1,75.0000030845403,2|10,0:0|0:1,0:0:0:0:
396,176,28899,5,10,0:1:0:0:
404,193,29075,2,0,P|459:207|482:220,1,75.0000030845403,2|2,0:0|0:0,0:0:0:0:
512,363,29428,1,2,1:2:0:0:
337,384,29605,1,2,1:2:0:0:
175,314,29781,6,0,L|113:306,1,60.0000001788138,10|0,0:1|0:0,0:0:0:0:
107,296,30134,2,0,L|57:289,1,40.0000001192092,10|2,0:1|0:0,0:0:0:0:
8,241,30399,5,0,0:0:0:0:
7,230,30487,2,0,B|92:208|92:208|105:197|105:197|191:175,1,187.500000558793,14|0,0:0|0:0,0:0:0:0:
241,126,30840,1,2,1:2:0:0:
115,106,31016,1,2,1:2:0:0:
255,112,31193,2,0,P|282:95|309:65,1,62.5000001862644,10|0,0:0|0:0,0:0:0:0:
397,16,31369,2,0,P|409:101|462:223,1,187.500000558793,2|0,0:0|0:0,0:0:0:0:
505,242,31722,2,0,B|539:203|512:149|436:141|379:227,1,187.500000558793,2|0,0:0|0:0,0:0:0:0:
345,257,32075,6,0,P|374:294|403:283,1,62.5000001862644,2|0,0:0|0:0,0:0:0:0:
444,376,32252,2,0,P|459:331|487:288,1,62.5000001862644,2|0,1:2|0:0,0:0:0:0:
289,193,32428,2,0,P|325:293|338:398,1,187.500000558793,2|0,1:2|0:0,0:0:0:0:
262,384,32781,6,0,P|257:335|244:292,1,62.5000001862644,2|0,0:0|0:0,0:0:0:0:
185,190,32957,2,0,P|171:218|161:247,1,62.5000001862644,2|0,1:2|0:0,0:0:0:0:
73,384,33134,2,0,P|67:353|65:322,1,62.5000001862644,2|0,0:0|0:0,0:0:0:0:
0,196,33310,2,0,P|60:113|131:165,1,187.500000558793,10|0,0:0|0:0,0:0:0:0:
185,190,33663,2,0,B|244:218|311:130|256:45,1,187.500000558793,2|0,1:2|0:0,0:0:0:0:
205,27,34016,2,0,P|195:59|203:112,1,62.5000001862644,10|0,0:0|0:0,0:0:0:0:
346,0,34193,2,0,P|385:107|410:228,1,187.500000558793,2|0,0:0|0:0,0:0:0:0:
415,253,34546,1,2,0:0:0:0:
512,323,34722,6,0,P|393:284|269:279,2,250.000000745058,8|10|10,0:0|0:0|0:0,0:0:0:0:
279,356,35781,6,0,P|271:313|259:283,1,67.4999981412291,2|0,0:1|0:0,0:0:0:0:
234,209,36134,6,0,P|262:126|310:33,2,165.000002065301,14|2|0,0:0|0:0|1:0,0:0:0:0:
104,336,36663,1,2,0:0:0:0:
21,330,36840,2,0,P|128:288|189:274,1,165.000002065301,10|0,0:0|0:0,0:0:0:0:
290,152,37193,1,2,1:2:0:0:
327,79,37369,2,0,B|364:14|290:-25|237:-12|182:11|158:86,1,247.500003097951,2|0,0:0|0:0,0:0:0:0:
158,66,37722,6,0,P|108:50|67:14,1,82.5000010326503,2|0,0:0|0:0,0:0:0:0:
0,185,37899,2,0,P|82:162|187:155,1,165.000002065301,2|2,1:2|0:0,0:0:0:0:
382,167,38252,2,0,P|478:116|393:62,1,247.500003097951,10|0,0:0|0:0,0:0:0:0:
327,79,38604,2,0,P|360:204|376:327,1,247.500003097951,2|0,1:2|0:0,0:0:0:0:
432,384,38957,6,0,P|473:283|513:216,2,165.000002065301,10|2|0,0:0|0:0|1:0,0:0:0:0:
311,265,39487,1,2,0:0:0:0:
235,232,39663,2,0,P|290:232|420:263,1,165.000002065301,10|0,0:0|0:0,0:0:0:0:
222,351,40016,1,2,1:2:0:0:
146,384,40193,2,0,B|131:320|152:253|201:279|224:197|174:127,1,247.500003097951,2|0,0:0|0:0,0:0:0:0:
195,136,40546,6,0,P|218:100|247:128,1,82.5000010326503,2|0,0:0|0:0,0:0:0:0:
61,35,40722,2,0,P|77:141|123:225,2,165.000002065301,2|2|10,1:2|0:0|0:0,0:0:0:0:
196,8,41252,1,2,0:0:0:0:
76,22,41428,1,2,1:2:0:0:
303,50,41604,1,2,0:0:0:0:
440,0,41781,6,0,P|417:81|400:211,1,187.500000558793,10|0,0:0|0:0,0:0:0:0:
416,260,42134,2,0,P|471:271|476:156,1,202.500001375973,2|0,1:2|0:0,0:0:0:0:
386,183,42487,2,0,P|386:203|404:269,1,72.5000024285912,10|0,0:0|0:0,0:0:0:0:
345,359,42664,5,0,0:0:0:0:
325,368,42752,1,0,0:0:0:0:
304,374,42840,2,0,B|234:396|172:341|206:331|135:261|28:322,1,262.500003285705,2|0,1:2|0:0,0:0:0:0:
0,225,43193,2,0,P|25:127|143:173,1,202.500001375973,10|0,0:0|0:0,0:0:0:0:
186,101,43546,2,0,P|133:216|119:305,1,187.500000558793,2|0,1:2|0:0,0:0:0:0:
231,331,43899,2,0,P|220:208|196:87,1,247.500003097951,10|0,0:0|0:0,0:0:0:0:
234,16,44252,6,0,P|264:11|287:53,1,75.0000030845403,2|0,1:2|0:0,0:0:0:0:
418,127,44427,1,0,0:0:0:0:
454,118,44515,1,0,0:0:0:0:
482,93,44604,2,0,B|418:61|343:112|388:129|314:196|206:139,1,262.500003285705,10|0,0:0|0:0,0:0:0:0:
197,258,44957,2,0,P|320:276|446:328,1,232.500002466738,2|0,1:2|0:0,0:0:0:0:
468,251,45310,2,0,P|502:243|534:226,1,46.2499999614059,10|0,0:0|0:0,0:0:0:0:
512,222,45663,6,0,P|478:239|438:240,1,62.5000001862644,2|0,1:2|0:0,0:0:0:0:
408,325,45840,2,0,P|340:296|185:272,1,217.500007285774,2|0,0:0|0:0,0:0:0:0:
130,300,46193,2,0,P|147:340|182:344,1,72.5000024285912,2|0,0:0|0:0,0:0:0:0:
76,169,46369,2,0,P|56:220|44:261,1,72.5000024285912,2|0,1:2|0:0,0:0:0:0:
33,384,46546,2,0,P|49:294|98:145,1,217.500007285774,2|0,0:0|0:0,0:0:0:0:
55,95,46899,2,0,P|29:54|7:26,1,72.5000024285912,2|2,1:2|1:2,0:0:0:0:
81,0,47075,2,0,P|102:29|121:60,1,72.5000024285912,2|0,1:2|0:0,0:0:0:0:
283,170,47252,5,2,1:2:0:0:
325,159,47340,1,2,1:2:0:0:
359,131,47428,2,0,P|433:144|514:185,2,165.000002065301,14|0|0,0:0|0:0|1:0,0:0:0:0:
231,61,47957,1,2,0:0:0:0:
143,136,48134,1,10,0:0:0:0:
63,119,48310,2,0,P|141:92|233:82,1,165.000002065301,2|0,0:0|1:0,0:0:0:0:
445,20,48663,6,0,P|462:62|430:119,1,82.5000010326503,2|0,0:0|0:0,0:0:0:0:
359,131,48840,2,0,P|377:36|458:44,1,165.000002065301,10|2,0:0|0:0,0:0:0:0:
512,150,49193,1,2,1:2:0:0:
493,321,49369,2,0,P|406:289|298:288,1,165.000002065301,2|8,0:0|0:0,0:0:0:0:
184,384,49722,6,0,P|204:267|233:163,2,184.999999845624,2|2|2,0:0|1:2|0:0,0:0:0:0:
0,117,50428,2,0,P|22:206|36:298,2,184.999999845624,2|2|2,0:0|1:2|0:0,0:0:0:0:
254,113,51134,6,0,P|221:53|114:80,1,165.000002065301,2|2,0:0|1:2,0:0:0:0:
120,195,51487,2,0,B|191:224|251:174|222:157|282:106|353:140,1,247.500003097951,2|0,0:0|0:0,0:0:0:0:
416,163,51840,2,0,P|441:104|478:61,1,82.5000010326503,2|0,0:0|0:0,0:0:0:0:
375,0,52016,1,2,1:2:0:0:
417,323,52369,5,10,0:0:0:0:
511,351,52546,1,2,0:0:0:0:
408,305,52722,1,2,1:2:0:0:
276,344,52899,1,2,0:0:0:0:
144,383,53075,6,0,P|122:283|202:329,1,217.500007285774,10|0,0:0|0:0,0:0:0:0:
160,374,53428,2,0,P|136:272|81:131,1,217.500007285774,2|0,1:2|0:0,0:0:0:0:
140,102,53781,2,0,B|148:145|113:172|29:159|14:82,1,145.000004857182,10|0,0:0|0:0,0:0:0:0:
6,36,54046,5,0,0:0:0:0:
0,17,54134,2,0,B|69:-11|133:37|91:45|164:93|232:56,1,247.500003097951,2|0,1:2|0:0,0:0:0:0:
338,0,54487,2,0,P|307:85|279:221,1,217.500007285774,10|0,0:0|0:0,0:0:0:0:
282,317,54840,2,0,P|187:316|206:223,1,217.500007285774,2|0,1:2|0:0,0:0:0:0:
280,209,55193,6,0,P|387:230|442:263,1,145.000004857182,10|0,0:0|0:0,0:0:0:0:
503,173,55457,1,0,0:0:0:0:
508,156,55546,2,0,P|400:172|295:198,1,217.500007285774,2|0,1:2|0:0,0:0:0:0:
204,138,55899,6,0,P|190:76|172:12,1,122.499996626675,14|0,0:0|0:0,0:0:0:0:
89,10,56604,2,0,P|117:103|138:214,1,192.500006448328,10|0,0:0|0:0,0:0:0:0:
103,269,57310,6,0,P|31:267|-31:242,1,104.999997108579,10|0,0:0|0:0,0:0:0:0:
135,196,57663,2,0,P|176:146|239:152,1,125.000000372529,2|0,1:2|0:0,0:0:0:0:
343,40,58016,2,0,P|333:101|306:183,1,135.000000917315,10|0,0:0|0:0,0:0:0:0:
484,206,58369,2,0,P|467:129|409:102,1,145.000004857182,2|0,1:2|0:0,0:0:0:0:
361,238,58722,6,0,P|400:242|422:234,1,52.4999985542893,10|0,0:0|0:0,0:0:0:0:
484,206,59075,6,0,P|455:283|441:347,1,115.000002536177,2|0,1:2|0:0,0:0:0:0:
301,380,59428,2,0,P|285:319|261:261,1,125.000000372529,10|0,0:0|0:0,0:0:0:0:
175,129,59781,2,0,P|197:43|231:-37,1,135.000000917315,2|0,1:2|0:0,0:0:0:0:
57,153,60134,6,0,P|82:161|109:161,1,52.4999985542893,10|0,0:0|0:0,0:0:0:0:
175,129,60487,6,0,P|109:74|38:96,1,135.000000917315,2|0,1:2|0:0,0:0:0:0:
26,268,60840,2,0,P|108:240|168:227,1,125.000000372529,10|0,0:0|0:0,0:0:0:0:
304,198,61193,2,0,P|354:160|338:71,1,115.000002536177,2|0,1:2|0:0,0:0:0:0:
440,261,61546,6,0,P|328:234|151:214,2,270.00000183463,10|2|10,0:0|1:2|0:0,0:0:0:0:
512,70,62604,2,0,P|456:77|360:106,1,145.000004857182,2|0,1:2|0:0,0:0:0:0:
228,188,62957,2,0,P|182:160|220:104,1,122.499996626675,10|0,0:0|0:0,0:0:0:0:
286,98,63663,6,0,P|251:216|226:362,2,270.00000183463,10|2|10,0:0|1:2|0:0,0:0:0:0:
11,11,64722,2,0,P|45:66|110:63,1,125.000000372529,2|0,1:2|0:0,0:0:0:0:
232,0,65075,2,0,P|201:86|182:157,1,135.000000917315,10|0,0:0|0:0,0:0:0:0:
52,288,65428,2,0,P|21:202|2:131,1,145.000004857182,2|0,1:2|0:0,0:0:0:0:
193,140,65781,6,0,P|150:162|109:222,1,112.499996902048,10|0,0:0|0:0,0:0:0:0:
52,288,66310,2,0,P|92:287|124:325,1,82.5000027635693,2|0,0:0|0:0,0:0:0:0:
152,382,66663,5,2,0:0:0:0:
301,337,66840,1,2,1:2:0:0:
453,375,67016,2,0,P|426:346|403:332,1,67.5000004586576,2|0,0:0|0:0,0:0:0:0:
296,318,67193,2,0,P|274:243|224:163,2,145.000004857182,14|2|0,0:0|0:0|1:0,0:0:0:0:
392,346,67722,1,2,0:0:0:0:
430,193,67899,1,10,0:0:0:0:
512,150,68075,2,0,P|474:86|400:125,1,145.000004857182,2|0,0:0|1:0,0:0:0:0:
257,174,68428,6,0,P|219:169|154:128,1,72.5000024285912,2|0,0:0|0:0,0:0:0:0:
243,57,68604,2,0,P|126:79|46:125,1,145.000004857182,10|2,0:0|0:0,0:0:0:0:
13,172,68869,1,0,0:0:0:0:
0,187,68957,2,0,L|19:264,1,72.5000024285912,2|0,1:2|0:0,0:0:0:0:
96,384,69134,2,0,B|134:360|134:360|169:220,1,175.00000219047,2|8,0:0|0:0,0:0:0:0:
322,167,69487,6,0,P|356:262|384:373,2,184.999999845624,2|2|2,0:0|1:2|0:0,0:0:0:0:
512,0,70193,2,0,P|476:95|448:206,2,184.999999845624,2|2|2,0:0|1:2|0:0,0:0:0:0:
235,143,70899,6,0,P|313:138|340:25,1,184.999999845624,2|2,0:0|1:2,0:0:0:0:
160,25,71252,2,0,P|207:152|228:301,1,277.499999768435,2|0,0:0|0:0,0:0:0:0:
228,368,71604,2,0,P|263:366|310:324,1,92.4999999228118,2|0,0:0|0:0,0:0:0:0:
400,182,71781,1,2,1:2:0:0:
16,85,72134,6,0,P|82:97|146:117,1,135.000000917315,8|2,0:0|0:0,0:0:0:0:
309,2,72487,2,0,P|242:14|178:34,1,135.000000917315,2|2,1:2|0:0,0:0:0:0:
0,162,72840,2,0,P|129:192|202:230,1,202.500001375973,10|0,0:0|0:0,0:0:0:0:
279,186,73193,2,0,P|275:91|214:162,1,202.500001375973,2|0,1:2|0:0,0:0:0:0:
279,186,73546,6,0,P|319:278|336:378,1,202.500001375973,10|0,0:0|0:0,0:0:0:0:
423,341,73899,2,0,B|463:306|445:245|378:219|284:286,1,202.500001375973,2|0,1:2|0:0,0:0:0:0:
223,297,74252,6,0,P|157:280|90:274,1,135.000000917315,10|0,0:0|0:0,0:0:0:0:
16,165,74516,1,0,0:0:0:0:
9,146,74604,2,0,P|136:119|216:95,1,202.500001375973,2|0,1:2|0:0,0:0:0:0:
231,20,74957,6,0,B|173:19|160:79|181:117|260:132|319:67,1,232.500002466738,10|0,0:0|0:0,0:0:0:0:
398,29,75310,2,0,P|421:48|447:53,1,52.4999985542893,2|0,0:0|0:0,0:0:0:0:
512,28,75663,6,0,B|481:53|481:53|445:200,1,175.00000219047,14|0,0:1|0:0,0:0:0:0:
342,293,75928,1,2,0:1:0:0:
304,273,76016,2,0,B|272:142|272:142|241:116,1,175.00000219047,0|2,1:0|0:1,0:0:0:0:
135,0,76369,2,0,P|105:140|74:227,3,225.000009253621,10|0|2|2,0:1|0:0|1:1|0:1,0:0:0:0:
0,341,77075,2,0,B|35:357|101:326|64:307|130:264|199:307,1,195.000001325011,14|0,0:1|0:0,0:0:0:0:
299,357,77340,1,2,0:1:0:0:
277,375,77428,2,0,B|210:395|181:332|202:257|272:218,1,195.000001325011,0|2,1:0|0:1,0:0:0:0:
356,134,77781,6,0,B|407:139|407:139|411:145|411:145|465:151,1,101.250000687986,10|0,0:1|0:0,0:0:0:0:
512,105,77957,2,0,P|479:160|452:244,1,146.250000993758,2|0,0:1|0:0,0:0:0:0:
382,210,78134,2,0,P|408:139|444:74,1,146.250000993758,2|0,1:1|0:0,0:0:0:0:
394,18,78310,2,0,B|343:23|343:23|339:29|339:29|285:35,1,101.250000687986,2|0,0:1|0:0,0:0:0:0:
208,0,78487,6,0,B|244:15|244:15|283:170,1,175.00000219047,14|0,0:1|0:0,0:0:0:0:
156,240,78752,1,2,0:1:0:0:
114,253,78840,2,0,B|146:122|146:122|183:106,1,175.00000219047,0|2,1:0|0:1,0:0:0:0:
250,311,79193,2,0,P|138:287|-38:286,3,225.000009253621,10|0|2|2,0:1|0:0|1:1|0:1,0:0:0:0:
0,130,79899,2,0,P|98:96|195:72,1,195.000001325011,14|0,0:1|0:0,0:0:0:0:
317,47,80163,1,2,0:1:0:0:
303,20,80252,2,0,B|248:-24|196:37|197:104|280:161,1,195.000001325011,0|2,1:0|0:1,0:0:0:0:
352,255,80604,6,0,P|401:226|469:210,1,101.250000687986,10|0,0:1|0:0,0:0:0:0:
512,197,80781,2,0,B|484:206|484:206|360:175,1,146.250000993758,2|0,0:1|0:0,0:0:0:0:
292,187,80957,2,0,P|320:236|336:304,1,101.250000687986,2|0,1:1|0:0,0:0:0:0:
298,347,81134,2,0,B|270:337|270:337|146:368,1,146.250000993758,2|0,0:1|0:0,0:0:0:0:
84,380,81310,6,0,B|64:302|64:302|33:277|33:277|8:176,1,195.000001325011,14|0,0:1|0:0,0:0:0:0:
185,196,81575,1,2,0:1:0:0:
197,154,81663,2,0,B|214:84|214:84|243:66|243:66|260:-3,1,175.00000219047,0|2,1:0|0:1,0:0:0:0:
420,0,82016,2,0,B|433:107|433:107|437:111|437:111|454:244,3,225.000009253621,10|0|2|2,0:1|0:0|1:1|0:1,0:0:0:0:
491,347,82722,2,0,P|406:302|310:290,1,195.000001325011,14|0,0:1|0:0,0:0:0:0:
187,359,82987,1,2,0:1:0:0:
209,362,83075,2,0,P|280:293|246:209,1,195.000001325011,0|2,1:0|0:1,0:0:0:0:
145,114,83428,6,0,B|97:119|97:119|91:124|91:124|35:131,1,101.250000687986,10|0,0:1|0:0,0:0:0:0:
15,67,83604,2,0,P|0:137|31:202,1,146.250000993758,2|0,0:1|0:0,0:0:0:0:
107,190,83781,2,0,P|123:120|92:56,1,146.250000993758,2|0,1:1|0:0,0:0:0:0:
141,0,83957,2,0,B|188:5|188:5|194:10|194:10|250:17,1,101.250000687986,2|0,0:1|0:0,0:0:0:0:
315,25,84134,6,0,P|364:38|426:161,2,187.500000558793,14|2|2,0:1|0:1|0:1,0:0:0:0:
227,188,84840,2,0,P|308:161|370:162,1,125.000000372529,2|2,0:1|0:1,0:0:0:0:
512,264,85193,2,0,P|428:246|375:215,1,125.000000372529,2|2,0:1|0:1,0:0:0:0:
210,194,85546,2,0,P|240:261|256:361,2,142.499996619522,10|2|2,0:1|0:1|0:1,0:0:0:0:
79,182,86252,2,0,P|128:220|151:211,1,75.0000030845403,2|2,0:1|0:1,0:0:0:0:
281,158,86604,2,0,P|302:128|294:92,1,75.0000030845403,2|2,0:1|0:1,0:0:0:0:
141,0,86957,5,14,0:1:0:0:
