osu file format v14

[General]
AudioFilename: audio.mp3
AudioLeadIn: 0
PreviewTime:35737
Countdown: 0
SampleSet: None
StackLeniency: 0.7
Mode: 0
LetterboxInBreaks: 0
WidescreenStoryboard: 1

[Editor]
Bookmarks:24840,36134,55899,67193,75663
DistanceSpacing: 1.2
BeatDivisor: 4
GridSize: 32
TimelineZoom: 1.3

[Metadata]
Title:Kaibutsu (TV Size)
TitleUnicode:怪物 (TV Size)
Artist:YOASOBI
ArtistUnicode:YOASOBI
Creator:Ryuusei Aika
Version:Pata-Mon's Insane
Source:BEASTARS
Tags:ビースターズ japanese furry anime op2 pop j-pop jpop opening theme 幾田りら Ikuta Rira Lilas Ayase Monster MoeAsuka Atrue SuperBox Fall Marle Calvaria Mariko Sakuragi Reiji Maigo SB hhjkl [Hatsune Miku] [Hatsune_Miku] Hatsune Miku Remapper _lai Kyrian 09kami Ducky- Acyl Acylica Bellicose wafer iWaifu KAMI NO KOTOBA Addy2607 KaedeharaKazuha Airincat Chompy Yooh Reywateil Amateurre Sparhten Ajisai- HabiHolic newton- Yuuma Ogura Yui fedora- UberFazz xidorn Pata-Mon PataMon Deca Wanpachi cycopton Gibune wiken Fuju Stratos Crystal OneShotFox Elcheer Fieryrage hypercyte hypercute Kittyadventure gokugohan12468 Kyouren Zelq ponbot Yuuma3 Mimari i love ganyu Flake yaspo Regraz Mafumafu bongo Moete Senseabel Senseable Kuse KuBsNia_ZhoYL_ wetdog123 eiri-
BeatmapID:2820241
BeatmapSetID:1335792

[Difficulty]
HPDrainRate:5
CircleSize:5
OverallDifficulty:8
ApproachRate:8
SliderMultiplier:1.60000000596046
SliderTickRate:1

[Events]
//Background and Video events
0,0,"furry.jpg",0,0
Video,-200,"OP.mp4"
//Break Periods
//Storyboard Layer 0 (Background)
//Storyboard Layer 1 (Fail)
//Storyboard Layer 2 (Pass)
//Storyboard Layer 3 (Foreground)
//Storyboard Layer 4 (Overlay)
//Storyboard Sound Samples

[TimingPoints]
-3395,352.941176470588,4,2,23,40,1,0
1546,-200,4,2,23,40,0,0
1899,-200,4,2,23,5,0,0
2075,-200,4,2,23,60,0,0
2252,-125,4,2,23,60,0,0
13281,-125,4,2,23,40,0,0
13546,-100,4,2,23,70,0,0
34722,-125,4,2,23,70,0,0
35781,-200,4,2,23,60,0,0
36046,-200,4,2,23,5,0,0
36134,-66.6666666666667,4,2,23,90,0,1
41781,-83.3333333333333,4,2,23,90,0,1
42840,-55.5555555555556,4,2,23,90,0,1
43193,-66.6666666666667,4,2,23,90,0,1
43899,-55.5555555555556,4,2,23,90,0,1
44604,-66.6666666666667,4,2,23,90,0,1
44957,-83.3333333333333,4,2,23,90,0,1
45310,-100,4,2,23,90,0,1
45840,-66.6666666666667,4,2,23,90,0,1
46193,-83.3333333333333,4,2,23,90,0,1
47428,-66.6666666666667,4,2,23,90,0,1
53075,-83.3333333333333,4,2,23,90,0,1
54134,-55.5555555555556,4,2,23,90,0,1
54487,-83.3333333333333,4,2,23,90,0,1
55899,-66.6666666666667,4,2,23,90,0,0
57310,-83.3333333333333,4,2,23,90,0,0
58016,-55.5555555555556,4,2,23,90,0,0
58722,-100,4,2,23,90,0,0
59075,-55.5555555555556,4,2,23,90,0,0
60134,-100,4,2,23,90,0,0
60487,-55.5555555555556,4,2,23,90,0,0
61546,-83.3333333333333,4,2,23,90,0,0
63487,-83.3333333333333,4,2,23,70,0,0
63663,-83.3333333333333,4,2,23,90,0,0
64369,-66.6666666666667,4,2,23,90,0,0
67193,-66.6666666666667,4,2,23,90,0,1
72840,-83.3333333333333,4,2,23,90,0,1
74252,-66.6666666666667,4,2,23,90,0,1
75310,-66.6666666666667,4,2,23,70,0,0
75663,-66.6666666666667,4,2,23,90,0,1
84134,-100,4,2,23,80,0,0

[Colours]
Combo1 : 191,96,0
Combo2 : 143,32,255
Combo3 : 191,0,96
Combo4 : 0,80,159

[HitObjects]
256,251,1546,6,0,B|272:184|240:200|256:133,1,120.000000447034,2|0,0:2|0:2,0:2:0:0:
326,163,2252,6,0,L|390:167,1,64.0000002384184,2|0,3:2|0:2,0:2:0:0:
336,238,2604,2,0,L|400:242,1,64.0000002384184,2|0,1:2|0:2,0:2:0:0:
452,298,2957,1,2,3:2:0:0:
452,375,3134,1,0,0:2:0:0:
452,298,3310,1,2,1:2:0:0:
452,375,3487,1,0,0:2:0:0:
298,293,3663,6,0,P|336:246|400:242,1,128.000000476837,2|0,3:2|1:2,0:2:0:0:
376,377,4193,2,0,L|372:313,1,64.0000002384184,2|0,0:2|3:2,0:2:0:0:
400,242,4546,2,0,L|396:178,1,64.0000002384184,2|0,0:2|1:2,0:2:0:0:
296,89,4899,6,0,P|322:107|354:114,1,64.0000002384184,2|0,0:2|3:2,0:2:0:0:
430,109,5252,1,2,0:2:0:0:
396,178,5428,2,0,L|400:242,1,64.0000002384184,0|0,1:2|0:2,0:2:0:0:
346,297,5781,1,2,3:2:0:0:
351,374,5957,1,0,0:2:0:0:
346,297,6134,1,2,1:2:0:0:
351,374,6310,1,0,0:2:0:0:
218,344,6487,5,2,3:2:0:0:
218,344,6663,2,0,L|282:340,1,64.0000002384184,2|0,0:2|1:2,0:2:0:0:
346,297,7016,2,0,L|410:301,1,64.0000002384184,2|0,0:2|3:2,0:2:0:0:
483,325,7369,1,2,0:2:0:0:
467,249,7546,2,0,P|468:224|478:178,1,64.0000002384184,0|0,1:2|0:2,0:2:0:0:
419,81,7899,6,0,P|418:106|408:152,1,64.0000002384184,2|0,3:2|0:2,0:2:0:0:
336,167,8252,2,0,P|335:192|325:238,1,64.0000002384184,2|0,1:2|0:2,0:2:0:0:
264,271,8604,1,2,3:2:0:0:
269,348,8781,1,0,0:2:0:0:
264,271,8957,1,2,1:2:0:0:
269,348,9134,1,0,0:2:0:0:
195,237,9310,5,2,3:2:0:0:
200,314,9487,1,0,0:2:0:0:
200,314,9663,1,2,1:2:0:0:
195,237,9840,2,0,P|201:193|230:149,1,64.0000002384184,2|0,0:2|3:2,0:2:0:0:
344,138,10193,2,0,P|302:154|250:151,1,64.0000002384184,2|0,0:2|1:2,0:2:0:0:
185,102,10546,6,0,P|169:60|172:8,1,64.0000002384184,2|0,0:2|3:2,0:2:0:0:
209,176,10899,1,2,0:2:0:0:
209,176,11075,2,0,P|181:211|134:234,1,64.0000002384184,0|0,1:2|0:2,0:2:0:0:
260,119,11428,2,0,P|304:125|348:154,2,64.0000002384184,2|0|0,3:2|0:2|1:2,0:2:0:0:
360,199,11957,1,2,0:2:0:0:
336,272,12134,6,0,P|435:219|384:126,2,128.000000476837,0|0|0,3:2|3:2|3:2,0:2:0:0:
182,264,13193,2,0,L|186:328,1,32.0000001192092,2|2,0:2|0:2,0:2:0:0:
266,152,13546,5,2,3:2:0:0:
359,174,13722,1,0,0:2:0:0:
381,81,13899,2,0,L|377:17,2,40.0000001490115,10|0|0,0:2|0:2|0:2,0:2:0:0:
277,138,14252,5,2,3:2:0:0:
370,160,14428,1,0,0:2:0:0:
392,67,14604,2,0,L|388:3,2,40.0000001490115,10|0|0,0:2|0:2|0:2,0:2:0:0:
288,124,14957,6,0,L|296:252,1,80.000000298023,2|0,3:2|0:2,0:2:0:0:
403,53,15310,2,0,L|399:-11,1,40.0000001490115,10|0,0:2|0:2,0:2:0:0:
381,146,15487,6,0,L|389:274,1,80.000000298023,2|0,0:2|3:2,0:2:0:0:
472,115,15840,1,2,0:2:0:0:
414,39,16016,2,0,L|410:-25,1,40.0000001490115,10|0,0:2|0:2,0:2:0:0:
483,101,16193,6,0,L|491:229,1,80.000000298023,2|0,0:2|3:2,0:2:0:0:
397,212,16546,1,2,0:2:0:0:
469,275,16722,2,0,L|473:339,2,40.0000001490115,8|0|0,0:2|0:2|0:2,0:2:0:0:
474,169,17075,5,2,3:2:0:0:
383,200,17252,1,0,0:2:0:0:
455,263,17428,2,0,L|459:327,2,40.0000001490115,10|0|0,0:2|0:2|0:2,0:2:0:0:
388,94,17781,5,2,3:2:0:0:
369,188,17957,1,0,0:2:0:0:
441,251,18134,2,0,L|445:315,1,40.0000001490115,10|0,0:2|0:2,0:2:0:0:
391,372,18310,6,0,L|519:380,2,80.000000298023,2|0|0,0:2|3:2|0:2,0:2:0:0:
427,239,18840,2,0,L|431:303,2,40.0000001490115,10|0|0,0:2|0:2|0:2,0:2:0:0:
313,314,19193,6,0,L|185:306,1,80.000000298023,2|0,3:2|0:2,0:2:0:0:
142,341,19546,2,0,L|138:405,2,40.0000001490115,10|0|0,0:2|0:2|0:2,0:2:0:0:
257,384,19899,5,2,3:2:0:0:
225,293,20075,1,0,0:2:0:0:
134,325,20252,2,0,L|130:389,1,40.0000001490115,10|0,0:2|0:2,0:2:0:0:
217,277,20428,6,0,L|225:149,1,80.000000298023,2|0,0:2|3:2,0:2:0:0:
127,213,20781,1,2,0:2:0:0:
126,309,20957,2,0,L|122:373,1,40.0000001490115,10|0,0:2|0:2,0:2:0:0:
209,261,21134,6,0,L|217:133,1,80.000000298023,2|0,0:2|3:2,0:2:0:0:
119,197,21487,1,2,0:2:0:0:
118,293,21663,2,0,L|114:357,1,40.0000001490115,10|0,0:2|0:2,0:2:0:0:
111,181,21840,6,0,L|119:53,1,80.000000298023,2|0,0:2|3:2,0:2:0:0:
202,57,22193,1,2,0:2:0:0:
122,5,22369,2,0,L|58:9,2,40.0000001490115,10|0|0,0:2|0:2|0:2,0:2:0:0:
129,114,22722,5,2,3:2:0:0:
215,70,22899,1,0,0:2:0:0:
135,18,23075,2,0,L|71:22,2,40.0000001490115,10|0|0,0:2|0:2|0:2,0:2:0:0:
228,83,23428,6,0,L|356:75,1,80.000000298023,2|0,3:2|0:2,0:2:0:0:
148,31,23781,2,0,L|84:35,2,40.0000001490115,10|0|0,0:2|0:2|0:2,0:2:0:0:
241,96,24134,6,0,L|369:88,1,80.000000298023,2|0,3:2|0:2,0:2:0:0:
161,44,24487,2,0,L|97:48,2,40.0000001490115,10|0|0,0:2|0:2|0:2,0:2:0:0:
189,176,24840,5,2,3:2:0:0:
385,115,25193,2,0,L|449:119,1,40.0000001490115,10|0,0:2|0:2,0:2:0:0:
437,131,25369,2,0,L|309:123,1,80.000000298023,10|0,0:2|0:2,0:2:0:0:
261,120,25722,1,0,3:2:0:0:
311,0,25899,2,0,L|315:64,1,40.0000001490115,10|0,0:2|0:2,0:2:0:0:
273,133,26075,6,0,L|281:261,2,80.000000298023,2|0|0,3:2|0:2|0:2,0:2:0:0:
163,206,26604,2,0,L|167:142,1,40.0000001490115,10|0,0:2|0:2,0:2:0:0:
179,154,26781,2,0,L|175:218,1,40.0000001490115,10|0,0:2|0:2,0:2:0:0:
156,52,27134,1,0,3:2:0:0:
192,141,27310,2,0,L|184:269,1,80.000000298023,10|0,0:2|0:2,0:2:0:0:
100,263,27663,5,2,3:2:0:0:
308,223,28016,2,0,L|372:227,1,40.0000001490115,10|0,0:2|0:2,0:2:0:0:
360,239,28193,2,0,L|232:231,1,80.000000298023,10|0,3:2|0:2,0:2:0:0:
200,178,28546,1,0,3:2:0:0:
120,234,28722,2,0,L|116:298,1,40.0000001490115,10|0,0:2|0:2,0:2:0:0:
205,195,28899,6,0,L|197:323,2,80.000000298023,2|0|0,3:2|0:2|0:2,0:2:0:0:
158,110,29428,2,0,L|162:46,1,40.0000001490115,10|0,0:2|0:2,0:2:0:0:
174,58,29604,2,0,L|170:122,1,40.0000001490115,10|0,0:2|0:2,0:2:0:0:
94,85,29781,2,0,L|-34:77,1,80.000000298023,2|0,3:2|0:2,0:2:0:0:
107,180,30134,2,0,L|-21:172,1,80.000000298023,10|0,3:2|0:2,0:2:0:0:
120,275,30487,6,0,L|248:283,1,80.000000298023,2|0,3:2|0:2,0:2:0:0:
283,231,30840,2,0,L|279:167,1,40.0000001490115,10|0,1:2|0:2,0:2:0:0:
267,179,31016,2,0,L|271:243,1,40.0000001490115,10|0,0:2|0:2,0:2:0:0:
336,269,31193,1,2,3:2:0:0:
373,181,31369,1,2,0:2:0:0:
302,116,31546,2,0,L|238:112,1,40.0000001490115,10|0,1:2|0:2,0:2:0:0:
208,151,31722,6,0,L|80:159,1,80.000000298023,2|0,0:2|3:2,0:2:0:0:
32,162,32075,1,2,0:2:0:0:
81,245,32252,2,0,L|85:309,1,40.0000001490115,10|0,1:2|0:2,0:2:0:0:
97,297,32428,2,0,L|89:169,1,80.000000298023,10|0,0:2|3:2,0:2:0:0:
190,322,32781,1,2,0:2:0:0:
283,297,32957,2,0,L|287:233,1,40.0000001490115,10|0,1:2|0:2,0:2:0:0:
351,229,33134,1,2,0:2:0:0:
376,136,33310,6,0,L|248:144,1,80.000000298023,2|0,3:2|0:2,0:2:0:0:
205,112,33663,2,0,L|209:48,1,40.0000001490115,10|0,1:2|0:2,0:2:0:0:
221,60,33840,2,0,L|217:124,1,40.0000001490115,10|0,0:2|0:2,0:2:0:0:
201,177,34016,1,2,3:2:0:0:
128,114,34193,1,2,0:2:0:0:
110,208,34369,2,0,L|114:272,1,40.0000001490115,10|0,1:2|0:2,0:2:0:0:
183,271,34546,1,2,0:2:0:0:
19,239,34722,6,0,P|19:303|84:406,2,128.000000476837,0|0|0,3:2|3:2|3:2,0:2:0:0:
305,196,35781,6,0,P|303:156|281:134,1,60.0000002235172,2|0,0:2|0:2,0:2:0:0:
227,126,36134,5,6,3:2:0:0:
289,27,36310,2,0,P|351:1|403:0,1,120.000005024671,2|0,0:2|1:2,0:2:0:0:
254,240,36663,1,2,0:2:0:0:
227,126,36840,2,0,P|247:72|289:27,1,120.000005024671,2|0,3:2|0:2,0:2:0:0:
192,339,37193,5,2,1:2:0:0:
254,240,37369,2,0,P|253:188|227:126,1,120.000005024671,2|0,0:2|3:2,0:2:0:0:
14,91,37722,1,2,0:2:0:0:
103,215,37899,1,0,1:2:0:0:
121,108,38075,1,2,0:2:0:0:
108,296,38252,2,0,B|103:215|103:215|86:259,1,120.000005024671,2|0,3:2|0:2,0:2:0:0:
121,108,38604,2,0,B|116:27|116:27|99:71,1,120.000005024671,2|0,1:2|0:2,0:2:0:0:
292,153,38957,5,2,3:2:0:0:
230,54,39134,2,0,P|168:28|116:27,1,120.000005024671,2|0,0:2|1:2,0:2:0:0:
265,267,39487,1,2,0:2:0:0:
292,153,39663,2,0,P|272:99|230:54,1,120.000005024671,2|0,3:2|0:2,0:2:0:0:
327,366,40016,5,2,1:2:0:0:
265,267,40193,2,0,P|266:215|292:153,1,120.000005024671,2|0,0:2|3:2,0:2:0:0:
443,131,40546,1,2,0:2:0:0:
416,242,40722,1,0,1:2:0:0:
355,55,40899,1,2,0:2:0:0:
265,267,41075,1,0,3:2:0:0:
218,123,41252,1,2,0:2:0:0:
114,292,41428,1,0,1:2:0:0:
81,191,41604,1,2,0:2:0:0:
265,267,41781,6,0,P|223:317|200:267,1,143.99999614191,2|0,3:2|0:2,0:2:0:0:
308,215,42134,2,0,P|331:269|308:348,1,143.99999614191,2|0,1:2|0:2,0:2:0:0:
157,348,42487,2,0,P|134:294|157:215,1,143.99999614191,2|0,3:2|0:2,0:2:0:0:
311,141,42840,6,0,B|206:182|206:108|101:149,1,215.999994212865,2|0,1:2|0:2,0:2:0:0:
243,7,43193,6,0,P|280:76|216:66,1,180.000007537007,2|0,3:2|0:2,0:2:0:0:
348,88,43546,2,0,P|412:78|375:147,1,180.000007537007,2|0,1:2|0:2,0:2:0:0:
460,33,43899,6,0,B|491:74|491:74|480:255,1,215.999994212865,2|0,3:2|0:2,0:2:0:0:
369,293,44252,2,0,B|338:252|338:252|349:71,1,215.999994212865,2|0,1:2|0:2,0:2:0:0:
173,22,44604,6,0,P|206:130|286:187,1,180.000007537007,2|0,3:2|0:2,0:2:0:0:
289,59,44957,2,0,P|246:138|259:216,1,143.99999614191,2|0,1:2|0:2,0:2:0:0:
344,153,45310,2,0,P|272:175|235:228,1,120.000000447034,2|0,3:2|0:2,0:2:0:0:
223,269,45663,1,2,1:2:0:0:
133,95,45840,6,0,P|77:68|-1:70,1,120.000005024671,2|0,0:2|3:2,0:2:0:0:
109,251,46193,1,2,0:2:0:0:
247,113,46369,1,2,1:2:0:0:
119,266,46546,2,0,L|127:394,1,95.9999974279402,2|0,0:2|3:2,0:2:0:0:
257,128,46899,1,2,0:2:0:0:
129,281,47075,2,0,L|137:409,1,95.9999974279402,2|8,1:2|0:1,0:2:0:0:
210,339,47340,1,8,0:1:0:0:
228,343,47428,6,0,P|342:316|404:217,1,240.000010049343,6|0,3:2|1:2,0:2:0:0:
164,68,47957,5,2,0:2:0:0:
102,167,48134,1,0,3:2:0:0:
129,281,48310,2,0,P|174:323|228:343,1,120.000005024671,2|0,0:2|1:2,0:2:0:0:
278,41,48663,5,2,0:2:0:0:
164,68,48840,1,0,3:2:0:0:
102,167,49016,1,2,0:2:0:0:
377,103,49193,1,2,1:2:0:0:
278,41,49369,2,0,P|226:42|164:68,1,120.000005024671,2|0,0:2|3:2,0:2:0:0:
394,232,49722,5,2,0:2:0:0:
367,118,49899,1,0,1:2:0:0:
268,56,50075,2,0,P|216:57|154:83,1,120.000005024671,2|0,0:2|3:2,0:2:0:0:
384,247,50428,5,2,0:2:0:0:
357,133,50604,1,0,1:2:0:0:
258,71,50781,2,0,P|206:72|144:98,1,120.000005024671,2|0,0:2|3:2,0:2:0:0:
374,262,51134,5,2,0:2:0:0:
347,148,51310,1,0,1:2:0:0:
248,86,51487,2,0,P|196:87|134:113,1,120.000005024671,2|0,0:2|3:2,0:2:0:0:
89,341,51840,5,2,0:2:0:0:
151,242,52016,2,0,P|150:190|124:128,1,120.000005024671,2|0,1:2|0:2,0:2:0:0:
0,217,52369,5,0,3:2:0:0:
145,307,52546,1,2,0:2:0:0:
283,307,52722,1,0,1:2:0:0:
376,250,52899,1,2,0:2:0:0:
225,117,53075,6,0,P|202:171|225:250,1,143.99999614191,2|0,3:2|0:2,0:2:0:0:
333,198,53428,2,0,P|291:148|268:198,1,143.99999614191,2|0,1:2|0:2,0:2:0:0:
376,250,53781,2,0,P|399:196|376:117,1,143.99999614191,2|0,3:2|0:2,0:2:0:0:
222,43,54134,6,0,B|327:84|327:10|432:51,1,215.999994212865,2|0,1:2|0:2,0:2:0:0:
376,250,54487,6,0,P|353:196|376:117,1,143.99999614191,2|0,3:2|0:2,0:2:0:0:
376,250,54840,2,0,P|340:296|260:316,1,143.99999614191,2|0,1:2|0:2,0:2:0:0:
376,250,55193,2,0,P|434:257|491:316,1,143.99999614191,2|0,3:2|0:2,0:2:0:0:
457,372,55546,2,0,L|329:380,1,95.9999974279402,2|0,1:2|0:2,0:2:0:0:
203,250,55899,6,0,P|116:261|26:319,1,180.000007537007,6|0,3:2|0:2,0:2:0:0:
15,369,56252,2,0,L|7:241,1,120.000005024671,0|0,1:2|0:2,0:2:0:0:
195,130,56604,2,0,P|108:141|18:199,1,180.000007537007,2|0,3:2|0:2,0:2:0:0:
7,249,56957,2,0,L|-1:121,1,120.000005024671,0|0,1:2|0:2,0:2:0:0:
167,294,57310,6,0,P|116:275|163:229,1,143.99999614191,2|0,3:2|0:2,0:2:0:0:
221,258,57663,2,0,P|268:212|217:193,1,143.99999614191,2|0,1:2|0:2,0:2:0:0:
224,325,58016,6,0,P|310:291|312:162,1,215.999994212865,2|0,3:2|0:2,0:2:0:0:
246,125,58369,2,0,P|160:159|158:288,1,215.999994212865,2|0,1:2|0:2,0:2:0:0:
138,364,58722,6,0,P|151:315|97:313,1,120.000000447034,2|0,3:2|0:2,0:2:0:0:
41,348,59075,6,0,B|-9:207|79:207|29:66,2,287.999992283821,2|2|2,1:2|3:2|1:2,0:2:0:0:
192,50,60134,6,0,P|179:99|233:101,1,120.000000447034,2|0,3:2|0:2,0:2:0:0:
289,66,60487,6,0,B|339:207|251:207|301:348,2,287.999992283821,2|2|2,1:2|3:2|1:2,0:2:0:0:
27,140,61546,6,0,L|219:152,1,143.99999614191,2|0,3:2|0:2,0:2:0:0:
168,84,61899,2,0,P|128:100|116:184,1,95.9999974279402,2|0,1:2|0:2,0:2:0:0:
159,254,62252,2,0,L|351:266,1,143.99999614191,2|0,3:2|0:2,0:2:0:0:
300,198,62604,2,0,P|260:214|248:298,1,95.9999974279402,2|0,1:2|0:2,0:2:0:0:
411,328,62957,6,0,L|423:136,1,191.99999485588,2|0,3:2|1:2,0:2:0:0:
358,34,63487,1,2,0:2:0:0:
210,156,63663,2,0,P|307:137|347:89,1,95.9999974279402,2|0,3:2|0:2,0:2:0:0:
450,18,64016,2,0,P|353:37|313:85,1,95.9999974279402,2|0,1:2|0:2,0:2:0:0:
234,242,64369,6,0,P|124:180|186:70,1,180.000007537007,2|0,3:2|0:2,0:2:0:0:
141,78,64722,2,0,L|333:90,1,120.000005024671,2|0,1:2|0:2,0:2:0:0:
438,191,65075,2,0,P|328:129|390:19,1,180.000007537007,2|0,3:2|0:2,0:2:0:0:
345,27,65428,2,0,L|537:39,1,120.000005024671,2|0,1:2|0:2,0:2:0:0:
411,260,65781,6,0,B|299:253|299:253|288:241|288:241|176:234,1,240.000010049343,2|0,3:2|1:2,0:2:0:0:
360,143,66310,2,0,L|552:155,1,120.000005024671,2|0,0:2|3:2,0:2:0:0:
176,234,66663,5,2,0:2:0:0:
184,28,66840,1,2,1:2:0:0:
360,143,67016,5,2,0:2:0:0:
240,135,67193,1,0,3:2:0:0:
120,127,67369,2,0,P|85:92|85:-36,1,120.000005024671,2|0,0:2|1:2,0:2:0:0:
348,156,67722,5,2,0:2:0:0:
228,148,67899,1,0,3:2:0:0:
108,140,68075,2,0,P|73:105|73:-23,1,120.000005024671,2|0,0:2|1:2,0:2:0:0:
336,169,68428,5,2,0:2:0:0:
216,161,68604,1,0,3:2:0:0:
96,153,68781,1,2,0:2:0:0:
280,62,68957,1,2,1:2:0:0:
272,268,69134,2,0,P|207:332|122:362,1,120.000005024671,2|0,0:2|3:2,0:2:0:0:
84,166,69487,5,2,0:2:0:0:
268,75,69663,1,2,1:2:0:0:
260,281,69840,2,0,P|195:345|110:375,1,120.000005024671,2|0,0:2|3:2,0:2:0:0:
72,179,70193,5,2,0:2:0:0:
256,88,70369,1,2,1:2:0:0:
248,294,70546,2,0,P|183:358|98:388,1,120.000005024671,2|0,0:2|3:2,0:2:0:0:
60,192,70899,5,2,0:2:0:0:
244,101,71075,1,2,1:2:0:0:
236,307,71252,2,0,P|171:371|86:401,1,120.000005024671,2|0,0:2|3:2,0:2:0:0:
124,93,71604,5,2,0:2:0:0:
300,208,71781,2,0,P|388:230|476:214,1,120.000005024671,2|0,1:2|0:2,0:2:0:0:
308,2,72134,5,0,3:2:0:0:
215,146,72310,1,2,0:2:0:0:
215,284,72487,1,0,1:2:0:0:
274,376,72663,1,2,0:2:0:0:
377,208,72840,6,0,P|331:161|312:212,1,143.99999614191,2|0,3:2|0:2,0:2:0:0:
348,266,73193,2,0,P|329:317|283:270,1,143.99999614191,2|0,1:2|0:2,0:2:0:0:
312,212,73546,2,0,P|266:165|247:216,1,143.99999614191,2|0,3:2|0:2,0:2:0:0:
283,270,73899,2,0,P|264:321|218:274,1,143.99999614191,2|0,1:2|0:2,0:2:0:0:
272,98,74252,6,0,B|253:54|209:38|209:38|190:81|209:125,1,180.000007537007,2|0,3:2|0:2,0:2:0:0:
264,166,74604,2,0,B|311:172|348:141|348:141|319:103|272:98,1,180.000007537007,2|0,1:2|0:2,0:2:0:0:
209,125,74957,2,0,B|181:163|188:210|188:210|236:204|264:166,1,180.000007537007,2|0,3:2|0:2,0:2:0:0:
209,38,75310,1,2,0:2:0:0:
300,351,75663,6,0,L|292:223,1,120.000005024671,6|0,3:2|0:2,0:2:0:0:
311,104,75928,1,2,0:2:0:0:
324,117,76016,2,0,L|328:181,1,60.0000025123357,0|0,1:2|0:2,0:2:0:0:
356,3,76193,2,0,L|360:67,1,60.0000025123357,2|0,0:2|0:2,0:2:0:0:
392,174,76369,5,0,3:2:0:0:
261,143,76546,1,2,0:2:0:0:
292,12,76722,1,0,1:2:0:0:
423,43,76899,1,2,0:2:0:0:
261,143,77075,6,0,L|133:135,1,120.000005024671,2|0,3:2|0:2,0:2:0:0:
133,252,77340,1,2,0:2:0:0:
149,261,77428,2,0,L|145:197,1,60.0000025123357,0|0,1:2|0:2,0:2:0:0:
117,375,77604,2,0,L|113:311,1,60.0000025123357,2|0,0:2|0:2,0:2:0:0:
212,235,77781,5,0,3:2:0:0:
81,204,77957,1,2,0:2:0:0:
50,335,78134,1,0,1:2:0:0:
181,366,78310,1,2,0:2:0:0:
81,204,78487,6,0,L|89:76,1,120.000005024671,2|0,3:2|0:2,0:2:0:0:
209,78,78752,1,2,0:2:0:0:
201,95,78840,2,0,P|154:123|123:118,1,60.0000025123357,0|0,1:2|0:2,0:2:0:0:
287,167,79016,2,0,P|242:165|213:140,1,60.0000025123357,2|0,0:2|0:2,0:2:0:0:
148,59,79193,5,0,3:2:0:0:
167,186,79369,1,2,0:2:0:0:
267,106,79546,1,0,1:2:0:0:
286,233,79722,1,2,0:2:0:0:
80,196,79899,6,0,L|88:324,1,120.000005024671,2|0,3:2|0:2,0:2:0:0:
208,322,80163,1,2,0:2:0:0:
200,305,80252,2,0,P|153:277|122:282,1,60.0000025123357,0|0,1:2|0:2,0:2:0:0:
286,233,80428,2,0,P|241:235|212:260,1,60.0000025123357,2|0,0:2|0:2,0:2:0:0:
147,341,80604,5,0,3:2:0:0:
166,214,80781,1,2,0:2:0:0:
266,294,80957,1,0,1:2:0:0:
285,167,81134,1,2,0:2:0:0:
106,130,81310,6,0,P|118:191|166:214,1,120.000005024671,2|0,3:2|0:2,0:2:0:0:
202,82,81575,1,2,0:2:0:0:
190,95,81663,2,0,P|175:121|167:150,1,60.0000025123357,0|0,1:2|0:2,0:2:0:0:
106,14,81840,2,0,P|114:43|129:69,1,60.0000025123357,2|0,0:2|0:2,0:2:0:0:
253,42,82016,5,0,3:2:0:0:
285,167,82193,1,2,0:2:0:0:
413,175,82369,1,0,1:2:0:0:
460,55,82546,1,2,0:2:0:0:
285,167,82722,6,0,P|297:228|345:251,1,120.000005024671,2|0,3:2|0:2,0:2:0:0:
381,119,82987,1,2,0:2:0:0:
369,132,83075,2,0,P|354:158|346:187,1,60.0000025123357,0|0,1:2|0:2,0:2:0:0:
285,51,83252,2,0,P|293:80|308:106,1,60.0000025123357,2|0,0:2|0:2,0:2:0:0:
410,194,83428,5,0,3:2:0:0:
285,167,83604,1,2,0:2:0:0:
220,277,83781,1,0,1:2:0:0:
305,372,83957,1,2,0:2:0:0:
285,167,84134,6,0,L|293:39,2,120.000000447034,2|0|0,0:2|0:2|0:2,0:2:0:0:
389,328,84840,2,0,L|397:200,1,80.000000298023,2|0,0:2|0:2,0:2:0:0:
380,153,85193,2,0,L|388:25,1,80.000000298023,2|0,0:2|0:2,0:2:0:0:
299,262,85546,6,0,L|291:390,2,120.000000447034,2|0|0,0:2|0:2|0:2,0:2:0:0:
195,101,86252,2,0,L|187:229,1,80.000000298023,2|0,0:2|0:2,0:2:0:0:
204,276,86604,2,0,L|196:404,1,80.000000298023,2|0,0:2|0:2,0:2:0:0:
285,167,86957,5,2,3:2:0:0:
