osu file format v14

[General]
AudioFilename: audio.mp3
AudioLeadIn: 0
PreviewTime: 35737
Countdown: 0
SampleSet: Soft
StackLeniency: 1
Mode: 0
LetterboxInBreaks: 0
WidescreenStoryboard: 1

[Editor]
DistanceSpacing: 5.8
BeatDivisor: 4
GridSize: 32
TimelineZoom: 2.5

[Metadata]
Title:Kaibutsu (TV Size)
TitleUnicode:怪物 (TV Size)
Artist:YOASOBI
ArtistUnicode:YOASOBI
Creator:Ryuusei Aika
Version:Moete's Expert
Source:BEASTARS
Tags:ビースターズ japanese furry anime op2 pop j-pop jpop opening theme 幾田りら Ikuta Rira Lilas Ayase Monster MoeAsuka Atrue SuperBox Fall Marle Calvaria Mariko Sakuragi Reiji Maigo SB hhjkl [Hatsune Miku] [Hatsune_Miku] Hatsune Miku Remapper _lai Kyrian 09kami Ducky- Acyl Acylica Bellicose wafer iWaifu KAMI NO KOTOBA Addy2607 KaedeharaKazuha Airincat Chompy Yooh Reywateil Amateurre Sparhten Ajisai- HabiHolic newton- Yuuma Ogura Yui fedora- UberFazz xidorn Pata-Mon PataMon Deca Wanpachi cycopton Gibune wiken Fuju Stratos Crystal OneShotFox Elcheer Fieryrage hypercyte hypercute Kittyadventure gokugohan12468 Kyouren Zelq ponbot Yuuma3 Mimari i love ganyu Flake yaspo Regraz Mafumafu bongo Moete Senseabel Senseable Kuse KuBsNia_ZhoYL_ wetdog123 eiri-
BeatmapID:2820238
BeatmapSetID:1335792

[Difficulty]
HPDrainRate:5.5
CircleSize:4.5
OverallDifficulty:8.2
ApproachRate:9
SliderMultiplier:1.60000000596046
SliderTickRate:1

[Events]
//Background and Video events
0,0,"furry.jpg",0,0
Video,-200,"OP.mp4"
//Break Periods
//Storyboard Layer 0 (Background)
//Storyboard Layer 1 (Fail)
//Storyboard Layer 2 (Pass)
//Storyboard Layer 3 (Foreground)
//Storyboard Layer 4 (Overlay)
//Storyboard Sound Samples

[TimingPoints]
-3395,352.941176470588,4,2,1,40,1,0
1543,-125,4,2,1,40,0,0
2163,-125,4,2,1,5,0,0
2252,-99.9999999999999,4,2,1,60,0,0
4016,-111.111111111111,4,2,1,60,0,0
4899,-99.9999999999999,4,2,1,60,0,0
5163,-99.9999999999999,4,2,1,5,0,0
5252,-99.9999999999999,4,2,1,60,0,0
6399,-99.9999999999999,4,2,1,5,0,0
6487,-99.9999999999999,4,2,1,60,0,0
7899,-111.111111111111,4,2,1,60,0,0
8163,-99.9999999999999,4,2,1,5,0,0
8252,-99.9999999999999,4,2,1,60,0,0
10104,-99.9999999999999,4,2,1,5,0,0
10193,-99.9999999999999,4,2,1,60,0,0
10634,-99.9999999999999,4,2,1,5,0,0
10722,-99.9999999999999,4,2,1,60,0,0
13546,-83.3333333333333,4,2,1,70,0,0
13810,-83.3333333333333,4,2,1,5,0,0
13899,-90.9090909090909,4,2,1,70,0,0
14163,-90.9090909090909,4,2,1,5,0,0
14252,-90.9090909090909,4,2,1,70,0,0
15222,-90.9090909090909,4,2,1,5,0,0
15311,-90.9090909090909,4,2,1,70,0,0
16193,-111.111111111111,4,2,1,70,0,0
16546,-90.9090909090909,4,2,1,70,0,0
16987,-90.9090909090909,4,2,1,5,0,0
17076,-90.9090909090909,4,2,1,70,0,0
17781,-83.3333333333333,4,2,1,70,0,0
19193,-90.9090909090909,4,2,1,70,0,0
19457,-83.3333333333333,4,2,1,5,0,0
19546,-83.3333333333333,4,2,1,70,0,0
21222,-90.9090909090909,4,2,1,5,0,0
21311,-90.9090909090909,4,2,1,70,0,0
22281,-90.9090909090909,4,2,1,5,0,0
22370,-90.9090909090909,4,2,1,70,0,0
22634,-90.9090909090909,4,2,1,5,0,0
22723,-90.9090909090909,4,2,1,70,0,0
23340,-90.9090909090909,4,2,1,5,0,0
23429,-90.9090909090909,4,2,1,70,0,0
24046,-90.9090909090909,4,2,1,5,0,0
24134,-90.9090909090909,4,2,1,70,0,0
24840,-133.333333333333,4,2,1,60,0,0
27928,-133.333333333333,4,2,1,5,0,0
28016,-133.333333333333,4,2,1,60,0,0
29781,-111.111111111111,4,2,1,60,0,0
30046,-111.111111111111,4,2,1,5,0,0
30134,-111.111111111111,4,2,1,60,0,0
30487,-90.9090909090909,4,2,1,75,0,0
31457,-90.9090909090909,4,2,1,5,0,0
31546,-90.9090909090909,4,2,1,75,0,0
32163,-90.9090909090909,4,2,1,5,0,0
32252,-90.9090909090909,4,2,1,75,0,0
33222,-90.9090909090909,4,2,1,5,0,0
33310,-90.9090909090909,4,2,1,75,0,0
34281,-90.9090909090909,4,2,1,5,0,0
34369,-90.9090909090909,4,2,1,75,0,0
35781,-199.999999999999,4,2,1,60,0,0
36046,-199.999999999999,4,2,1,5,0,0
36134,-76.9230769230769,4,2,1,80,0,1
38252,-90.9090909090909,4,2,1,80,0,1
38604,-76.9230769230769,4,2,1,80,0,1
38957,-83.3333333333333,4,2,1,80,0,1
39663,-76.9230769230769,4,2,1,80,0,1
42487,-83.3333333333333,4,2,1,80,0,1
42840,-71.4285714285714,4,2,1,80,0,1
43193,-76.9230769230769,4,2,1,80,0,1
44252,-71.4285714285714,4,2,1,80,0,1
44957,-83.3333333333333,4,2,1,80,0,1
47428,-76.9230769230769,4,2,1,80,0,1
49722,-71.4285714285714,4,2,1,80,0,1
51134,-76.9230769230769,4,2,1,80,0,1
52369,-83.3333333333333,4,2,1,80,0,1
54487,-76.9230769230769,4,2,1,80,0,1
54840,-83.3333333333333,4,2,1,80,0,1
55899,-83.3333333333333,4,2,1,80,0,0
66663,-76.9230769230769,4,2,1,80,0,0
69487,-71.4285714285714,4,2,1,80,0,0
71604,-76.9230769230769,4,2,1,80,0,0
72840,-83.3333333333333,4,2,1,80,0,0
74957,-100,4,2,1,80,0,0
75663,-76.9230769230769,4,2,1,80,0,1
81310,-71.4285714285714,4,2,1,80,0,1
81575,-76.9230769230769,4,2,1,80,0,1
84134,-100,4,2,1,70,0,0
86957,-83.3333333333332,4,2,1,90,0,0

[Colours]
Combo1 : 191,96,0
Combo2 : 143,32,255
Combo3 : 191,0,96
Combo4 : 0,80,159

[HitObjects]
85,133,1546,6,2,B|156:137|135:177|216:183,1,128.000000476837,2|0,0:0|0:0,0:1:0:0:
273,109,2075,2,0,P|286:101|304:96,1,32.0000001192092
409,164,2252,6,0,P|415:225|357:235,1,120.000000447034,10|0,0:0|0:0,0:0:0:0:
304,200,2604,1,10,0:0:0:0:
294,191,2781,1,2,0:0:0:0:
190,301,2957,1,10,0:0:0:0:
201,288,3134,1,0,0:0:0:0:
311,372,3310,6,0,P|344:358|399:350,1,80.000000298023,10|2,0:0|0:0,0:0:0:0:
470,252,3663,6,0,B|487:216|463:185|463:185|450:178|450:178|425:144|443:108,1,160.000000596046,10|8,0:0|0:0,0:0:0:0:
504,57,4193,1,2,0:0:0:0:
504,57,4369,1,8,0:0:0:0:
385,0,4546,2,0,P|352:17|307:32,1,71.9999980709551,2|8,0:0|0:0,0:0:0:0:
215,146,4899,6,0,B|166:131|166:131|156:114|156:114|107:97,1,120.000000447034,2|0,0:0|0:0,0:0:0:0:
89,63,5252,1,2,0:0:0:0:
89,63,5428,1,8,0:0:0:0:
223,0,5604,6,0,B|246:36|246:36|222:75,1,80.000000298023,2|10,0:0|0:0,0:0:0:0:
98,177,5957,1,2,0:0:0:0:
98,177,6134,2,0,B|80:183|58:184|58:184|144:215,1,120.000000447034,10|0,0:0|0:0,0:0:0:0:
226,226,6487,6,0,B|183:210|148:242|148:242|138:276|84:288,1,160.000000596046,10|8,0:0|0:0,0:0:0:0:
242,217,7016,5,2,0:0:0:0:
296,274,7193,1,10,0:0:0:0:
362,165,7369,1,2,0:0:0:0:
286,141,7546,1,10,0:0:0:0:
370,242,7722,1,2,0:0:0:0:
469,99,7899,6,0,P|451:46|400:51,1,107.999997106433,10|0,0:0|0:0,0:0:0:0:
378,148,8252,2,0,B|412:137|412:137|417:132|417:132|458:119,1,80.000000298023,10|2,0:0|0:0,0:0:0:0:
311,4,8604,5,10,0:0:0:0:
189,123,8781,1,2,0:0:0:0:
269,160,8957,5,10,0:0:0:0:
151,11,9134,1,2,0:0:0:0:
269,160,9310,6,0,B|265:194|265:194|255:210|255:210|251:239,1,80.000000298023,10|0,0:0|0:0,0:0:0:0:
372,329,9663,1,10,0:0:0:0:
372,329,9840,2,0,P|425:308|402:249,1,120.000000447034,2|0,0:0|0:0,0:0:0:0:
349,222,10193,1,2,0:0:0:0:
239,338,10369,6,0,B|184:350|184:350|173:357|173:357|119:369,1,120.000000447034,8|0,0:0|0:0,0:0:0:0:
90,351,10722,1,8,0:0:0:0:
90,351,10899,1,2,0:0:0:0:
0,234,11075,6,0,B|12:194|-2:154|-2:154|18:190|68:199,1,160.000000596046,10|8,0:0|0:0,0:0:0:0:
0,234,11604,1,2,0:0:0:0:
113,129,11781,2,0,P|150:147|190:156,1,80.000000298023,10|2,0:0|0:0,0:0:0:0:
312,71,12134,5,10,0:0:0:0:
240,96,12487,1,10,0:0:0:0:
214,26,12840,1,8,0:0:0:0:
286,0,13193,1,2,0:3:0:0:
422,146,13546,6,0,B|489:156|489:156|417:129,1,143.99999614191,10|0,0:0|0:0,0:0:0:0:
407,114,13899,6,0,B|320:121|367:160|280:175,1,132.000004520058,2|0,1:2|0:0,0:0:0:0:
227,141,14252,1,10,0:0:0:0:
227,141,14428,1,2,0:0:0:0:
342,3,14604,5,2,1:2:0:0:
342,3,14781,1,2,0:0:0:0:
470,74,14957,6,0,B|509:89|509:89|541:132|517:160|494:167,1,132.000004520058,10|0,0:0|0:0,0:0:0:0:
465,170,15310,1,0,1:0:0:0:
348,289,15487,1,2,0:0:0:0:
430,329,15663,5,8,0:0:0:0:
319,189,15840,2,0,B|286:198|286:198|271:211|271:211|229:224,1,88.0000030133723,2|0,0:0|1:0,0:0:0:0:
126,335,16193,6,0,P|162:339|191:366,1,71.9999980709551,2|8,0:0|0:0,0:0:0:0:
50,258,16546,5,2,0:0:0:0:
46,249,16634,1,2,0:0:0:0:
41,239,16722,2,0,B|36:166|88:192|75:107,1,132.000004520058,0|0,1:0|0:0,0:0:0:0:
14,69,17075,5,10,0:0:0:0:
164,0,17252,1,2,0:0:0:0:
221,85,17428,5,2,1:2:0:0:
351,151,17604,1,2,0:0:0:0:
219,234,17781,6,0,B|184:255|184:255|205:318,1,95.9999974279402,10|2,0:0|0:0,0:0:0:0:
219,234,18134,1,0,1:0:0:0:
410,366,18310,5,2,0:0:0:0:
465,288,18487,1,10,0:0:0:0:
318,239,18663,1,2,0:0:0:0:
318,335,18840,1,2,1:2:0:0:
410,210,19016,1,2,0:0:0:0:
251,109,19193,6,0,B|204:120|204:120|189:144|189:144|126:160,1,132.000004520058,10|0,0:0|0:0,0:0:0:0:
55,102,19546,2,0,P|60:55|109:43,1,95.9999974279402,2|0,1:2|0:0,0:0:0:0:
145,170,19899,5,10,0:0:0:0:
220,210,20075,1,2,0:0:0:0:
349,37,20252,5,2,1:2:0:0:
260,83,20428,1,2,0:0:0:0:
407,193,20604,6,0,B|434:151|434:151|407:103,1,95.9999974279402,8|2,0:0|0:0,0:0:0:0:
300,213,20957,2,0,B|293:253|317:292|325:271|348:305|337:352,1,143.99999614191,2|0,1:2|0:0,0:0:0:0:
272,384,21310,1,8,0:0:0:0:
130,286,21487,5,2,0:0:0:0:
39,287,21663,2,0,P|81:274|122:258,1,88.0000030133723,2|2,1:2|0:0,0:0:0:0:
244,141,22016,6,0,B|260:131|287:134|287:134|204:114,1,132.000004520058,8|0,0:0|0:0,0:0:0:0:
194,105,22369,2,0,B|273:98|233:51|319:51,1,132.000004520058,2|0,1:2|0:0,0:0:0:0:
390,99,22722,1,10,0:0:0:0:
399,109,22899,1,2,0:0:0:0:
261,237,23075,6,0,B|242:294|242:294|261:333|302:316,1,132.000004520058,0|0,1:0|0:0,0:0:0:0:
312,326,23428,2,0,P|259:354|226:330,1,88.0000030133723,10|0,0:0|0:0,0:0:0:0:
390,194,23781,6,0,B|464:206|436:248|506:263,1,132.000004520058,2|0,1:2|0:0,0:0:0:0:
456,206,24134,2,0,P|420:181|362:175,1,88.0000030133723,10|0,0:0|0:0,0:0:0:0:
242,66,24487,2,0,P|287:57|324:28,1,88.0000030133723,2|0,1:2|0:0,0:0:0:0:
228,80,24840,5,10,0:1:0:0:
111,207,25193,5,2,1:2:0:0:
26,137,25369,1,10,1:1:0:0:
26,137,25546,1,2,0:0:0:0:
127,196,25722,1,10,0:1:0:0:
40,292,25899,1,0,1:2:0:0:
114,333,26075,6,0,B|184:324|149:288|232:283,1,120.000005024671,10|2,0:1|0:0,0:0:0:0:
342,365,26604,1,2,1:2:0:0:
342,365,26781,2,0,P|343:335|324:313,1,60.0000025123357,2|0,1:2|0:0,0:0:0:0:
274,198,27134,5,10,0:1:0:0:
199,273,27310,1,2,1:2:0:0:
293,211,27487,1,2,0:0:0:0:
187,142,27663,6,0,B|181:93|204:108|193:48,1,90.0000037685036,10|0,0:1|0:0,0:0:0:0:
183,44,28016,1,2,1:2:0:0:
306,0,28193,2,0,P|333:18|364:28,1,60.0000025123357,10|2,1:1|0:0,0:0:0:0:
436,91,28546,2,0,P|407:101|383:117,1,60.0000025123357,10|0,0:1|1:2,0:0:0:0:
308,216,28899,6,0,L|339:336,1,120.000005024671,10|2,0:1|0:0,0:0:0:0:
424,364,29428,1,2,1:2:0:0:
424,364,29604,1,2,1:2:0:0:
512,248,29781,6,0,P|472:193|438:208,1,107.999997106433,10|0,0:1|0:0,0:0:0:0:
437,215,30134,1,10,0:1:0:0:
327,105,30310,5,2,3:0:0:0:
333,111,30399,5,0,3:0:0:0:
326,116,30487,6,0,B|278:129|278:129|257:149|257:149|196:166,1,132.000004520058,14|0,0:0|0:0,0:0:0:0:
138,127,30840,1,2,1:2:0:0:
127,115,31016,1,2,1:2:0:0:
36,266,31193,6,0,B|-2:252|-2:252|-28:212|1:183|22:178,1,132.000004520058,10|0,0:0|0:0,0:0:0:0:
54,258,31546,2,0,B|106:262|86:285|145:291,1,88.0000030133723,0|2,1:0|0:0,0:0:0:0:
254,384,31899,6,0,B|327:378|296:327|384:320,1,132.000004520058,8|0,0:0|0:0,0:0:0:0:
435,360,32252,1,2,1:2:0:0:
360,299,32428,1,2,1:2:0:0:
450,198,32604,6,0,P|492:211|503:255,1,88.0000030133723,8|2,0:0|0:0,0:0:0:0:
333,170,32957,2,0,B|271:185|271:185|268:189|268:189|204:206,1,132.000004520058,2|0,1:2|0:0,0:0:0:0:
128,152,33310,6,0,B|114:124|130:96|130:96|139:89|139:89|157:60|141:29,1,132.000004520058,10|0,0:0|0:0,0:0:0:0:
73,3,33663,1,2,1:2:0:0:
73,3,33840,1,0,1:0:0:0:
250,77,34016,6,0,B|291:53|291:53|339:53|361:95,1,132.000004520058,10|0,0:0|0:0,0:0:0:0:
325,162,34369,2,0,B|334:196|334:196|330:217|330:217|341:255,1,88.0000030133723,0|2,1:0|0:0,0:0:0:0:
448,322,34722,5,8,0:0:0:0:
505,265,35075,1,10,0:0:0:0:
429,243,35428,1,10,0:0:0:0:
322,358,35781,6,0,P|288:335|254:331,1,60.0000002235172,2|0,0:1|0:0,0:0:0:0:
205,373,36134,5,14,0:0:0:0:
62,241,36310,2,0,P|14:254|4:302,1,103.999995626688,2|0,0:0|1:0,0:0:0:0:
62,241,36663,1,2,0:0:0:0:
206,155,36840,6,0,B|298:165|250:211|349:229,1,155.999993440032,10|0,0:0|0:0,0:0:0:0:
404,185,37193,1,2,1:2:0:0:
270,51,37369,1,2,0:0:0:0:
360,0,37546,5,8,0:0:0:0:
219,172,37722,1,2,0:0:0:0:
93,66,37899,6,0,B|95:25|72:-8|72:-8|115:17|115:58,1,155.999993440032,2|0,1:2|0:0,0:0:0:0:
78,88,38252,2,0,B|89:114|89:114|84:149|84:149|94:176,1,88.0000030133723,10|0,0:0|0:0,0:0:0:0:
0,291,38604,2,0,P|25:344|68:346,1,103.999995626688,2|0,1:2|0:0,0:0:0:0:
216,265,38957,5,10,0:0:0:0:
319,319,39134,2,0,P|266:287|218:285,1,95.9999974279402,2|0,0:0|1:0,0:0:0:0:
377,175,39487,1,2,0:0:0:0:
479,362,39663,6,0,B|493:322|469:292|469:292|467:294|467:294|438:264|449:218,1,155.999993440032,10|0,0:0|0:0,0:0:0:0:
496,162,40016,1,2,3:2:0:0:
498,155,40104,1,2,3:2:0:0:
500,147,40193,1,2,3:2:0:0:
374,41,40369,6,0,B|340:50|340:50|322:66|322:66|274:81,1,103.999995626688,8|2,0:0|0:0,0:0:0:0:
148,180,40722,5,2,1:2:0:0:
301,298,40899,1,2,0:0:0:0:
188,374,41075,1,10,0:0:0:0:
305,163,41251,1,2,0:0:0:0:
124,287,41428,1,2,1:2:0:0:
346,384,41604,1,2,0:0:0:0:
426,271,41781,6,0,B|413:201|413:201|416:191|416:191|400:115,1,155.999993440032,10|0,0:0|0:0,0:0:0:0:
445,40,42134,6,0,P|501:47|512:90,1,103.999995626688,2|0,1:2|0:0,0:0:0:0:
374,202,42487,2,0,P|325:185|274:171,1,95.9999974279402,10|0,0:0|0:0,0:0:0:0:
174,301,42840,6,0,B|221:281|221:281|285:301|287:352|249:377,1,167.999995498895,2|0,1:2|0:0,0:0:0:0:
161,291,43193,2,0,B|165:231|138:253|141:191,1,103.999995626688,10|0,0:0|0:0,0:0:0:0:
278,37,43546,6,0,B|250:31|226:45|226:45|282:50|324:84,1,155.999993440032,2|0,1:2|0:0,0:0:0:0:
408,155,43899,2,0,P|468:140|481:102,1,103.999995626688,10|0,0:0|0:0,0:0:0:0:
263,16,44252,6,0,B|216:5|183:38|183:38|179:79|125:94,1,167.999995498895,2|0,1:2|0:0,0:0:0:0:
65,55,44604,1,10,3:0:0:0:
59,51,44693,1,2,3:0:0:0:
65,47,44781,1,2,3:0:0:0:
204,172,44957,6,0,B|227:220|227:220|137:261,1,143.99999614191,2|0,1:2|0:0,0:0:0:0:
74,226,45310,1,10,0:0:0:0:
206,60,45487,1,0,0:0:0:0:
295,140,45663,5,2,1:2:0:0:
359,191,45840,2,0,B|359:252|323:225|327:290,1,95.9999974279402,0|8,0:0|0:0,0:0:0:0:
401,376,46193,5,2,0:0:0:0:
401,376,46369,2,0,B|441:384|441:384|493:352|485:314|453:282,1,143.99999614191,2|0,1:2|0:0,0:0:0:0:
401,251,46722,5,10,0:0:0:0:
267,381,46899,1,2,1:2:0:0:
267,381,47075,1,2,1:2:0:0:
137,219,47252,5,2,1:2:0:0:
148,210,47340,5,2,1:2:0:0:
139,202,47428,6,0,B|128:154|149:126|160:133|188:101|169:56,1,155.999993440032,14|0,0:0|0:0,0:0:0:0:
106,8,47781,1,0,1:0:0:0:
285,135,47957,5,2,0:0:0:0:
415,0,48134,1,10,0:0:0:0:
419,178,48310,5,2,0:0:0:0:
295,20,48487,1,0,1:0:0:0:
466,110,48663,5,2,0:0:0:0:
272,242,48840,2,0,B|249:197|249:197|277:140,1,103.999995626688,10|2,0:0|0:0,0:0:0:0:
422,192,49193,6,0,P|458:208|479:213,1,51.999997813344,2|0,1:2|0:0,0:0:0:0:
512,298,49369,2,0,B|425:298|468:352|374:359,1,155.999993440032,2|0,0:0|0:0,0:0:0:0:
307,324,49722,6,0,P|284:336|242:355,1,55.9999984996318,2|0,0:0|0:0,0:0:0:0:
168,222,49899,2,0,P|191:234|233:253,1,55.9999984996318,2|0,1:2|0:0,0:0:0:0:
100,361,50075,6,0,B|33:378|33:378|24:326|6:269,1,167.999995498895,2|0,0:0|0:0,0:0:0:0:
70,231,50428,6,0,P|82:205|90:171,1,55.9999984996318,2|0,0:0|0:0,0:0:0:0:
0,69,50604,2,0,P|12:95|20:129,1,55.9999984996318,2|0,1:2|0:0,0:0:0:0:
171,28,50781,6,0,B|235:44|235:44|255:74|255:74|327:91,1,167.999995498895,2|0,0:0|0:0,0:0:0:0:
381,46,51134,5,2,0:0:0:0:
512,176,51310,1,2,1:2:0:0:
394,263,51487,2,0,P|355:226|379:172,1,103.999995626688,2|8,0:0|0:0,0:0:0:0:
366,182,51840,1,2,0:0:0:0:
512,326,52016,6,0,P|450:346|362:373,1,155.999993440032,2|0,1:2|0:0,0:0:0:0:
294,348,52369,5,10,0:0:0:0:
142,228,52546,1,2,0:0:0:0:
259,153,52722,5,2,1:2:0:0:
121,345,52899,1,2,0:0:0:0:
269,161,53075,6,0,B|280:118|256:94|256:94|253:95|253:95|228:66|241:30,1,143.99999614191,10|0,0:0|0:0,0:0:0:0:
322,0,53428,2,0,B|376:20|376:20|333:20,1,95.9999974279402,2|0,1:2|0:0,0:0:0:0:
219,101,53781,6,0,B|179:114|179:114|166:128|166:128|124:141,1,95.9999974279402,10|0,0:0|0:0,0:0:0:0:
41,242,54134,2,0,B|17:250|-12:245|-12:245|80:280,1,143.99999614191,2|0,1:2|0:0,0:0:0:0:
140,330,54487,6,0,P|212:295|171:232,1,155.999993440032,10|0,0:0|0:0,0:0:0:0:
143,333,54840,2,0,B|187:322|187:322|192:318|192:318|247:303,1,95.9999974279402,2|0,1:2|0:0,0:0:0:0:
458,334,55193,5,10,0:0:0:0:
336,201,55369,1,0,0:0:0:0:
354,376,55546,5,2,1:2:0:0:
484,171,55722,1,0,0:0:0:0:
267,103,55899,6,0,B|219:116|219:116|184:146|184:146|132:162,1,143.99999614191,14|0,0:0|0:0,0:0:0:0:
63,116,56252,2,0,B|34:76|34:76|48:60|62:34,1,95.9999974279402,0|0,1:0|0:0,0:0:0:0:
277,88,56604,6,0,B|321:71|369:82|398:120|398:120|366:101|335:113,1,191.99999485588,10|2,0:0|1:2,0:0:0:0:
343,111,57046,1,2,0:0:0:0:
343,111,57134,1,2,0:0:0:0:
224,219,57310,6,0,B|244:306|192:279|210:365,1,143.99999614191,10|0,0:0|0:0,0:0:0:0:
198,369,57663,2,0,P|166:323|200:275,1,95.9999974279402,2|0,1:2|0:0,0:0:0:0:
343,208,58016,6,0,P|389:226|437:245,1,95.9999974279402,10|0,0:0|0:0,0:0:0:0:
275,95,58369,2,0,P|229:113|181:132,1,95.9999974279402,2|0,1:2|0:0,0:0:0:0:
349,6,58722,6,0,B|405:40|405:40|374:122,1,143.99999614191,10|0,0:0|0:0,0:0:0:0:
388,129,59075,2,0,P|428:92|407:57,1,95.9999974279402,2|0,1:2|0:0,0:0:0:0:
223,176,59428,6,0,P|181:153|124:143,1,95.9999974279402,10|0,0:0|0:0,0:0:0:0:
11,283,59781,2,0,P|57:273|99:250,1,95.9999974279402,2|0,1:2|0:0,0:0:0:0:
206,316,60134,6,0,B|297:326|256:360|335:378,1,143.99999614191,10|0,0:0|0:0,0:0:0:0:
413,337,60487,2,0,B|457:313|457:313|403:322,1,95.9999974279402,2|0,1:2|0:0,0:0:0:0:
307,228,60840,5,10,0:0:0:0:
427,123,61016,1,0,0:0:0:0:
427,123,61193,2,0,B|447:113|476:117|476:117|383:93,1,143.99999614191,2|0,1:2|0:0,0:0:0:0:
313,35,61546,6,0,B|264:48|264:48|247:70|247:70|181:90,1,143.99999614191,10|0,0:0|0:0,0:0:0:0:
119,152,61899,2,0,P|73:112|89:84,1,95.9999974279402,2|0,1:2|0:0,0:0:0:0:
206,115,62252,5,10,0:0:0:0:
328,229,62428,1,0,0:0:0:0:
177,293,62604,1,2,1:2:0:0:
228,208,62781,1,0,0:0:0:0:
381,309,62957,6,0,B|425:290|434:236|434:236|425:302|471:330,1,191.99999485588,10|2,0:0|1:2,0:0:0:0:
462,324,63399,1,2,0:0:0:0:
462,324,63487,1,2,0:0:0:0:
297,384,63663,6,0,B|237:373|237:373|230:368|230:368|147:353,1,143.99999614191,10|0,0:0|0:0,0:0:0:0:
100,291,64016,2,0,P|53:308|-2:327,1,95.9999974279402,2|0,1:2|0:0,0:0:0:0:
171,213,64369,5,10,0:0:0:0:
91,121,64546,1,0,0:0:0:0:
250,20,64722,5,2,1:2:0:0:
171,117,64899,1,0,0:0:0:0:
26,0,65075,5,10,0:0:0:0:
129,51,65252,1,0,0:0:0:0:
253,165,65428,6,0,B|332:158|295:112|379:108,1,143.99999614191,2|0,1:2|0:0,0:0:0:0:
451,153,65781,6,0,B|500:173|500:173|530:228|468:259,1,143.99999614191,10|0,0:0|0:0,0:0:0:0:
454,257,66134,1,0,1:0:0:0:
297,331,66310,6,0,B|352:344|352:344|371:371|371:371|436:386,1,143.99999614191,2|0,0:0|0:0,0:0:0:0:
492,345,66663,1,2,0:0:0:0:
352,234,66840,1,2,1:2:0:0:
276,302,67016,5,2,0:0:0:0:
134,384,67193,2,0,B|72:370|72:370|87:321|95:272,1,155.999993440032,14|0,0:0|0:0,0:0:0:0:
158,232,67546,1,0,1:0:0:0:
39,109,67722,5,2,0:0:0:0:
173,9,67899,1,10,0:0:0:0:
253,82,68075,1,2,0:0:0:0:
253,82,68252,1,0,1:0:0:0:
414,160,68428,5,2,0:0:0:0:
492,114,68604,2,0,B|454:121|454:121|434:137|434:137|390:147,1,103.999995626688,10|2,0:0|0:0,0:0:0:0:
283,253,68957,6,0,P|259:237|221:230,1,51.999997813344,2|0,1:2|0:0,0:0:0:0:
134,162,69134,2,0,B|233:146|184:113|270:94,1,155.999993440032,2|0,0:0|0:0,0:0:0:0:
327,34,69487,6,0,P|362:47|377:81,1,55.9999984996318,2|0,0:0|0:0,0:0:0:0:
445,49,69663,2,0,P|455:69|448:116,1,55.9999984996318,2|0,1:2|0:0,0:0:0:0:
351,213,69840,6,0,B|373:276|373:276|363:311|363:311|386:381,1,167.999995498895,2|0,0:0|0:0,0:0:0:0:
462,384,70193,6,0,P|493:375|511:347,1,55.9999984996318,2|0,0:0|0:0,0:0:0:0:
506,265,70369,2,0,P|487:244|460:238,1,55.9999984996318,2|0,1:2|0:0,0:0:0:0:
281,342,70546,6,0,P|199:319|230:251,1,167.999995498895,2|0,0:0|0:0,0:0:0:0:
282,208,70899,6,0,P|311:221|340:229,1,55.9999984996318,2|0,0:0|0:0,0:0:0:0:
429,116,71075,2,0,P|402:124|376:135,1,55.9999984996318,2|0,1:2|0:0,0:0:0:0:
231,69,71252,6,0,B|169:51|169:51|148:21|148:21|72:5,1,167.999995498895,2|0,0:0|0:0,0:0:0:0:
17,49,71604,1,2,0:0:0:0:
113,192,71781,6,0,B|176:167|176:167|146:72,1,155.999993440032,2|0,1:2|0:0,0:0:0:0:
149,82,72134,5,8,0:0:0:0:
23,220,72310,1,2,0:0:0:0:
177,302,72487,5,2,1:2:0:0:
113,192,72663,1,2,0:0:0:0:
33,312,72840,6,0,B|12:320|-16:321|-16:321|80:355,1,143.99999614191,10|0,0:0|0:0,0:0:0:0:
156,384,73193,2,0,B|195:374|195:374|207:363|207:363|251:353,1,95.9999974279402,2|0,1:2|0:0,0:0:0:0:
373,236,73546,6,0,B|393:197|368:163|362:169|332:143|348:98,1,143.99999614191,10|0,0:0|0:0,0:0:0:0:
411,64,73899,2,0,P|365:57|337:93,1,95.9999974279402,2|0,1:2|0:0,0:0:0:0:
248,187,74252,6,0,P|204:171|157:155,1,95.9999974279402,10|0,0:0|0:0,0:0:0:0:
70,66,74516,1,2,0:0:0:0:
82,55,74604,2,0,B|139:41|139:41|155:27|155:27|229:11,1,143.99999614191,2|0,1:2|0:0,0:0:0:0:
287,54,74957,6,0,B|318:81|318:81|307:102|298:125,2,80.000000298023,10|0|2,0:0|0:0|0:0,0:0:0:0:
125,255,75663,6,0,P|111:207|141:166,1,103.999995626688,14|0,0:1|0:0,0:0:0:0:
209,270,75928,2,0,P|238:229|224:181,1,103.999995626688,2|0,0:1|0:0,0:0:0:0:
223,181,76193,1,2,0:1:0:0:
101,282,76369,5,10,0:1:0:0:
262,370,76546,1,2,0:1:0:0:
353,282,76722,5,2,1:1:0:0:
493,192,76899,1,2,0:1:0:0:
341,69,77075,6,0,P|290:78|288:125,1,103.999995626688,14|0,0:1|0:0,0:0:0:0:
348,81,77340,2,0,L|237:46,1,103.999995626688,2|0,0:1|0:0,0:0:0:0:
194,0,77604,1,2,0:1:0:0:
28,82,77781,5,10,0:1:0:0:
167,221,77957,1,2,0:1:0:0:
50,307,78134,5,2,1:1:0:0:
203,147,78310,1,2,0:1:0:0:
280,241,78487,6,0,B|320:252|320:252|334:269|334:269|378:283,1,103.999995626688,14|0,0:1|0:0,0:0:0:0:
450,224,78752,2,0,L|422:108,1,103.999995626688,2|0,0:1|0:0,0:0:0:0:
425,122,79016,1,2,0:1:0:0:
302,12,79193,5,10,0:1:0:0:
196,173,79369,1,2,0:1:0:0:
280,229,79546,5,2,1:1:0:0:
369,375,79722,1,2,0:1:0:0:
505,240,79899,6,0,B|467:252|467:252|461:259|461:259|398:277,1,103.999995626688,14|0,0:1|0:0,0:0:0:0:
307,150,80163,2,0,B|345:162|345:162|351:169|351:169|414:187,1,103.999995626688,2|0,0:1|0:0,0:0:0:0:
467,146,80428,1,2,0:1:0:0:
334,35,80604,5,10,0:1:0:0:
170,186,80781,1,2,0:1:0:0:
272,244,80957,5,2,1:1:0:0:
118,51,81134,1,2,0:1:0:0:
272,244,81310,6,0,B|311:253|311:253|336:272|336:272|385:284,1,111.999996999264,14|0,0:1|0:0,0:0:0:0:
452,214,81575,2,0,P|449:164|401:148,1,103.999995626688,2|0,0:1|0:0,0:0:0:0:
404,148,81840,1,2,0:1:0:0:
278,89,82016,5,10,0:1:0:0:
133,250,82193,1,2,0:1:0:0:
248,334,82369,5,2,1:1:0:0:
112,164,82546,1,2,0:1:0:0:
53,324,82722,6,0,P|2:296|30:247,1,103.999995626688,14|0,0:1|0:0,0:0:0:0:
69,314,82987,2,0,B|109:324|109:324|119:335|119:335|172:352,1,103.999995626688,2|0,0:1|0:0,0:0:0:0:
235,316,83252,1,2,0:1:0:0:
455,217,83428,5,10,0:1:0:0:
293,93,83604,1,2,0:1:0:0:
456,141,83781,5,2,1:1:0:0:
325,310,83957,1,2,0:1:0:0:
199,234,84134,6,0,B|131:216|170:187|81:177,1,120.000000447034,14|2,0:1|0:1,0:0:0:0:
33,86,84663,5,2,0:1:0:0:
119,16,84840,1,2,0:1:0:0:
141,35,85016,1,2,0:1:0:0:
220,74,85193,1,2,0:1:0:0:
242,62,85369,1,2,0:1:0:0:
317,2,85546,6,0,B|358:11|358:11|379:36|379:36|428:48,1,120.000000447034,10|2,0:1|0:1,0:0:0:0:
510,165,86075,5,2,0:1:0:0:
510,165,86252,1,2,0:1:0:0:
413,241,86428,1,2,0:1:0:0:
497,291,86604,1,2,0:1:0:0:
422,229,86781,1,2,0:1:0:0:
367,332,86957,6,0,B|390:374|390:374|380:323,1,95.9999974279402,14|0,0:1|0:0,0:0:0:0:
