osu file format v14

[General]
AudioFilename: audio.mp3
AudioLeadIn: 0
PreviewTime:35737
Countdown: 0
SampleSet: Soft
StackLeniency: 1
Mode: 0
LetterboxInBreaks: 0
WidescreenStoryboard: 1

[Editor]
Bookmarks:1546,2252,13546,24840,30487,47428,55899,61546,67193,75663,84134
DistanceSpacing: 0.2
BeatDivisor: 4
GridSize: 8
TimelineZoom: 1.7

[Metadata]
Title:Kaibutsu (TV Size)
TitleUnicode:怪物 (TV Size)
Artist:YOASOBI
ArtistUnicode:YOASOBI
Creator:Ryuusei Aika
Version:Mimari's Insane
Source:BEASTARS
Tags:ビースターズ japanese furry anime op2 pop j-pop jpop opening theme 幾田りら Ikuta Rira Lilas Ayase Monster MoeAsuka Atrue SuperBox Fall Marle Calvaria Mariko Sakuragi Reiji Maigo SB hhjkl [Hatsune Miku] [Hatsune_Miku] Hatsune Miku Remapper _lai Kyrian 09kami Ducky- Acyl Acylica Bellicose wafer iWaifu KAMI NO KOTOBA Addy2607 KaedeharaKazuha Airincat Chompy Yooh Reywateil Amateurre Sparhten Ajisai- HabiHolic newton- Yuuma Ogura Yui fedora- UberFazz xidorn Pata-Mon PataMon Deca Wanpachi cycopton Gibune wiken Fuju Stratos Crystal OneShotFox Elcheer Fieryrage hypercyte hypercute Kittyadventure gokugohan12468 Kyouren Zelq ponbot Yuuma3 Mimari i love ganyu Flake yaspo Regraz Mafumafu bongo Moete Senseabel Senseable Kuse KuBsNia_ZhoYL_ wetdog123 eiri-
BeatmapID:2820236
BeatmapSetID:1335792

[Difficulty]
HPDrainRate:5
CircleSize:4
OverallDifficulty:8
ApproachRate:9
SliderMultiplier:1.70000000596046
SliderTickRate:1

[Events]
//Background and Video events
0,0,"furry.jpg",0,0
Video,-200,"OP.mp4"
//Break Periods
//Storyboard Layer 0 (Background)
//Storyboard Layer 1 (Fail)
//Storyboard Layer 2 (Pass)
//Storyboard Layer 3 (Foreground)
//Storyboard Layer 4 (Overlay)
//Storyboard Sound Samples

[TimingPoints]
-3395,352.941176470588,4,2,1,40,1,0
1546,-133.333333333333,4,2,1,40,0,0
1987,-133.333333333333,4,2,1,5,0,0
2075,-133.333333333333,4,2,1,40,0,0
2252,-117.647058823529,4,2,1,60,0,0
13237,-117.647058823529,4,2,1,60,0,0
13546,-105.263157894737,4,2,1,70,0,0
24134,-95.2380952380954,4,2,1,70,0,0
24840,-95.2380952380954,4,2,1,60,0,0
25546,-105.263157894737,4,2,1,60,0,0
30487,-95.2380952380954,4,2,1,75,0,0
35781,-117.64705882353,4,2,1,60,0,0
36046,-117.64705882353,4,2,1,5,0,0
36134,-86.9565217391304,4,2,1,80,0,1
36310,-86.9565217391304,4,2,1,80,0,0
47075,-80,4,2,1,80,0,0
47428,-86.9565217391304,4,2,1,80,0,0
55899,-95.2380952380952,4,2,1,80,0,0
75663,-81.3008130081301,4,2,1,80,0,0
84133,-81.3008130081301,4,2,1,70,0,0
86957,-81.3008130081301,4,2,1,90,0,0
87046,-81.3008130081301,4,2,1,90,0,0

[Colours]
Combo1 : 191,96,0
Combo2 : 143,32,255
Combo3 : 191,0,96
Combo4 : 0,80,159

[HitObjects]
44,122,1546,6,2,B|35:107|40:82|40:82|7:99|-9:150|35:211,1,159.375006638467,2|0,0:0|0:0,0:1:0:0:
31,212,2075,1,0,0:0:0:0:
129,139,2252,6,0,P|161:135|198:181,1,72.250001631379,10|0,0:0|0:0,0:0:0:0:
143,237,2604,1,10,0:0:0:0:
139,223,2781,1,2,0:0:0:0:
229,306,2957,6,0,P|222:345|205:381,1,72.250001631379,10|0,0:0|0:0,0:0:0:0:
102,317,3310,1,10,0:0:0:0:
106,303,3487,1,2,0:0:0:0:
215,229,3663,6,0,B|243:220|266:236|266:236|294:257|349:237,1,108.375002447068,10|0,0:0|0:0,0:0:0:0:
333,239,4016,1,8,0:0:0:0:
362,128,4193,2,0,P|329:130|302:182,1,72.250001631379,2|8,0:0|0:0,0:0:0:0:
422,223,4546,2,0,P|437:186|442:147,1,72.250001631379,2|8,0:0|0:0,0:0:0:0:
354,51,4899,6,0,B|316:40|285:65|285:65|252:93|194:71,1,144.500003262758,2|2,0:0|0:0,0:0:0:0:
116,35,5428,1,8,0:0:0:0:
108,19,5604,1,2,0:0:0:0:
160,131,5781,6,0,P|157:170|145:208,1,72.250001631379,10|2,0:0|0:0,0:0:0:0:
15,161,6134,2,0,P|41:138|93:156,1,72.250001631379,10|2,0:0|0:0,0:0:0:0:
125,308,6487,5,10,0:0:0:0:
64,218,6663,2,0,B|73:246|57:269|57:269|36:297|56:352,1,108.375002447068,2|0,0:0|0:0,0:0:0:0:
54,341,7016,1,2,0:0:0:0:
159,380,7193,6,0,P|194:383|220:359,1,72.250001631379,10|2,0:0|0:0,0:0:0:0:
214,262,7546,1,10,0:0:0:0:
191,271,7722,1,2,0:0:0:0:
302,237,7899,6,0,P|303:199|284:144,1,72.250001631379,10|0,0:0|0:0,0:0:0:0:
208,73,8252,1,10,0:0:0:0:
202,93,8428,1,2,0:0:0:0:
154,156,8604,6,0,P|179:179|214:176,1,72.250001631379,10|2,0:0|0:0,0:0:0:0:
292,86,8957,2,0,P|318:62|353:66,1,72.250001631379,10|2,0:0|0:0,0:0:0:0:
440,162,9310,6,0,P|404:157|372:140,1,72.250001631379,10|0,0:0|0:0,0:0:0:0:
429,82,9663,1,10,0:0:0:0:
512,150,9840,2,0,B|521:178|505:201|505:201|484:229|504:284,1,108.375002447068,2|0,0:0|0:0,0:0:0:0:
500,280,10193,2,0,B|451:259|451:259|416:250|383:264|368:298,1,144.500003262758,2|2,0:0|0:0,0:0:0:0:
345,361,10722,6,0,P|393:365|426:333,1,72.250001631379,8|2,0:0|0:0,0:0:0:0:
381,265,11075,1,10,0:0:0:0:
372,289,11252,2,0,P|355:224|366:129,1,144.500003262758,0|2,0:0|0:0,0:0:0:0:
336,72,11781,2,0,P|384:68|417:100,1,72.250001631379,10|2,0:0|0:0,0:0:0:0:
276,166,12134,5,10,0:0:0:0:
258,161,12487,5,10,0:0:0:0:
241,156,12840,5,8,0:0:0:0:
222,150,13193,6,0,L|189:158,1,18.0625004078447,2|0,0:3|0:0,0:0:0:0:
42,22,13546,6,0,L|113:39,1,40.3749990634321,10|0,0:0|0:0,0:0:0:0:
98,36,13722,1,0,0:0:0:0:
79,192,13899,6,0,P|61:160|72:91,1,80.7499981268643,2|2,1:2|0:0,0:0:0:0:
207,147,14252,1,10,0:0:0:0:
171,254,14428,1,2,0:0:0:0:
160,258,14516,1,0,0:0:0:0:
151,262,14604,2,0,B|131:259|116:270|116:270|95:286|56:275,1,80.7499981268643,2|2,1:2|0:0,0:0:0:0:
198,343,14957,6,0,B|224:384|271:367|276:330|276:330|276:242,1,161.499996253729,10|0,0:0|1:0,0:0:0:0:
340,177,15487,2,0,P|299:169|273:215,1,80.7499981268643,2|8,0:0|0:0,0:0:0:0:
421,257,15840,2,0,P|426:235|428:189,1,40.3749990634321,2|0,0:0|0:0,0:0:0:0:
469,154,16016,2,0,P|472:113|449:52,1,80.7499981268643,0|2,1:0|0:0,0:0:0:0:
299,12,16369,6,0,B|288:13|274:4|274:4|277:28|302:49|348:38,1,80.7499981268643,8|2,0:0|0:0,0:0:0:0:
386,1,16722,1,0,1:0:0:0:
203,41,16899,1,2,0:0:0:0:
303,113,17075,2,0,P|301:154|279:203,1,80.7499981268643,10|2,0:0|0:0,0:0:0:0:
271,200,17340,1,0,0:0:0:0:
251,201,17428,1,2,1:2:0:0:
148,144,17604,2,0,P|167:130|199:134,1,40.3749990634321,2|0,0:0|0:0,0:0:0:0:
199,138,17781,5,10,0:0:0:0:
157,281,17957,2,0,B|132:292|100:271|100:271|70:253|23:273,1,121.124997190296,2|0,0:0|0:0,0:0:0:0:
16,269,18310,2,0,B|-9:256|-9:256|31:222|100:247,1,121.124997190296,2|0,0:0|0:0,0:0:0:0:
86,255,18663,1,2,0:0:0:0:
208,353,18840,2,0,P|177:378|131:360,1,80.7499981268643,2|2,1:2|0:0,0:0:0:0:
311,278,19193,6,0,P|306:325|292:374,1,80.7499981268643,10|0,0:0|0:0,0:0:0:0:
220,233,19546,1,2,1:2:0:0:
377,193,19722,1,0,0:0:0:0:
230,135,19899,2,0,P|204:127|176:132,1,40.3749990634321,10|0,0:0|0:0,0:0:0:0:
121,90,20075,2,0,P|65:103|34:128,1,80.7499981268643,2|2,0:0|1:2,0:0:0:0:
214,54,20428,6,0,P|213:22|169:0,1,80.7499981268643,2|8,0:0|0:0,0:0:0:0:
125,167,20781,1,2,0:0:0:0:
130,179,20869,1,0,0:0:0:0:
136,191,20957,1,2,1:2:0:0:
296,109,21134,2,0,B|323:86|323:86|326:59|295:31,1,80.7499981268643,2|8,0:0|0:0,0:0:0:0:
260,207,21487,2,0,B|298:227|336:203|336:203|379:176|418:197,1,161.499996253729,2|2,0:0|0:0,0:0:0:0:
501,264,22016,6,0,P|496:305|472:366,1,80.7499981268643,8|2,0:0|0:0,0:0:0:0:
375,384,22369,1,2,1:2:0:0:
328,261,22546,1,0,0:0:0:0:
422,303,22722,2,0,P|400:315|360:306,1,40.3749990634321,10|0,0:0|0:0,0:0:0:0:
322,248,22899,1,2,0:0:0:0:
320,230,22987,1,0,0:0:0:0:
327,215,23075,1,0,1:0:0:0:
446,179,23252,1,2,0:0:0:0:
298,335,23428,6,0,B|276:343|276:343|217:314|235:229,1,121.124997190296,10|0,0:0|0:0,0:0:0:0:
232,242,23781,2,0,P|238:195|250:151,1,80.7499981268643,2|0,1:2|0:0,0:0:0:0:
362,50,24134,2,0,B|375:75|375:75|353:101|302:102|283:63,1,133.874996383846,10|0,0:0|0:0,0:0:0:0:
271,51,24487,2,0,P|236:28|185:37,1,89.2499975892304,2|0,1:2|0:0,0:0:0:0:
101,166,24840,5,10,0:1:0:0:
101,180,25193,5,2,1:2:0:0:
227,145,25369,1,10,1:1:0:0:
86,81,25546,6,0,P|36:92|29:136,1,80.7499981268643,2|10,0:0|0:1,0:0:0:0:
101,200,25899,1,0,1:2:0:0:
168,71,26075,1,10,0:1:0:0:
206,244,26252,1,2,0:0:0:0:
211,258,26604,5,2,1:2:0:0:
65,297,26781,1,2,1:2:0:0:
51,300,27134,5,10,0:1:0:0:
199,361,27310,2,0,P|240:355|294:327,1,80.7499981268643,2|2,1:2|0:0,0:0:0:0:
330,183,27663,5,10,0:1:0:0:
330,163,28016,5,2,1:2:0:0:
204,128,28192,1,10,1:1:0:0:
362,74,28369,6,0,P|412:85|419:129,1,80.7499981268643,2|10,0:0|0:1,0:0:0:0:
331,202,28722,1,0,1:2:0:0:
274,53,28898,1,10,0:1:0:0:
272,40,29428,5,2,1:2:0:0:
419,105,29604,1,2,1:2:0:0:
258,148,29781,2,0,P|247:183|248:239,1,80.7499981268643,10|2,0:1|0:0,0:0:0:0:
387,301,30134,2,0,B|402:285|402:285|381:248|336:262,1,80.7499981268643,10|2,0:1|0:0,0:0:0:0:
327,270,30399,1,0,0:0:0:0:
311,289,30487,6,0,P|306:325|322:388,1,89.2499975892304,14|0,0:0|0:0,0:0:0:0:
360,176,30840,1,2,1:2:0:0:
215,236,31016,2,0,P|203:255|201:293,1,44.6249987946152,2|0,1:2|0:0,0:0:0:0:
225,345,31193,1,10,0:0:0:0:
241,161,31369,2,0,B|205:143|173:168|173:168|146:188|93:172,1,133.874996383846,2|0,0:0|0:0,0:0:0:0:
100,169,31722,1,2,0:0:0:0:
115,11,31899,6,0,P|157:31|176:84,1,89.2499975892304,8|2,0:0|0:0,0:0:0:0:
98,256,32252,1,2,1:2:0:0:
0,149,32428,2,0,B|-35:115|-9:72|27:74|27:74|121:92,1,178.499995178461,2|2,1:2|0:0,0:0:0:0:
253,124,32957,2,0,P|300:117|333:81,1,89.2499975892304,2|2,1:2|0:0,0:0:0:0:
194,0,33310,6,0,P|185:43|178:108,1,89.2499975892304,10|0,0:0|0:0,0:0:0:0:
263,205,33663,2,0,P|272:248|279:313,1,89.2499975892304,2|0,1:2|1:0,0:0:0:0:
171,376,34016,1,10,0:0:0:0:
103,265,34193,2,0,P|127:233|191:250,1,89.2499975892304,2|0,0:0|1:0,0:0:0:0:
262,378,34546,1,2,0:0:0:0:
338,160,34722,5,8,0:0:0:0:
374,161,35075,5,10,0:0:0:0:
404,181,35428,5,10,0:0:0:0:
427,213,35781,6,0,P|446:256|419:322,1,108.375002447068,2|0,0:1|0:0,0:0:0:0:
369,364,36134,5,14,0:0:0:0:
248,229,36310,2,0,P|248:182|270:104,1,97.7500022071598,2|0,0:0|1:0,0:0:0:0:
341,281,36663,5,2,0:0:0:0:
217,375,36840,2,0,P|156:373|136:325,1,97.7500022071598,10|0,0:0|0:0,0:0:0:0:
128,137,37193,5,2,1:2:0:0:
200,305,37369,2,0,B|183:271|213:234|213:234|235:207|224:166,1,146.62500331074,2|0,0:0|0:0,0:0:0:0:
203,92,37722,5,2,0:0:0:0:
26,167,37899,1,2,1:2:0:0:
111,269,38075,1,2,0:0:0:0:
190,80,38252,2,0,P|144:57|96:63,1,97.7500022071598,10|0,0:0|0:0,0:0:0:0:
274,264,38604,2,0,B|295:289|295:289|336:292|374:267|373:226,1,146.62500331074,2|0,1:2|0:0,0:0:0:0:
338,157,38957,5,10,0:0:0:0:
206,209,39134,2,0,P|193:272|204:317,1,97.7500022071598,2|0,0:0|1:0,0:0:0:0:
354,370,39487,5,2,0:0:0:0:
446,257,39663,2,0,P|412:217|359:242,1,97.7500022071598,10|0,0:0|0:0,0:0:0:0:
447,354,40016,5,2,1:2:0:0:
512,196,40193,2,0,P|503:137|478:50,1,146.62500331074,2|0,0:0|0:0,0:0:0:0:
418,5,40546,5,2,0:0:0:0:
374,166,40722,1,2,1:2:0:0:
512,111,40899,1,2,0:0:0:0:
406,0,41075,2,0,P|355:0|305:28,1,97.7500022071598,10|2,0:0|0:0,0:0:0:0:
294,163,41428,2,0,B|308:178|308:178|341:151|316:99,1,97.7500022071598,2|2,1:2|0:0,0:0:0:0:
173,64,41781,6,0,P|155:153|150:222,1,146.62500331074,10|0,0:0|0:0,0:0:0:0:
150,228,42134,2,0,P|179:266|237:229,1,97.7500022071598,2|0,1:2|0:0,0:0:0:0:
136,135,42399,1,0,0:0:0:0:
121,126,42487,2,0,B|91:121|69:138|69:138|50:155|14:152,1,97.7500022071598,10|0,0:0|0:0,0:0:0:0:
15,329,42840,2,0,B|34:367|34:367|85:333|33:252,1,146.62500331074,2|0,1:2|0:0,0:0:0:0:
38,247,43193,6,0,P|24:193|36:134,1,97.7500022071598,10|0,0:0|0:0,0:0:0:0:
241,21,43546,2,0,P|246:70|233:117,1,97.7500022071598,2|0,1:2|0:0,0:0:0:0:
51,37,43810,1,0,0:0:0:0:
77,20,43899,2,0,B|112:3|145:16|145:16|96:42,1,97.7500022071598,10|0,0:0|0:0,0:0:0:0:
180,195,44252,2,0,B|176:233|148:255|148:255|151:199,1,97.7500022071598,2|0,1:2|0:0,0:0:0:0:
293,76,44604,6,0,B|330:66|362:91|362:91|397:119|456:98,1,146.62500331074,10|0,0:0|0:0,0:0:0:0:
450,103,44957,2,0,P|483:67|460:24,1,97.7500022071598,2|2,1:2|0:0,0:0:0:0:
316,150,45222,1,0,0:0:0:0:
308,171,45310,2,0,P|313:220|328:271,1,97.7500022071598,10|0,0:0|0:0,0:0:0:0:
409,384,45663,1,2,1:2:0:0:
457,229,45840,1,2,0:0:0:0:
313,363,46016,6,0,P|250:368|222:332,1,97.7500022071598,8|2,0:0|0:0,0:0:0:0:
166,138,46369,1,2,1:2:0:0:
285,292,46546,2,0,P|298:244|303:191,1,97.7500022071598,2|10,0:0|0:0,0:0:0:0:
226,37,46899,1,2,1:2:0:0:
79,213,47075,2,0,B|66:228|66:228|110:247|153:205,1,106.250000372529,2|2,1:2|1:2,0:0:0:0:
165,180,47340,1,2,1:2:0:0:
166,138,47428,6,0,B|157:94|157:94|143:9|36:46|84:120,1,195.50000441432,14|0,0:0|1:0,0:0:0:0:
140,277,47957,1,2,0:0:0:0:
261,161,48134,1,10,0:0:0:0:
79,213,48310,2,0,P|44:252|80:315,1,97.7500022071598,2|0,0:0|1:0,0:0:0:0:
206,361,48663,1,2,0:0:0:0:
266,148,48840,5,10,0:0:0:0:
130,283,49016,1,2,0:0:0:0:
368,224,49193,1,2,1:2:0:0:
193,106,49369,2,0,B|173:97|173:97|150:139|200:208,1,97.7500022071598,2|8,0:0|0:0,0:0:0:0:
292,326,49722,1,2,0:0:0:0:
352,144,49899,1,2,1:2:0:0:
208,274,50075,6,0,P|205:341|225:389,1,97.7500022071598,2|8,0:0|0:0,0:0:0:0:
423,273,50428,1,2,0:0:0:0:
244,203,50604,1,2,1:2:0:0:
359,130,50781,2,0,P|412:128|438:177,1,97.7500022071598,2|8,0:0|0:0,0:0:0:0:
300,265,51134,1,2,0:0:0:0:
256,51,51310,1,2,1:2:0:0:
372,211,51487,1,2,0:0:0:0:
427,0,51663,6,0,B|396:-10|396:-10|354:-6|340:34,1,97.7500022071598,8|2,0:0|0:0,0:0:0:0:
133,133,52016,2,0,B|171:119|207:140|207:140|236:156|288:136,1,146.62500331074,2|0,1:2|0:0,0:0:0:0:
293,126,52369,2,0,P|296:81|253:49,1,97.7500022071598,10|2,0:0|0:0,0:0:0:0:
160,210,52722,1,2,1:2:0:0:
376,132,52899,1,2,0:0:0:0:
147,50,53075,6,0,P|79:59|55:143,1,146.62500331074,10|0,0:0|0:0,0:0:0:0:
53,147,53428,2,0,P|60:199|79:271,1,97.7500022071598,2|0,1:2|0:0,0:0:0:0:
191,346,53781,1,10,0:0:0:0:
161,178,53957,1,0,0:0:0:0:
25,311,54134,2,0,B|50:325|50:325|85:337|143:294,1,97.7500022071598,2|0,1:2|0:0,0:0:0:0:
320,213,54487,6,0,B|336:175|280:133|201:176|255:288,2,195.50000441432,10|2|10,0:0|1:2|0:0,0:0:0:0:
247,269,55369,1,0,0:0:0:0:
213,113,55546,2,0,P|267:86|324:101,1,97.7500022071598,2|0,1:2|0:0,0:0:0:0:
442,180,55899,6,0,B|397:205|357:177|357:177|317:145|255:179,1,178.499995178461,14|0,0:0|1:0,0:0:0:0:
393,271,56428,1,0,0:0:0:0:
400,112,56604,2,0,B|423:59|395:6|395:6|374:47|410:25|387:100,1,178.499995178461,10|2,0:0|1:2,0:0:0:0:
266,277,57310,6,0,P|269:338|289:383,1,89.2499975892304,10|0,0:0|0:0,0:0:0:0:
300,188,57663,2,0,B|262:172|233:190|233:190|204:213|148:188,1,133.874996383846,2|0,1:2|0:0,0:0:0:0:
152,190,58016,2,0,P|116:164|98:116,1,89.2499975892304,10|0,0:0|0:0,0:0:0:0:
195,21,58369,2,0,P|185:74|175:131,1,89.2499975892304,2|0,1:2|0:0,0:0:0:0:
72,229,58722,6,0,P|82:282|92:339,1,89.2499975892304,10|0,0:0|0:0,0:0:0:0:
244,340,59075,2,0,B|281:315|281:315|249:269|170:293,1,133.874996383846,2|0,1:2|0:0,0:0:0:0:
179,288,59428,2,0,P|167:330|162:382,1,89.2499975892304,10|0,0:0|0:0,0:0:0:0:
319,239,59781,2,0,P|314:194|302:151,1,89.2499975892304,2|0,1:2|0:0,0:0:0:0:
196,47,60134,6,0,P|154:64|162:127,1,89.2499975892304,10|0,0:0|0:0,0:0:0:0:
242,197,60487,2,0,B|280:181|309:199|309:199|338:222|394:197,1,133.874996383846,2|0,1:2|0:0,0:0:0:0:
389,199,60840,2,0,P|438:204|475:246,1,89.2499975892304,10|0,0:0|0:0,0:0:0:0:
413,372,61193,2,0,P|401:329|408:259,1,89.2499975892304,2|0,1:2|0:0,0:0:0:0:
485,138,61546,6,0,P|497:95|490:25,1,89.2499975892304,10|0,0:0|0:0,0:0:0:0:
310,0,61899,2,0,P|320:69|339:151,1,133.874996383846,2|0,1:2|0:0,0:0:0:0:
343,155,62252,2,0,P|382:181|430:164,1,89.2499975892304,10|0,0:0|0:0,0:0:0:0:
243,82,62604,2,0,P|200:73|165:98,1,89.2499975892304,2|0,1:2|0:0,0:0:0:0:
211,324,62957,6,0,B|186:279|214:239|214:239|246:199|212:137,1,178.499995178461,10|2,0:0|1:2,0:0:0:0:
165,9,63487,1,2,0:0:0:0:
104,156,63663,2,0,B|87:219|118:260|118:260|118:218|153:191,1,178.499995178461,10|2,0:0|1:2,0:0:0:0:
304,8,64369,6,0,P|357:10|411:56,1,89.2499975892304,10|0,0:0|0:0,0:0:0:0:
294,138,64722,2,0,B|277:136|259:147|259:147|283:92|357:109,1,133.874996383846,2|0,1:2|0:0,0:0:0:0:
356,116,65075,2,0,P|373:166|367:216,1,89.2499975892304,10|0,0:0|0:0,0:0:0:0:
312,315,65428,2,0,P|267:320|234:281,1,89.2499975892304,2|0,1:2|0:0,0:0:0:0:
202,191,65781,6,0,B|247:166|287:194|287:194|327:226|389:192,1,178.499995178461,10|0,0:0|1:0,0:0:0:0:
391,39,66310,2,0,P|355:64|338:105,1,89.2499975892304,2|8,0:0|0:0,0:0:0:0:
399,270,66663,1,2,0:0:0:0:
502,107,66840,2,0,P|458:100|417:118,1,89.2499975892304,2|2,1:2|0:0,0:0:0:0:
321,222,67193,5,14,0:0:0:0:
481,283,67369,2,0,P|486:236|473:180,1,89.2499975892304,2|0,0:0|1:0,0:0:0:0:
338,104,67722,1,2,0:0:0:0:
399,270,67899,1,10,0:0:0:0:
399,40,68075,2,0,P|354:13|296:36,1,89.2499975892304,2|0,0:0|1:0,0:0:0:0:
243,200,68428,1,2,0:0:0:0:
345,91,68604,5,10,0:0:0:0:
168,124,68781,1,2,0:0:0:0:
327,188,68957,1,2,1:2:0:0:
173,35,69134,2,0,P|129:31|97:63,1,89.2499975892304,2|8,0:0|0:0,0:0:0:0:
207,270,69487,1,2,0:0:0:0:
247,86,69663,1,2,1:2:0:0:
107,214,69840,6,0,P|106:261|131:325,1,89.2499975892304,2|8,0:0|0:0,0:0:0:0:
212,370,70193,1,2,0:0:0:0:
249,175,70369,1,2,1:2:0:0:
117,301,70546,2,0,P|168:291|220:282,1,89.2499975892304,2|8,0:0|0:0,0:0:0:0:
386,317,70899,1,2,0:0:0:0:
238,183,71075,1,2,1:2:0:0:
288,374,71252,1,2,0:0:0:0:
374,186,71428,6,0,P|421:182|459:221,1,89.2499975892304,8|2,0:0|0:0,0:0:0:0:
276,251,71781,2,0,P|270:176|284:90,1,133.874996383846,2|0,1:2|0:0,0:0:0:0:
289,99,72134,2,0,P|319:80|383:84,1,89.2499975892304,8|2,0:0|0:0,0:0:0:0:
196,180,72487,2,0,P|151:181|113:160,1,89.2499975892304,2|2,1:2|0:0,0:0:0:0:
219,3,72840,6,0,P|212:48|204:109,1,89.2499975892304,10|0,0:0|0:0,0:0:0:0:
301,223,73193,2,0,P|308:268|316:329,1,89.2499975892304,2|0,1:2|0:0,0:0:0:0:
166,365,73546,1,10,0:0:0:0:
196,180,73722,1,0,0:0:0:0:
317,329,73899,2,0,P|354:336|407:281,1,89.2499975892304,2|0,1:2|0:0,0:0:0:0:
434,117,74252,6,0,B|389:87|347:121|347:121|310:155|239:125,2,178.499995178461,10|2|10,0:0|1:2|0:0,0:0:0:0:
393,186,75134,1,0,0:0:0:0:
364,30,75310,1,2,0:0:0:0:
364,30,75663,6,0,B|318:24|318:24|306:27|306:27|254:21,1,104.550001961875,14|0,0:1|0:0,0:0:0:0:
238,32,75928,2,0,B|192:26|192:26|180:29|180:29|128:23,1,104.550001961875,2|0,0:1|0:0,0:0:0:0:
112,32,76193,1,2,0:1:0:0:
32,97,76369,2,0,P|28:145|81:166,1,104.550001961875,10|0,0:1|0:0,0:0:0:0:
222,155,76722,2,0,P|197:113|141:127,1,104.550001961875,2|2,1:1|0:1,0:0:0:0:
26,250,77075,6,0,B|71:244|71:244|83:247|83:247|136:241,1,104.550001961875,14|0,0:1|0:0,0:0:0:0:
152,252,77340,2,0,B|197:246|197:246|209:249|209:249|262:243,1,104.550001961875,2|0,0:1|0:0,0:0:0:0:
278,252,77605,1,2,0:1:0:0:
162,363,77781,2,0,P|122:370|92:310,1,104.550001961875,10|2,0:1|0:1,0:0:0:0:
125,173,78134,2,0,P|159:194|141:259,1,104.550001961875,2|2,1:1|0:1,0:0:0:0:
71,115,78487,6,0,B|89:101|103:91|103:91|182:111,1,104.550001961875,14|0,0:1|0:0,0:0:0:0:
193,117,78752,2,0,B|214:123|231:127|231:127|296:106,1,104.550001961875,2|0,0:1|0:0,0:0:0:0:
318,99,79016,1,2,0:1:0:0:
462,18,79193,2,0,P|397:38|409:99,1,104.550001961875,10|0,0:1|0:0,0:0:0:0:
429,195,79546,2,0,P|479:149|442:99,1,104.550001961875,2|2,1:1|0:1,0:0:0:0:
318,99,79899,6,0,B|304:117|294:131|294:131|314:210,1,104.550001961875,14|0,0:1|0:0,0:0:0:0:
331,215,80164,2,0,B|345:255|345:255|323:322,1,104.550001961875,2|0,0:1|0:0,0:0:0:0:
309,342,80428,1,2,0:1:0:0:
147,220,80604,6,0,P|191:179|242:205,1,104.550001961875,10|2,0:1|0:1,0:0:0:0:
98,316,80957,1,2,1:1:0:0:
49,162,81134,1,2,0:1:0:0:
214,268,81310,6,0,B|207:315|207:315|201:321|201:321|193:374,1,104.550001961875,14|0,0:1|0:0,0:0:0:0:
222,283,81575,2,0,B|215:330|215:330|209:336|209:336|201:384,1,104.550001961875,2|0,0:1|0:0,0:0:0:0:
207,257,81840,1,2,0:1:0:0:
309,342,82016,2,0,P|367:342|375:280,1,104.550001961875,10|0,0:1|0:0,0:0:0:0:
323,140,82369,2,0,P|276:174|306:228,1,104.550001961875,2|2,1:1|0:1,0:0:0:0:
442,207,82722,6,0,B|435:160|435:160|429:154|429:154|421:101,1,104.550001961875,14|0,0:1|0:0,0:0:0:0:
450,192,82987,2,0,B|443:145|443:145|437:139|437:139|429:90,1,104.550001961875,2|0,0:1|0:0,0:0:0:0:
436,217,83252,1,2,0:1:0:0:
271,44,83428,2,0,P|318:28|351:65,1,104.550001961875,10|2,0:1|0:1,0:0:0:0:
374,258,83781,1,2,1:1:0:0:
154,196,83957,1,2,0:1:0:0:
294,122,84134,5,14,0:1:0:0:
294,122,84399,5,2,0:1:0:0:
224,343,84663,5,2,0:1:0:0:
211,265,84840,1,2,0:1:0:0:
289,253,85016,1,2,0:1:0:0:
301,330,85193,1,2,0:1:0:0:
256,297,85369,1,2,0:1:0:0:
398,273,85546,5,10,0:1:0:0:
398,273,85811,5,2,0:1:0:0:
233,330,86075,5,2,0:1:0:0:
223,274,86252,1,2,0:1:0:0:
279,265,86428,1,2,0:1:0:0:
288,320,86605,1,2,0:1:0:0:
256,297,86781,1,2,0:1:0:0:
398,273,86957,6,0,L|388:341,1,52.2750009809374,14|0,0:1|0:0,0:0:0:0:
