osu file format v14

[General]
AudioFilename: audio.mp3
AudioLeadIn: 0
PreviewTime:35737
Countdown: 0
SampleSet: Soft
StackLeniency: 0.3
Mode: 0
LetterboxInBreaks: 0
WidescreenStoryboard: 1

[Editor]
Bookmarks: 24839,55898,66662,75662,84133
DistanceSpacing: 1.4
BeatDivisor: 4
GridSize: 4
TimelineZoom: 2.5

[Metadata]
Title:Kaibutsu (TV Size)
TitleUnicode:怪物 (TV Size)
Artist:YOASOBI
ArtistUnicode:YOASOBI
Creator:Ryuusei Aika
Version:Hatsune Miku's Extra
Source:BEASTARS
Tags:ビースターズ japanese furry anime op2 pop j-pop jpop opening theme 幾田りら Ikuta Rira Lilas Ayase Monster MoeAsuka Atrue SuperBox Fall Marle Calvaria Mariko Sakuragi Reiji Maigo SB hhjkl [Hatsune Miku] [Hatsune_Miku] Hatsune Miku Remapper _lai Kyrian 09kami Ducky- Acyl Acylica Bellicose wafer iWaifu KAMI NO KOTOBA Addy2607 KaedeharaKazuha Airincat Chompy Yooh Reywateil Amateurre Sparhten Ajisai- HabiHolic newton- Yuuma Ogura Yui fedora- UberFazz xidorn Pata-Mon PataMon Deca Wanpachi cycopton Gibune wiken Fuju Stratos Crystal OneShotFox Elcheer Fieryrage hypercyte hypercute Kittyadventure gokugohan12468 Kyouren Zelq ponbot Yuuma3 Mimari i love ganyu Flake yaspo Regraz Mafumafu bongo Moete Senseabel Senseable Kuse KuBsNia_ZhoYL_ wetdog123 eiri-
BeatmapID:2820231
BeatmapSetID:1335792

[Difficulty]
HPDrainRate:5.7
CircleSize:4.5
OverallDifficulty:9
ApproachRate:9.4
SliderMultiplier:1.80000000596046
SliderTickRate:1

[Events]
//Background and Video events
0,0,"furry.jpg",0,0
Video,-200,"OP.mp4"
//Break Periods
//Storyboard Layer 0 (Background)
//Storyboard Layer 1 (Fail)
//Storyboard Layer 2 (Pass)
//Storyboard Layer 3 (Foreground)
//Storyboard Layer 4 (Overlay)
//Storyboard Sound Samples

[TimingPoints]
-3395,352.941176470588,4,2,0,5,1,0
2252,-100,4,2,1,60,0,0
11604,-133.333333333333,4,2,1,60,0,0
13193,-66.6666666666667,4,2,1,60,0,0
13899,-80,4,2,1,70,0,0
15487,-100,4,2,1,70,0,0
16016,-80,4,2,1,70,0,0
18310,-100,4,2,1,70,0,0
19193,-80,4,2,1,70,0,0
21840,-100,4,2,1,70,0,0
22369,-80,4,2,1,70,0,0
24840,-80,4,2,1,60,0,0
26075,-100,4,2,1,60,0,0
28193,-80,4,2,1,60,0,0
30134,-53.475935828877,4,2,1,60,0,0
30487,-80,4,2,1,75,0,0
34546,-100,4,2,1,75,0,0
35781,-200,4,2,1,60,0,0
36134,-66.6666666666667,4,2,1,80,0,0
38604,-80,4,2,1,80,0,0
38957,-66.6666666666667,4,2,1,80,0,0
41781,-133.333333333333,4,2,1,80,0,0
42134,-66.6666666666667,4,2,1,80,0,0
43546,-100,4,2,1,80,0,0
43899,-66.6666666666667,4,2,1,80,0,0
44604,-100,4,2,1,80,0,0
45840,-66.6666666666667,4,2,1,80,0,0
47075,-100,4,2,1,80,0,0
47428,-66.6666666666667,4,2,1,80,0,0
49369,-100,4,2,1,80,0,0
51840,-66.6666666666667,4,2,1,80,0,0
53075,-100,4,2,1,80,0,0
54487,-133.333333333333,4,2,1,80,0,0
55899,-80,4,2,1,80,0,0
56252,-100,4,2,1,80,0,0
67193,-100,4,2,1,80,0,0
75663,-50,4,2,1,80,0,0
75927,-66.6666666666667,4,2,1,80,0,0
84133,-133.333333333333,4,2,1,70,0,0
86957,-100,4,2,1,90,0,0

[Colours]
Combo1 : 191,96,0
Combo2 : 143,32,255
Combo3 : 191,0,96
Combo4 : 0,80,159

[HitObjects]
94,126,2252,6,0,B|67:164|67:164|75:206,1,90.000000298023,10|0,0:0|0:0,0:0:0:0:
188,236,2604,2,0,B|214:197|214:197|206:155,1,90.000000298023,10|2,0:0|0:0,0:0:0:0:
173,42,2957,1,10,0:0:0:0:
376,87,3134,2,0,L|273:66,2,90.000000298023,0|10|2,0:0|0:0|0:0,0:0:0:0:
457,0,3663,5,10,0:0:0:0:
376,87,3840,2,0,L|368:196,1,90.000000298023,0|8,0:0|0:0,0:0:0:0:
456,359,4193,2,0,B|499:338|472:277|472:277|404:295,1,135.000000447034,2|0,0:0|0:0,0:0:0:0:
382,345,4546,2,0,L|267:354,1,90.000000298023,2|8,0:0|0:0,0:0:0:0:
184,360,4899,1,2,0:0:0:0:
3,384,5075,5,8,0:0:0:0:
184,360,5252,1,2,0:0:0:0:
115,307,5428,2,0,B|59:291|59:291|21:311,1,90.000000298023,8|2,0:0|0:0,0:0:0:0:
199,222,5781,2,0,B|255:238|255:238|293:218,1,90.000000298023,10|2,0:0|0:0,0:0:0:0:
68,157,6134,1,10,0:0:0:0:
115,307,6310,1,2,0:0:0:0:
247,154,6487,6,0,B|261:113|219:112|219:112|230:135|227:174,1,90.000000298023,10|2,0:0|0:0,0:0:0:0:
199,222,6840,1,8,0:0:0:0:
199,222,7016,2,0,P|294:224|352:189,1,135.000000447034,2|0,0:0|0:0,0:0:0:0:
371,149,7369,1,2,0:0:0:0:
334,288,7546,1,10,0:0:0:0:
371,149,7722,1,2,0:0:0:0:
494,76,7899,6,0,B|453:93|453:93|394:73,1,90.000000298023,10|0,0:0|0:0,0:0:0:0:
277,16,8252,2,0,B|318:-1|318:-1|361:13,1,90.000000298023,10|2,0:0|0:0,0:0:0:0:
371,149,8604,1,10,0:0:0:0:
220,70,8781,1,2,0:0:0:0:
331,83,8957,1,10,0:0:0:0:
168,133,9134,1,2,0:0:0:0:
218,296,9310,5,10,0:0:0:0:
381,246,9487,1,0,0:0:0:0:
259,192,9663,1,10,0:0:0:0:
259,192,9840,2,0,P|288:192|257:184,1,90.000000298023,2|8,0:0|0:0,0:0:0:0:
125,222,10193,2,0,P|93:256|101:304,1,90.000000298023,2|8,0:0|0:0,0:0:0:0:
105,323,10546,6,0,B|96:296|96:296|125:222|125:222|119:179,1,135.000000447034,2|0,0:0|0:0,0:0:0:0:
95,127,10899,1,2,0:0:0:0:
95,127,11075,2,0,P|76:69|89:41,2,90.000000298023,10|0|8,0:0|0:0|0:0,0:0:0:0:
185,46,11604,2,0,P|199:89|189:109,2,67.500002798438,2|10|2,0:0|0:0|0:0,0:0:0:0:
297,22,12133,5,10,0:0:0:0:
296,35,12486,1,10,0:0:0:0:
295,48,12840,1,8,0:0:0:0:
294,61,13193,6,0,B|303:64|303:64|307:58|307:58|315:66|315:66|318:54|318:54|327:68|327:68|328:51|328:51|343:83|409:105|432:13|386:-11|341:18,1,202.500008395314,2|0,0:3|0:0,0:0:0:0:
365,38,13546,6,0,L|376:180,1,135.000000447034,14|0,0:0|0:0,0:0:0:0:
441,241,13899,6,0,P|412:191|344:232,1,112.500000372529,2|2,1:2|0:0,0:0:0:0:
100,331,14251,1,10,0:0:0:0:
100,331,14427,2,0,L|92:269,1,56.2500001862644,2|0,0:0|0:0,0:0:0:0:
173,350,14604,2,0,B|218:311|218:311|199:250,1,112.500000372529,2|2,1:2|0:0,0:0:0:0:
130,41,14957,2,0,L|48:51,1,56.2500001862644,10|0,0:0|0:0,0:0:0:0:
61,124,15134,1,0,0:0:0:0:
218,134,15310,2,0,P|189:119|173:101,1,56.2500001862644,0|0,1:0|0:0,0:0:0:0:
238,58,15487,2,0,L|384:35,1,135.000000447034,2|0,0:0|0:0,0:0:0:0:
442,17,15840,5,2,0:0:0:0:
423,96,16016,2,0,P|394:81|378:63,1,56.2500001862644,0|0,1:0|0:0,0:0:0:0:
500,78,16193,1,2,0:0:0:0:
310,183,16369,1,8,0:0:0:0:
495,295,16546,6,0,L|438:261,1,56.2500001862644,2|0,0:0|0:0,0:0:0:0:
380,226,16722,2,0,B|364:276|364:276|401:337,1,112.500000372529,0|2,1:0|0:0,0:0:0:0:
157,315,17074,1,10,0:0:0:0:
157,315,17251,2,0,L|214:349,1,56.2500001862644,2|0,0:0|0:0,0:0:0:0:
272,384,17427,2,0,B|288:334|288:334|251:273,1,112.500000372529,2|2,1:2|0:0,0:0:0:0:
74,110,17780,5,10,0:0:0:0:
74,110,17957,2,0,B|59:87|59:87|67:59,1,56.2500001862644,2|0,0:0|0:0,0:0:0:0:
135,163,18134,1,0,1:0:0:0:
52,42,18310,2,0,L|219:46,1,135.000000447034,2|0,0:0|0:0,0:0:0:0:
249,82,18663,1,2,0:0:0:0:
372,0,18840,1,2,1:2:0:0:
249,82,19016,1,2,0:0:0:0:
292,306,19192,5,10,0:0:0:0:
415,224,19368,2,0,L|341:206,1,56.2500001862644
446,301,19545,2,0,B|493:267|493:267|488:213,1,112.500000372529,2|0,1:2|0:0,0:0:0:0:
271,194,19898,1,10,0:0:0:0:
271,194,20074,2,0,P|224:185|195:190,1,56.2500001862644,2|0,0:0|0:0,0:0:0:0:
76,153,20251,2,0,P|104:153|130:161,1,56.2500001862644,2|0,1:2|0:0,0:0:0:0:
136,344,20428,6,0,B|156:232|156:232|135:256|135:256|131:280,1,168.750000558793,2|0,0:0|0:0,0:0:0:0:
131,278,20781,2,0,P|177:300|190:297,1,56.2500001862644,2|0,0:0|0:0,0:0:0:0:
259,344,20957,1,2,1:2:0:0:
45,304,21134,1,2,0:0:0:0:
386,278,21487,5,2,0:0:0:0:
473,304,21663,1,2,1:2:0:0:
337,299,21840,2,0,L|354:138,1,135.000000447034,2|0,0:0|0:0,0:0:0:0:
363,93,22192,1,2,0:0:0:0:
363,93,22369,2,0,B|288:67|288:67|242:105,1,112.500000372529,2|0,1:2|0:0,0:0:0:0:
119,10,22722,1,10,0:0:0:0:
119,10,22899,2,0,B|194:36|194:36|240:-2,1,112.500000372529,2|0,0:0|1:0,0:0:0:0:
156,67,23252,5,2,0:0:0:0:
165,187,23428,1,10,0:0:0:0:
353,197,23780,1,2,1:2:0:0:
139,119,24133,1,10,0:0:0:0:
379,265,24486,1,2,1:2:0:0:
256,192,24839,1,10,0:1:0:0:
155,350,25192,5,2,1:2:0:0:
25,238,25369,2,0,P|98:192|98:250,1,168.750000558793,10|0,1:1|0:0,0:0:0:0:
106,234,25722,2,0,P|103:264|111:293,1,56.2500001862644,10|0,0:1|0:0,0:0:0:0:
175,258,25898,1,0,1:2:0:0:
26,149,26075,2,0,P|16:105|34:65,2,90.000000298023,10|2|2,0:1|0:0|0:0,0:0:0:0:
110,36,26604,1,2,1:2:0:0:
184,68,26781,1,2,1:2:0:0:
351,34,27134,5,10,0:1:0:0:
184,68,27310,1,2,1:2:0:0:
296,195,27486,1,2,0:0:0:0:
281,107,27662,1,10,0:1:0:0:
363,350,28016,5,2,1:2:0:0:
493,237,28193,2,0,B|496:218|496:218|491:199|491:199|476:183|476:183|452:177|452:177|433:182|433:182|416:196|416:196|410:216|410:216|412:236,1,168.750000558793,10|0,1:1|0:0,0:0:0:0:
412,236,28545,2,0,B|418:267|418:267|406:295,1,56.2500001862644,10|0,0:1|0:0,0:0:0:0:
343,258,28721,1,0,1:2:0:0:
370,128,28899,1,10,0:1:0:0:
203,160,29074,1,2,0:0:0:0:
257,0,29251,1,2,0:0:0:0:
291,84,29427,2,0,B|283:99|267:101|267:101|280:81|281:57,1,56.2500001862644,2|0,1:2|0:0,0:0:0:0:
257,0,29603,1,2,1:2:0:0:
459,166,29781,6,0,P|413:134|319:191,1,168.750000558793,10|0,0:1|0:0,0:0:0:0:
216,258,30134,6,0,P|266:234|263:123,1,168.299997218833,10|2,0:1|0:0,0:0:0:0:
272,25,30399,1,0,0:0:0:0:
257,0,30487,6,0,P|252:55|349:108,1,168.750000558793,14|0,0:0|0:0,0:0:0:0:
399,68,30840,2,0,L|404:8,1,56.2500001862644,2|0,1:2|0:0,0:0:0:0:
415,23,31016,1,2,1:2:0:0:
324,278,31192,2,0,L|339:87,1,168.750000558793,10|0,0:0|0:0,0:0:0:0:
349,120,31545,2,0,P|401:138|451:115,1,112.500000372529,0|2,1:0|0:0,0:0:0:0:
168,263,31898,6,0,P|116:245|66:268,1,112.500000372529,8|2,0:0|0:0,0:0:0:0:
123,376,32251,2,0,L|118:319,1,56.2500001862644,2|0,1:2|0:0,0:0:0:0:
107,331,32427,1,2,1:2:0:0:
326,230,32604,2,0,B|244:237|270:149|184:155,1,168.750000558793,8|0,0:0|0:0,0:0:0:0:
196,169,32957,2,0,P|258:165|279:124,1,112.500000372529,2|2,1:2|0:0,0:0:0:0:
0,75,33310,6,0,B|82:82|56:-6|142:0,1,168.750000558793,10|0,0:0|0:0,0:0:0:0:
160,74,33663,2,0,P|143:100|115:104,1,56.2500001862644,2|0,1:2|0:0,0:0:0:0:
129,118,33839,1,0,1:0:0:0:
30,304,34015,2,0,B|8:304|16:273|16:273|21:299|62:310,1,56.2500001862644,10|0,0:0|0:0,0:0:0:0:
41,315,34192,2,0,P|85:281|158:318,1,112.500000372529,2|0,0:0|1:0,0:0:0:0:
256,376,34546,2,0,L|320:368,1,45.0000001490115,2|0,0:0|0:0,0:0:0:0:
312,364,34721,5,8,0:0:0:0:
312,364,35074,5,10,0:0:0:0:
312,364,35427,5,10,0:0:0:0:
200,20,35781,6,0,P|195:42|202:21,1,67.5000002235172,2|0,0:1|0:0,0:0:0:0:
196,31,36134,6,0,L|188:109,1,67.500002798438,14|0,0:0|0:0,0:0:0:0:
175,279,36310,1,2,0:0:0:0:
124,331,36399,2,0,P|106:254|153:209,1,135.000005596876,2|2,0:0|0:0,0:0:0:0:
212,216,36663,1,2,0:0:0:0:
480,272,36840,1,10,0:0:0:0:
438,31,37016,6,0,L|429:97,1,67.500002798438
426,118,37193,1,2,1:2:0:0:
480,272,37369,2,0,P|442:285|363:345,1,135.000005596876,2|8,0:0|0:0,0:0:0:0:
305,384,37634,1,0,0:0:0:0:
305,384,37722,2,0,P|279:362|247:349,1,67.500002798438,2|0,0:0|0:0,0:0:0:0:
69,254,37899,5,2,1:2:0:0:
304,281,38075,1,2,0:0:0:0:
0,61,38252,2,0,B|37:93|26:155|26:155|63:102|111:118,1,202.500008395314,10|0,0:0|0:0,0:0:0:0:
119,44,38604,2,0,B|98:26|104:-7|104:-7|83:20|57:11,1,112.500000372529,2|0,1:2|0:0,0:0:0:0:
179,92,38869,5,0,0:0:0:0:
193,103,38957,2,0,P|226:111|262:107,1,67.500002798438,10|0,0:0|0:0,0:0:0:0:
428,82,39134,1,2,0:0:0:0:
462,13,39222,2,0,B|430:13|430:13|378:58|378:58|311:62,1,135.000005596876,2|0,0:0|0:0,0:0:0:0:
326,144,39486,2,0,B|341:166|322:169|322:169|303:174|310:199,1,67.500002798438,2|0,0:0|0:0,0:0:0:0:
305,214,39663,2,0,P|356:258|436:227,1,135.000005596876,10|0,0:0|0:0,0:0:0:0:
490,265,39928,1,0,0:0:0:0:
475,192,40016,1,2,1:2:0:0:
475,192,40193,1,2,0:0:0:0:
37,192,40546,5,2,0:0:0:0:
475,192,40722,1,2,1:2:0:0:
111,192,40899,5,2,0:0:0:0:
400,192,41074,1,10,0:0:0:0:
184,192,41251,5,2,0:0:0:0:
327,192,41427,1,2,1:2:0:0:
256,192,41603,5,2,0:0:0:0:
210,116,41781,6,0,L|304:102,1,67.500002798438,10|0,0:0|0:0,0:0:0:0:
139,53,42134,6,0,B|232:54|176:-13|260:-25|232:54|320:22,1,202.500008395314,2|0,1:2|0:0,0:0:0:0:
336,10,42487,1,10,0:0:0:0:
5,345,42840,6,0,B|119:367|80:289|202:312,1,202.500008395314,2|0,1:2|0:0,0:0:0:0:
507,345,43193,2,0,B|393:367|432:289|310:312,1,202.500008395314,10|0,0:0|0:0,0:0:0:0:
256,264,43546,1,2,1:2:0:0:
444,137,43899,6,0,P|480:206|445:279,1,135.000005596876,10|0,0:0|0:0,0:0:0:0:
46,257,44251,2,0,P|33:193|68:137,1,135.000005596876,2|0,1:2|0:0,0:0:0:0:
125,208,44515,1,0,0:0:0:0:
129,220,44604,1,10,0:0:0:0:
256,264,44781,1,2,0:0:0:0:
383,220,44957,1,2,1:2:0:0:
256,24,45310,1,10,0:0:0:0:
256,120,45575,5,0,0:0:0:0:
256,133,45663,2,0,L|256:188,1,45.0000001490115,2|0,1:2|0:0,0:0:0:0:
200,60,45840,2,0,B|256:24|256:24|314:60,1,135.000000447034,2|8,0:0|0:0,0:0:0:0:
450,1,46193,1,2,0:0:0:0:
386,134,46369,1,2,1:2:0:0:
450,383,46546,2,0,B|449:292|516:258|516:258|485:287|414:287,1,202.500008395314,2|0,0:0|0:0,0:0:0:0:
386,250,46898,5,2,1:2:0:0:
320,260,46986,1,2,1:2:0:0:
271,306,47074,1,2,1:2:0:0:
255,371,47162,1,2,1:2:0:0:
240,306,47251,1,2,1:2:0:0:
191,261,47339,1,2,1:2:0:0:
125,250,47427,1,14,0:0:0:0:
62,383,47604,6,0,B|63:292|-4:258|-4:258|27:287|98:287,1,202.500008395314
67,281,47957,2,0,P|99:271|124:249,1,67.500002798438,2|0,0:0|0:0,0:0:0:0:
146,178,48134,1,10,0:0:0:0:
18,1,48310,2,0,L|10:97,1,67.500002798438,2|0,0:0|0:0,0:0:0:0:
10,89,48487,1,0,1:0:0:0:
160,105,48663,5,2,0:0:0:0:
160,105,48752,1,0,0:0:0:0:
160,105,48840,1,10,0:0:0:0:
294,120,49016,1,2,0:0:0:0:
332,248,49193,1,2,1:2:0:0:
198,233,49369,6,0,P|197:314|246:336,1,135.000005596876,2|0,0:0|0:0,0:0:0:0:
308,319,49722,1,2,0:0:0:0:
368,163,49899,1,2,1:2:0:0:
218,95,50075,6,0,P|147:134|152:188,1,135.000005596876,2|0,0:0|0:0,0:0:0:0:
198,233,50428,1,2,0:0:0:0:
363,207,50605,1,2,1:2:0:0:
348,44,50781,6,0,P|278:2|234:34,1,135.000005596876,2|0,0:0|0:0,0:0:0:0:
218,95,51134,1,2,0:0:0:0:
323,225,51311,1,2,1:2:0:0:
458,132,51487,6,0,P|459:50|409:28,1,135.000005596876,2|0,0:0|0:0,0:0:0:0:
348,44,51840,1,2,0:0:0:0:
287,199,52016,1,2,1:2:0:0:
287,199,52369,5,10,0:0:0:0:
202,344,52546,1,2,0:0:0:0:
126,169,52722,1,2,1:2:0:0:
209,162,52899,1,2,0:0:0:0:
102,247,53075,6,0,P|48:197|31:155,1,90.000000298023,10|0,0:0|0:0,0:0:0:0:
155,6,53428,2,0,P|135:46|130:90,1,90.000000298023,2|0,1:2|0:0,0:0:0:0:
181,320,53781,6,0,P|207:355|244:381,1,90.000000298023,10|0,0:0|0:0,0:0:0:0:
421,265,54134,2,0,P|380:284|336:290,1,90.000000298023,2|0,1:2|0:0,0:0:0:0:
159,121,54487,6,0,P|176:150|203:171,1,67.500002798438,10|0,0:0|0:0,0:0:0:0:
221,69,54840,2,0,P|226:36|242:7,1,67.500002798438,2|0,1:2|0:0,0:0:0:0:
303,262,55193,6,0,P|274:245|254:219,1,67.500002798438,10|0,0:0|0:0,0:0:0:0:
355,199,55546,2,0,P|401:188|424:170,1,67.500002798438,2|0,1:2|0:0,0:0:0:0:
406,28,55809,5,0,0:0:0:0:
396,13,55899,2,0,P|361:57|402:18,1,168.750000558793,10|0,0:0|0:0,0:0:0:0:
381,37,56252,2,0,P|347:75|293:69,1,90.000000298023,0|0,1:0|0:0,0:0:0:0:
426,267,56604,2,0,P|410:218|442:174,1,90.000000298023,10|2,0:0|0:0,0:0:0:0:
205,191,56957,2,0,P|254:201|276:251,1,90.000000298023,2|0,1:2|0:0,0:0:0:0:
195,384,57310,6,0,P|145:373|123:323,1,90.000000298023,10|0,0:0|0:0,0:0:0:0:
33,197,57663,2,0,P|60:163|103:158,1,90.000000298023,2|0,1:2|0:0,0:0:0:0:
275,151,58016,2,0,P|291:191|274:232,1,90.000000298023,10|0,0:0|0:0,0:0:0:0:
162,247,58281,1,0,0:0:0:0:
171,237,58369,2,0,B|163:155|218:193|186:66,1,135.000000447034,2|0,1:2|0:0,0:0:0:0:
182,35,58722,1,10,0:0:0:0:
182,35,59075,6,0,L|91:53,1,90.000000298023,2|0,1:2|0:0,0:0:0:0:
320,79,59428,2,0,L|268:156,1,90.000000298023,10|0,0:0|0:0,0:0:0:0:
448,12,59781,2,0,L|466:103,1,90.000000298023,2|0,1:2|0:0,0:0:0:0:
497,314,60134,1,10,0:0:0:0:
330,349,60487,6,0,L|421:331,1,90.000000298023,2|0,1:2|0:0,0:0:0:0:
192,305,60840,2,0,L|243:227,1,90.000000298023,10|0,0:0|0:0,0:0:0:0:
64,372,61193,2,0,L|46:281,1,90.000000298023,2|0,1:2|0:0,0:0:0:0:
103,216,61457,5,0,0:0:0:0:
109,203,61546,2,0,P|72:181|25:182,1,90.000000298023,10|0,0:0|0:0,0:0:0:0:
192,305,61899,2,0,P|244:299|222:221,1,135.000000447034,2|0,1:2|0:0,0:0:0:0:
227,226,62252,2,0,L|216:290,1,45.0000001490115,10|0,0:0|0:0,0:0:0:0:
262,339,62428,1,0,0:0:0:0:
429,302,62604,2,0,P|493:279|524:292,1,90.000000298023,2|0,1:2|0:0,0:0:0:0:
380,199,62957,2,0,B|289:197|333:106|220:114,2,180.000000596046,10|2|10,0:0|1:2|0:0,0:0:0:0:
406,199,63752,5,0,0:0:0:0:
406,199,63840,1,0,0:0:0:0:
402,30,64016,2,0,P|385:81|378:116,1,90.000000298023,2|0,1:2|0:0,0:0:0:0:
264,284,64369,2,0,P|254:240|239:197,1,90.000000298023,10|0,0:0|0:0,0:0:0:0:
0,178,64722,2,0,P|37:153|78:133,1,90.000000298023,2|0,1:2|0:0,0:0:0:0:
237,79,65075,2,0,P|177:73|161:39,1,90.000000298023,10|0,0:0|0:0,0:0:0:0:
221,2,65428,2,0,L|280:14,1,45.0000001490115,2|0,1:2|0:0,0:0:0:0:
339,76,65604,1,0,0:0:0:0:
497,0,65781,6,0,P|442:23|426:104,1,135.000000447034,10|0,0:0|0:0,0:0:0:0:
339,76,66134,2,0,P|394:99|410:180,1,135.000000447034,0|0,1:0|0:0,0:0:0:0:
404,239,66487,1,8,0:0:0:0:
495,310,66663,6,0,L|440:303,1,45.0000001490115,2|0,0:0|0:0,0:0:0:0:
293,384,66840,2,0,L|271:332,1,45.0000001490115,2|0,1:2|0:0,0:0:0:0:
98,302,67016,2,0,L|131:258,1,45.0000001490115,2|0,0:0|0:0,0:0:0:0:
113,259,67193,1,14,0:0:0:0:
186,384,67369,6,0,P|198:336|190:292,1,90.000000298023,2|0,0:0|1:0,0:0:0:0:
116,87,67722,1,2,0:0:0:0:
174,210,67898,1,10,0:0:0:0:
0,197,68075,2,0,P|48:185|92:193,1,90.000000298023,2|0,0:0|1:0,0:0:0:0:
224,83,68428,5,2,0:0:0:0:
116,87,68604,1,10,0:0:0:0:
366,227,68781,1,2,0:0:0:0:
324,137,68957,1,2,1:2:0:0:
357,43,69134,2,0,L|349:165,1,90.000000298023,2|8,0:0|0:0,0:0:0:0:
466,317,69486,5,2,0:0:0:0:
360,241,69662,1,2,1:2:0:0:
249,379,69839,2,0,L|354:384,1,90.000000298023,2|8,0:0|0:0,0:0:0:0:
360,241,70193,5,2,0:0:0:0:
254,165,70369,1,2,1:2:0:0:
143,303,70546,2,0,L|248:308,1,90.000000298023,2|8,0:0|0:0,0:0:0:0:
254,165,70899,5,2,0:0:0:0:
148,89,71075,1,2,1:2:0:0:
37,227,71252,2,0,L|142:232,1,90.000000298023,2|8,0:0|0:0,0:0:0:0:
41,12,71604,5,2,0:0:0:0:
252,26,71780,2,0,L|162:21,1,90.000000298023,2|0,1:2|0:0,0:0:0:0:
139,160,72134,5,8,0:0:0:0:
228,164,72309,1,2,0:0:0:0:
317,168,72486,1,2,1:2:0:0:
406,172,72663,2,0,L|403:229,1,45.0000001490115,2|0,0:0|0:0,0:0:0:0:
424,297,72840,6,0,P|463:275|483:235,1,90.000000298023,10|0,0:0|0:0,0:0:0:0:
406,172,73104,1,0,0:0:0:0:
397,161,73193,2,0,B|378:113|335:86|335:86|372:93|396:89,1,135.000000447034,2|0,1:2|0:0,0:0:0:0:
442,97,73546,2,0,L|500:101,1,45.0000001490115,10|0,0:0|0:0,0:0:0:0:
505,30,73722,1,0,0:0:0:0:
505,30,73898,2,0,L|410:23,1,90.000000298023,2|0,1:2|0:0,0:0:0:0:
207,49,74251,5,10,0:0:0:0:
73,101,74427,1,0,0:0:0:0:
75,24,74603,5,2,1:2:0:0:
270,99,74781,1,0,0:0:0:0:
168,312,74957,5,10,0:0:0:0:
141,79,75134,1,0,0:0:0:0:
141,79,75663,6,0,P|222:103|263:45,1,90.000000298023,14|0,0:1|0:0,0:0:0:0:
335,9,75839,5,0,0:0:0:0:
352,17,75928,2,0,B|377:45|377:45|426:53|426:53|468:107,1,135.000005596876,2|0,0:1|0:0,0:0:0:0:
388,192,76193,2,0,L|383:113,1,67.500002798438,2|0,0:1|0:0,0:0:0:0:
432,258,76368,2,0,B|466:270|466:270|498:251,1,67.500002798438,10|0,0:1|0:0,0:0:0:0:
260,240,76545,2,0,L|255:161,1,67.500002798438
365,301,76721,2,0,B|331:289|331:289|299:308,1,67.500002798438,2|0,1:1|0:0,0:0:0:0:
132,288,76898,2,0,L|127:209,1,67.500002798438,2|0,0:1|0:0,0:0:0:0:
174,352,77075,6,0,P|106:316|50:349,1,135.000005596876,14|0,0:1|0:0,0:0:0:0:
0,270,77340,1,2,0:1:0:0:
8,251,77428,2,0,P|26:214|25:160,1,67.500002798438,0|0,1:0|0:0,0:0:0:0:
12,116,77604,1,2,0:1:0:0:
164,37,77781,2,0,B|154:23|154:23|103:30,1,67.500002798438,10|0,0:1|0:0,0:0:0:0:
228,85,77957,2,0,B|238:99|238:99|289:92,1,67.500002798438
330,24,78134,2,0,B|379:17|379:17|389:31,1,67.500002798438,2|0,1:1|0:0,0:0:0:0:
452,85,78310,2,0,B|462:99|462:99|513:92,1,67.500002798438,2|0,0:1|0:0,0:0:0:0:
368,153,78486,6,0,L|360:316,1,135.000005596876,14|0,0:1|0:0,0:0:0:0:
407,353,78751,1,2,0:1:0:0:
416,361,78840,2,0,P|442:383|475:383,1,67.500002798438,0|0,1:0|0:0,0:0:0:0:
361,287,79015,2,0,P|324:263|274:289,1,67.500002798438,2|0,0:1|0:0,0:0:0:0:
133,338,79192,6,0,L|223:344,1,67.500002798438,10|0,0:1|0:0,0:0:0:0:
65,208,79368,2,0,L|125:276,1,67.500002798438
110,69,79545,2,0,L|104:158,1,67.500002798438,2|0,1:1|0:0,0:0:0:0:
239,1,79721,2,0,L|171:61,1,67.500002798438,2|0,0:1|0:0,0:0:0:0:
446,50,79898,6,0,L|250:36,1,135.000005596876,14|0,0:1|0:0,0:0:0:0:
327,124,80162,1,2,0:1:0:0:
339,140,80251,2,0,L|410:146,1,67.500002798438,0|0,1:0|0:0,0:0:0:0:
367,219,80427,1,2,0:1:0:0:
229,0,80604,6,0,B|195:11|195:11|180:40,1,67.500002798438,10|0,0:1|0:0,0:0:0:0:
101,75,80781,2,0,B|85:107|85:107|94:138,1,67.500002798438,2|0,0:1|0:0,0:0:0:0:
64,219,80957,2,0,B|75:252|75:252|104:268,1,67.500002798438,2|0,1:1|0:0,0:0:0:0:
139,346,81134,2,0,B|171:362|171:362|202:353,1,67.500002798438,2|0,0:1|0:0,0:0:0:0:
361,287,81310,6,0,B|389:241|334:219|334:219|352:241|340:280,1,135.000005596876,14|0,0:1|0:0,0:0:0:0:
300,364,81575,1,2,0:1:0:0:
291,382,81663,2,0,L|276:305,1,67.500002798438,0|0,1:0|0:0,0:0:0:0:
265,195,81839,2,0,L|250:118,1,67.500002798438,2|0,0:1|0:0,0:0:0:0:
394,91,82015,6,0,P|418:72|460:72,1,67.500002798438,10|0,0:1|0:0,0:0:0:0:
313,47,82192,2,0,P|288:28|247:28,1,67.500002798438
201,78,82368,2,0,P|167:79|140:98,1,67.500002798438,2|0,1:1|0:0,0:0:0:0:
0,34,82545,2,0,P|33:35|60:54,1,67.500002798438,2|0,0:1|0:0,0:0:0:0:
109,200,82722,6,0,P|99:123|163:101,1,135.000005596876,14|0,0:1|0:0,0:0:0:0:
183,167,82987,1,2,0:1:0:0:
190,185,83075,2,0,L|182:267,1,67.500002798438,0|0,1:0|0:0,0:0:0:0:
142,314,83252,1,2,0:1:0:0:
0,291,83428,6,0,P|29:260|68:261,1,67.500002798438,10|0,0:1|0:0,0:0:0:0:
220,320,83604,2,0,P|259:304|294:321,1,67.500002798438,2|0,0:1|0:0,0:0:0:0:
432,366,83781,2,0,P|474:368|498:398,1,67.500002798438,2|0,1:1|0:0,0:0:0:0:
509,376,83957,1,2,0:1:0:0:
359,371,84134,6,0,L|354:257,2,101.250004197657,14|2|2,0:1|0:1|0:1,0:0:0:0:
425,217,84840,1,2,0:1:0:0:
444,141,85016,1,2,0:1:0:0:
280,220,85193,1,2,0:1:0:0:
261,144,85369,1,2,0:1:0:0:
346,0,85546,6,0,L|350:101,2,101.250004197657,10|2|2,0:1|0:1|0:1,0:0:0:0:
261,144,86252,5,2,0:1:0:0:
168,198,86428,1,2,0:1:0:0:
61,179,86604,1,2,0:1:0:0:
7,86,86781,1,2,0:1:0:0:
89,335,86957,5,14,0:1:0:0:
