osu file format v14

[General]
AudioFilename: audio.mp3
AudioLeadIn: 0
PreviewTime: 35737
Countdown: 0
SampleSet: Soft
StackLeniency: 1
Mode: 0
LetterboxInBreaks: 0
WidescreenStoryboard: 1

[Editor]
DistanceSpacing: 1
BeatDivisor: 4
GridSize: 32
TimelineZoom: 1.7

[Metadata]
Title:Kaibutsu (TV Size)
TitleUnicode:怪物 (TV Size)
Artist:YOASOBI
ArtistUnicode:YOASOBI
Creator:Ryuusei Aika
Version:Gibune's Insane
Source:BEASTARS
Tags:ビースターズ japanese furry anime op2 pop j-pop jpop opening theme 幾田りら Ikuta Rira Lilas Ayase Monster MoeAsuka Atrue SuperBox Fall Marle Calvaria Mariko Sakuragi Reiji Maigo SB hhjkl [Hatsune Miku] [Hatsune_Miku] Hatsune Miku Remapper _lai Kyrian 09kami Ducky- Acyl Acylica Bellicose wafer iWaifu KAMI NO KOTOBA Addy2607 KaedeharaKazuha Airincat Chompy Yooh Reywateil Amateurre Sparhten Ajisai- HabiHolic newton- Yuuma Ogura Yui fedora- UberFazz xidorn Pata-Mon PataMon Deca Wanpachi cycopton Gibune wiken Fuju Stratos Crystal OneShotFox Elcheer Fieryrage hypercyte hypercute Kittyadventure gokugohan12468 Kyouren Zelq ponbot Yuuma3 Mimari i love ganyu Flake yaspo Regraz Mafumafu bongo Moete Senseabel Senseable Kuse KuBsNia_ZhoYL_ wetdog123 eiri-
BeatmapID:2820228
BeatmapSetID:1335792

[Difficulty]
HPDrainRate:6
CircleSize:4.2
OverallDifficulty:7
ApproachRate:8
SliderMultiplier:1.60000000596046
SliderTickRate:1

[Events]
//Background and Video events
0,0,"furry.jpg",0,0
Video,-200,"OP.mp4"
//Break Periods
//Storyboard Layer 0 (Background)
//Storyboard Layer 1 (Fail)
//Storyboard Layer 2 (Pass)
//Storyboard Layer 3 (Foreground)
//Storyboard Layer 4 (Overlay)
//Storyboard Sound Samples

[TimingPoints]
-3395,352.941176470588,4,2,1,40,1,0
2252,-125,4,2,1,60,0,0
13546,-100,4,2,1,70,0,0
24840,-100,4,2,1,60,0,0
30487,-100,4,2,1,75,0,0
35781,-166.666666666667,4,2,1,60,0,0
36046,-166.666666666667,4,2,1,5,0,0
36134,-90.909090909091,4,2,1,80,0,0
84134,-125,4,2,1,70,0,0
86957,-125,4,2,1,90,0,0

[Colours]
Combo1 : 191,96,0
Combo2 : 143,32,255
Combo3 : 191,0,96
Combo4 : 0,80,159

[HitObjects]
316,74,2252,6,0,P|351:68|386:64,1,64.0000002384184,10|0,0:0|0:0,0:0:0:0:
247,154,2604,2,0,P|215:148|183:144,1,64.0000002384184,10|2,0:0|0:0,0:0:0:0:
325,60,2957,2,0,P|360:54|395:50,1,64.0000002384184,10|0,0:0|0:0,0:0:0:0:
239,164,3310,2,0,P|207:158|175:154,1,64.0000002384184,10|2,0:0|0:0,0:0:0:0:
384,211,3663,6,0,P|394:277|402:351,1,128.000000476837,10|8,0:0|0:0,0:0:0:0:
293,259,4193,1,2,0:0:0:0:
229,305,4369,1,8,0:0:0:0:
313,184,4546,2,0,P|331:138|337:103,1,64.0000002384184,2|8,0:0|0:0,0:0:0:0:
170,17,4899,6,0,P|186:78|212:137,1,128.000000476837,2|2,0:0|0:0,0:0:0:0:
182,217,5428,1,8,0:0:0:0:
182,217,5604,1,2,0:0:0:0:
275,69,5781,1,10,0:0:0:0:
275,69,5957,1,2,0:0:0:0:
186,120,6134,2,0,P|150:130|78:139,1,96.0000003576276,10|0,0:0|0:0,0:0:0:0:
92,138,6487,5,10,0:0:0:0:
253,183,6663,2,0,P|299:195|330:199,1,64.0000002384184,2|8,0:0|0:0,0:0:0:0:
157,339,7016,2,0,P|208:304|287:328,1,128.000000476837,2|2,0:0|0:0,0:0:0:0:
432,243,7546,2,0,P|418:212|383:222,1,64.0000002384184,10|2,0:0|0:0,0:0:0:0:
352,288,7899,6,0,P|360:327|365:353,1,64.0000002384184,10|0,0:0|0:0,0:0:0:0:
275,217,8252,2,0,P|281:185|287:154,1,64.0000002384184,10|2,0:0|0:0,0:0:0:0:
368,298,8604,2,0,P|376:337|381:363,1,64.0000002384184,10|2,0:0|0:0,0:0:0:0:
262,207,8957,2,0,P|268:175|274:144,1,64.0000002384184,10|2,0:0|0:0,0:0:0:0:
342,222,9310,5,10,0:0:0:0:
192,113,9487,1,0,3:0:0:0:
336,91,9663,1,10,0:0:0:0:
274,144,9840,1,2,0:0:0:0:
274,144,10193,2,0,P|311:159|337:164,1,64.0000002384184,2|8,0:0|0:0,0:0:0:0:
253,18,10546,5,2,0:0:0:0:
175,35,10722,1,8,0:0:0:0:
192,113,10899,1,2,0:0:0:0:
270,96,11075,2,0,P|332:86|387:88,1,96.0000003576276,10|0,0:0|0:0,0:0:0:0:
365,86,11428,5,8,0:0:0:0:
437,34,11604,1,2,0:0:0:0:
497,151,11781,2,0,P|489:188|484:226,1,64.0000002384184,10|2,0:0|0:0,0:0:0:0:
317,271,12134,5,10,0:0:0:0:
362,331,12310,1,2,0:0:0:0:
436,311,12487,1,10,0:0:0:0:
359,187,12663,2,0,P|313:177|273:172,1,64.0000002384184,2|8,0:0|0:0,0:0:0:0:
423,132,13016,1,2,0:0:0:0:
423,132,13369,1,0,0:0:0:0:
281,23,13546,6,0,P|271:65|264:104,1,80.000000298023,10|0,0:0|0:0,0:0:0:0:
149,242,13899,2,0,P|139:203|132:163,1,80.000000298023,2|2,1:2|0:0,0:0:0:0:
297,16,14252,2,0,P|287:58|280:97,1,80.000000298023,10|2,0:0|0:0,0:0:0:0:
139,252,14604,2,0,P|129:213|122:173,1,80.000000298023,2|2,1:2|0:0,0:0:0:0:
255,212,14957,6,0,P|294:219|333:228,2,80.000000298023,10|0|0,0:0|0:0|1:0,0:0:0:0:
177,318,15487,1,2,0:0:0:0:
84,343,15663,1,8,0:0:0:0:
22,262,15840,1,2,0:0:0:0:
113,274,16016,1,0,1:0:0:0:
0,347,16193,1,2,0:0:0:0:
0,347,16546,5,2,0:0:0:0:
101,253,16722,2,0,P|94:212|80:171,1,80.000000298023,0|2,1:0|0:0,0:0:0:0:
218,257,17075,1,10,0:0:0:0:
218,257,17252,1,2,0:0:0:0:
240,126,17428,1,2,1:2:0:0:
240,126,17604,1,2,0:0:0:0:
304,202,17781,5,10,0:0:0:0:
161,185,17957,2,0,P|117:179|75:174,1,80.000000298023,2|0,0:0|1:0,0:0:0:0:
222,89,18310,2,0,P|229:50|238:10,2,80.000000298023,2|10|2,0:0|0:0|0:0,0:0:0:0:
279,157,18840,1,2,1:2:0:0:
124,87,19016,1,2,0:0:0:0:
339,20,19193,6,0,P|387:34|460:44,1,120.000000447034,10|0,0:0|0:0,0:0:0:0:
456,43,19546,2,0,L|436:139,1,80.000000298023,2|0,1:2|0:0,0:0:0:0:
297,200,19899,1,10,0:0:0:0:
408,226,20075,1,2,0:0:0:0:
331,209,20252,1,2,1:2:0:0:
482,240,20428,2,0,L|460:358,1,120.000000447034,2|0,0:0|0:0,0:0:0:0:
460,356,20781,5,2,0:0:0:0:
344,317,20957,1,2,1:2:0:0:
297,200,21134,1,2,0:0:0:0:
297,200,21487,5,2,0:0:0:0:
248,283,21663,1,2,1:2:0:0:
381,244,21840,2,0,P|421:252|462:262,1,80.000000298023,2|8,0:0|0:0,0:0:0:0:
314,119,22193,2,0,P|275:128|235:136,1,80.000000298023,2|2,0:0|1:2,0:0:0:0:
235,136,22722,5,10,0:0:0:0:
142,104,22899,1,2,0:0:0:0:
214,63,23075,1,0,1:0:0:0:
190,241,23252,1,2,0:0:0:0:
142,190,23428,2,0,B|167:230|167:230|150:319,1,120.000000447034,10|0,0:0|0:0,0:0:0:0:
153,301,23781,6,0,P|111:295|69:293,1,80.000000298023,2|0,1:2|0:0,0:0:0:0:
257,213,24134,2,0,P|299:206|341:204,1,80.000000298023,10|0,0:0|0:0,0:0:0:0:
142,104,24487,2,0,P|99:97|57:95,1,80.000000298023,2|0,1:2|0:0,0:0:0:0:
247,38,24840,5,10,0:1:0:0:
247,38,25193,5,2,1:2:0:0:
259,129,25369,1,10,1:1:0:0:
259,129,25722,5,10,0:1:0:0:
324,77,25899,1,0,1:2:0:0:
489,164,26075,5,10,0:1:0:0:
424,213,26252,1,2,0:0:0:0:
346,192,26428,1,2,0:0:0:0:
213,359,26604,5,2,1:2:0:0:
296,325,26781,1,2,1:2:0:0:
296,325,27134,5,10,0:1:0:0:
191,250,27310,2,0,P|151:243|110:238,1,80.000000298023,2|2,1:2|0:0,0:0:0:0:
273,182,27663,2,0,P|333:171|394:164,1,120.000000447034,10|0,0:1|0:0,0:0:0:0:
391,164,28016,5,2,1:2:0:0:
381,251,28193,1,10,1:1:0:0:
381,251,28546,5,10,0:1:0:0:
468,238,28722,1,0,1:2:0:0:
480,325,28899,1,10,0:1:0:0:
393,338,29075,2,0,P|351:343|302:353,1,80.000000298023,2|2,0:0|0:0,0:0:0:0:
173,220,29428,5,2,1:2:0:0:
261,173,29604,1,2,1:2:0:0:
161,97,29781,5,10,0:1:0:0:
161,97,30134,2,0,B|136:66|136:66|146:27,1,80.000000298023,10|2,0:1|0:0,0:0:0:0:
155,19,30399,1,0,0:0:0:0:
164,12,30487,6,0,P|206:17|261:27,1,80.000000298023,14|0,0:0|0:0,0:0:0:0:
382,47,30840,1,2,1:2:0:0:
314,104,31016,1,2,1:2:0:0:
438,218,31193,1,10,0:0:0:0:
462,138,31369,2,0,B|435:115|435:115|380:126,1,80.000000298023,2|0,0:0|1:0,0:0:0:0:
249,196,31722,6,0,P|292:205|341:219,1,80.000000298023,2|8,0:0|0:0,0:0:0:0:
466,300,32075,1,2,0:0:0:0:
337,330,32252,1,2,1:2:0:0:
408,209,32428,1,2,1:2:0:0:
394,283,32604,1,8,0:0:0:0:
243,287,32781,6,0,P|201:272|164:263,2,80.000000298023,2|2|2,0:0|1:2|0:0,0:0:0:0:
130,338,33310,2,0,P|72:348|10:368,1,120.000000447034,10|0,0:0|0:0,0:0:0:0:
13,366,33663,1,2,1:2:0:0:
82,247,33840,1,0,1:0:0:0:
12,199,34016,1,10,0:0:0:0:
105,345,34193,2,0,P|143:357|190:371,1,80.000000298023,2|0,0:0|1:0,0:0:0:0:
264,376,34546,1,2,0:0:0:0:
270,305,34722,5,8,0:0:0:0:
270,305,35075,1,10,0:0:0:0:
270,305,35428,1,10,0:0:0:0:
270,305,35781,2,0,L|283:227,1,71.9999980709551,2|0,0:1|0:0,0:0:0:0:
306,203,36134,5,14,0:0:0:0:
414,311,36310,2,0,P|459:323|503:332,1,88.0000030133723,2|0,0:0|1:0,0:0:0:0:
330,375,36663,1,2,0:0:0:0:
245,321,36840,2,0,P|200:333|156:342,1,88.0000030133723,10|0,0:0|0:0,0:0:0:0:
132,195,37193,1,2,1:2:0:0:
26,234,37369,2,0,P|42:278|58:370,1,132.000004520058,2|0,0:0|0:0,0:0:0:0:
57,361,37722,5,2,0:0:0:0:
159,341,37899,1,2,1:2:0:0:
247,240,38075,1,2,0:0:0:0:
347,258,38252,1,10,0:0:0:0:
282,321,38428,1,0,0:0:0:0:
310,186,38604,2,0,P|317:133|322:88,1,88.0000030133723,2|0,1:2|0:0,0:0:0:0:
389,43,38957,5,10,0:0:0:0:
226,35,39134,2,0,P|176:28|129:25,1,88.0000030133723,2|0,0:0|1:0,0:0:0:0:
277,139,39487,1,2,0:0:0:0:
213,199,39663,2,0,P|224:257|231:346,1,132.000004520058,10|0,0:0|0:0,0:0:0:0:
230,329,40016,1,2,1:2:0:0:
100,236,40193,1,2,0:0:0:0:
100,236,40546,5,2,0:0:0:0:
95,312,40722,1,2,1:2:0:0:
213,228,40899,1,2,0:0:0:0:
152,159,41075,1,10,0:0:0:0:
15,113,41252,1,2,0:0:0:0:
103,48,41428,1,2,1:2:0:0:
43,1,41604,1,2,0:0:0:0:
214,16,41781,6,0,P|259:25|355:36,1,132.000004520058,10|0,0:0|0:0,0:0:0:0:
344,35,42134,2,0,L|329:132,1,88.0000030133723,2|0,1:2|0:0,0:0:0:0:
373,264,42487,1,10,0:0:0:0:
463,227,42663,1,0,0:0:0:0:
418,111,42840,2,0,P|408:159|398:201,1,88.0000030133723,2|0,1:2|0:0,0:0:0:0:
301,382,43193,6,0,P|270:332|150:333,2,176.000006026745,10|2|10,0:0|1:2|0:0,0:0:0:0:
425,271,44075,1,0,0:0:0:0:
425,271,44252,2,0,B|475:305|475:305|465:383,1,132.000004520058,2|0,1:2|0:0,0:0:0:0:
465,375,44604,5,10,0:0:0:0:
355,315,44781,1,0,0:0:0:0:
354,150,44957,1,2,1:2:0:0:
481,202,45134,1,2,0:0:0:0:
402,225,45310,2,0,P|353:229|303:238,1,88.0000030133723,10|0,0:0|0:0,0:0:0:0:
103,179,45663,1,2,1:2:0:0:
208,94,45840,2,0,P|235:136|261:174,1,88.0000030133723,2|8,0:0|0:0,0:0:0:0:
200,335,46193,5,2,0:0:0:0:
174,217,46369,1,2,1:2:0:0:
192,308,46546,2,0,P|149:319|103:330,1,88.0000030133723,2|10,0:0|0:0,0:0:0:0:
275,360,46899,1,2,1:2:0:0:
369,223,47075,1,2,1:2:0:0:
404,197,47163,1,0,1:0:0:0:
448,207,47252,1,2,1:2:0:0:
479,243,47340,1,2,1:2:0:0:
467,285,47428,6,0,P|391:275|266:265,1,176.000006026745,14|0,0:0|1:0,0:0:0:0:
150,186,47957,1,2,0:0:0:0:
139,273,48134,1,10,0:0:0:0:
254,142,48310,2,0,P|272:95|297:45,1,88.0000030133723,2|0,0:0|1:0,0:0:0:0:
371,36,48663,1,2,0:0:0:0:
179,93,48840,5,10,0:0:0:0:
77,85,49016,1,2,0:0:0:0:
17,1,49193,1,2,1:2:0:0:
123,152,49369,2,0,P|114:201|107:257,1,88.0000030133723,2|8,0:0|0:0,0:0:0:0:
216,27,49722,5,2,0:0:0:0:
304,12,49899,1,2,1:2:0:0:
426,117,50075,2,0,P|481:126|518:136,1,88.0000030133723,2|8,0:0|0:0,0:0:0:0:
202,44,50428,5,2,0:0:0:0:
290,29,50605,1,2,1:2:0:0:
412,134,50781,2,0,P|467:143|504:153,1,88.0000030133723,2|8,0:0|0:0,0:0:0:0:
334,222,51134,5,2,0:0:0:0:
283,157,51310,1,2,1:2:0:0:
248,232,51487,2,0,P|236:282|228:322,1,88.0000030133723,2|8,0:0|0:0,0:0:0:0:
158,195,51840,1,2,0:0:0:0:
72,159,52016,1,2,1:2:0:0:
72,159,52369,5,10,0:0:0:0:
97,253,52546,1,2,0:0:0:0:
191,228,52722,1,2,1:2:0:0:
166,134,52899,1,2,0:0:0:0:
296,16,53075,6,0,P|316:96|341:202,2,176.000006026745,10|2|10,0:0|1:2|0:0,0:0:0:0:
438,134,53957,1,0,0:0:0:0:
416,263,54134,2,0,P|371:269|319:278,1,88.0000030133723,2|0,1:2|0:0,0:0:0:0:
179,366,54487,6,0,P|201:284|221:175,2,176.000006026745,10|2|10,0:0|1:2|0:0,0:0:0:0:
114,257,55369,1,0,0:0:0:0:
42,342,55546,2,0,P|30:295|19:255,1,88.0000030133723,2|0,1:2|0:0,0:0:0:0:
50,68,55899,6,0,P|73:109|187:88,1,176.000006026745,14|0,0:0|1:0,0:0:0:0:
321,27,56428,1,0,0:0:0:0:
242,11,56604,2,0,P|251:59|261:116,1,88.0000030133723,10|2,0:0|0:0,0:0:0:0:
365,180,56957,2,0,P|319:175|264:172,1,88.0000030133723,2|0,1:2|0:0,0:0:0:0:
158,262,57310,5,10,0:0:0:0:
116,339,57487,1,0,0:0:0:0:
276,353,57663,1,2,1:2:0:0:
202,327,57840,1,0,0:0:0:0:
330,296,58016,6,0,P|351:248|366:211,1,88.0000030133723,10|0,0:0|0:0,0:0:0:0:
258,272,58369,2,0,P|242:220|189:95,1,176.000006026745,2|10,1:2|0:0,0:0:0:0:
195,107,59075,2,0,P|142:100|94:95,1,88.0000030133723,2|0,1:2|0:0,0:0:0:0:
285,31,59428,2,0,P|338:24|386:19,1,88.0000030133723,10|0,0:0|0:0,0:0:0:0:
319,174,59781,2,0,B|232:185|262:232|151:242,1,176.000006026745,2|10,1:2|0:0,0:0:0:0:
159,241,60487,6,0,P|149:292|142:333,1,88.0000030133723,2|0,1:2|0:0,0:0:0:0:
319,174,60840,2,0,P|309:123|302:82,1,88.0000030133723,10|0,0:0|0:0,0:0:0:0:
423,259,61193,2,0,P|475:273|518:284,1,88.0000030133723,2|0,1:2|0:0,0:0:0:0:
352,347,61546,5,10,0:0:0:0:
352,347,61722,1,0,0:0:0:0:
412,171,61899,1,2,1:2:0:0:
412,171,62075,1,0,0:0:0:0:
244,190,62252,2,0,P|198:195|155:181,1,88.0000030133723,10|0,0:0|0:0,0:0:0:0:
167,86,62604,2,0,P|213:81|256:95,1,88.0000030133723,2|0,1:2|0:0,0:0:0:0:
335,189,62957,6,0,P|326:273|313:366,2,176.000006026745,10|2|10,0:0|1:2|0:0,0:0:0:0:
408,253,63840,1,0,0:0:0:0:
240,305,64016,2,0,P|184:315|149:322,1,88.0000030133723,2|0,1:2|0:0,0:0:0:0:
39,240,64369,5,10,0:0:0:0:
66,318,64546,1,0,0:0:0:0:
138,177,64722,2,0,P|128:130|117:86,1,88.0000030133723,2|0,1:2|0:0,0:0:0:0:
273,0,65075,2,0,P|262:42|253:85,1,88.0000030133723,10|0,0:0|0:0,0:0:0:0:
174,23,65428,1,2,1:2:0:0:
174,23,65604,1,0,0:0:0:0:
346,115,65781,6,0,B|419:128|413:180|517:182,1,176.000006026745,10|0,0:0|1:0,0:0:0:0:
348,257,66310,1,2,0:0:0:0:
392,333,66487,1,8,0:0:0:0:
222,298,66663,2,0,P|230:249|234:208,2,88.0000030133723,2|2|2,0:0|1:2|0:0,0:0:0:0:
325,154,67193,5,14,0:0:0:0:
253,84,67369,2,0,P|204:91|152:91,1,88.0000030133723,2|0,0:0|1:0,0:0:0:0:
329,12,67722,1,2,0:0:0:0:
241,111,67899,1,10,0:0:0:0:
226,8,68075,1,2,0:0:0:0:
352,135,68252,1,0,1:0:0:0:
389,64,68428,1,2,0:0:0:0:
272,197,68604,6,0,P|226:205|185:213,1,88.0000030133723,10|2,0:0|0:0,0:0:0:0:
54,131,68957,1,2,1:2:0:0:
0,225,69134,2,0,P|17:270|31:310,1,88.0000030133723,2|8,0:0|0:0,0:0:0:0:
171,287,69487,5,2,0:0:0:0:
92,232,69663,1,2,1:2:0:0:
195,108,69840,2,0,P|235:105|287:97,1,88.0000030133723,2|8,0:0|0:0,0:0:0:0:
181,299,70193,5,2,0:0:0:0:
102,244,70369,1,2,1:2:0:0:
205,120,70546,2,0,P|245:117|297:109,1,88.0000030133723,2|8,0:0|0:0,0:0:0:0:
191,315,70899,5,2,0:0:0:0:
112,260,71075,1,2,1:2:0:0:
215,136,71252,2,0,P|255:133|307:125,1,88.0000030133723,2|8,0:0|0:0,0:0:0:0:
301,213,71604,1,2,0:0:0:0:
198,51,71781,1,2,1:2:0:0:
198,51,72134,5,8,0:0:0:0:
102,38,72310,1,2,0:0:0:0:
6,119,72487,1,2,1:2:0:0:
102,132,72663,1,2,0:0:0:0:
203,211,72840,6,0,P|196:263|174:388,2,176.000006026745,10|2|10,0:0|1:2|0:0,0:0:0:0:
320,139,73722,1,0,0:0:0:0:
320,139,73899,2,0,P|331:198|342:237,1,88.0000030133723,2|0,1:2|0:0,0:0:0:0:
490,80,74252,6,0,P|456:33|324:23,2,176.000006026745,10|2|10,0:0|1:2|0:0,0:0:0:0:
368,208,75134,1,0,0:0:0:0:
368,208,75310,1,2,0:0:0:0:
368,208,75663,5,14,0:1:0:0:
223,135,75928,1,2,0:1:0:0:
223,135,76016,2,0,L|129:147,1,88.0000030133723,0|2,1:0|0:1,0:0:0:0:
261,50,76369,5,10,0:1:0:0:
361,69,76546,1,0,0:0:0:0:
321,6,76722,1,2,1:1:0:0:
300,112,76899,1,2,0:1:0:0:
462,78,77075,5,14,0:1:0:0:
477,227,77340,1,2,0:1:0:0:
477,227,77428,1,0,1:0:0:0:
465,115,77604,1,2,0:1:0:0:
360,253,77781,5,10,0:1:0:0:
282,265,77957,1,2,0:1:0:0:
372,180,78134,1,2,1:1:0:0:
411,319,78310,1,2,0:1:0:0:
232,339,78487,6,0,L|84:313,2,132.000004520058,14|2|2,0:1|0:1|0:1,0:0:0:0:
123,165,79193,5,10,0:1:0:0:
137,242,79369,1,0,0:0:0:0:
217,113,79546,1,2,1:1:0:0:
203,191,79722,1,2,0:1:0:0:
112,25,79899,5,14,0:1:0:0:
6,112,80163,1,2,0:1:0:0:
6,112,80252,2,0,L|23:201,1,88.0000030133723,0|2,1:0|0:1,0:0:0:0:
160,278,80604,5,10,0:1:0:0:
242,243,80781,1,2,0:1:0:0:
184,177,80957,1,2,1:1:0:0:
101,211,81134,1,2,0:1:0:0:
190,382,81310,6,0,L|202:237,2,132.000004520058,14|2|2,0:1|0:1|0:1,0:0:0:0:
365,303,82016,1,10,0:1:0:0:
365,303,82193,1,0,0:0:0:0:
316,167,82369,1,2,1:1:0:0:
292,248,82546,1,2,0:1:0:0:
471,152,82722,5,14,0:1:0:0:
341,30,82987,1,2,0:1:0:0:
341,30,83075,1,0,1:0:0:0:
459,36,83252,1,2,0:1:0:0:
284,139,83428,5,10,0:1:0:0:
199,108,83604,1,2,0:1:0:0:
128,6,83781,1,2,1:1:0:0:
37,35,83957,1,2,0:1:0:0:
102,158,84134,6,0,P|66:140|15:179,2,96.0000003576276,14|2|2,0:1|0:1|0:1,0:0:0:0:
152,257,84840,2,0,L|79:272,3,64.0000002384184,2|2|2|2,0:1|0:1|0:1|0:1,0:0:0:0:
241,347,85546,6,0,L|256:240,2,96.0000003576276,10|2|2,0:1|0:1|0:1,0:0:0:0:
352,289,86252,2,0,L|419:283,3,64.0000002384184,2|2|2|2,0:1|0:1|0:1|0:1,0:0:0:0:
339,168,86957,1,14,0:1:0:0:
