osu file format v14

[General]
AudioFilename: audio.mp3
AudioLeadIn: 0
PreviewTime:35737
Countdown: 0
SampleSet: Soft
StackLeniency: 1
Mode: 0
LetterboxInBreaks: 0
WidescreenStoryboard: 1

[Editor]
Bookmarks:66310
DistanceSpacing: 0.9
BeatDivisor: 4
GridSize: 32
TimelineZoom: 2.5

[Metadata]
Title:Kaibutsu (TV Size)
TitleUnicode:怪物 (TV Size)
Artist:YOASOBI
ArtistUnicode:YOASOBI
Creator:Ryuusei Aika
Version:FuJu & Stratos' Insane
Source:BEASTARS
Tags:ビースターズ japanese furry anime op2 pop j-pop jpop opening theme 幾田りら Ikuta Rira Lilas Ayase Monster MoeAsuka Atrue SuperBox Fall Marle Calvaria Mariko Sakuragi Reiji Maigo SB hhjkl [Hatsune Miku] [Hatsune_Miku] Hatsune Miku Remapper _lai Kyrian 09kami Ducky- Acyl Acylica Bellicose wafer iWaifu KAMI NO KOTOBA Addy2607 KaedeharaKazuha Airincat Chompy Yooh Reywateil Amateurre Sparhten Ajisai- HabiHolic newton- Yuuma Ogura Yui fedora- UberFazz xidorn Pata-Mon PataMon Deca Wanpachi cycopton Gibune wiken Fuju Stratos Crystal OneShotFox Elcheer Fieryrage hypercyte hypercute Kittyadventure gokugohan12468 Kyouren Zelq ponbot Yuuma3 Mimari i love ganyu Flake yaspo Regraz Mafumafu bongo Moete Senseabel Senseable Kuse KuBsNia_ZhoYL_ wetdog123 eiri-
BeatmapID:2820227
BeatmapSetID:1335792

[Difficulty]
HPDrainRate:5
CircleSize:3.9
OverallDifficulty:7.8
ApproachRate:9
SliderMultiplier:1.70000000596046
SliderTickRate:1

[Events]
//Background and Video events
0,0,"furry.jpg",0,0
Video,-200,"OP.mp4"
//Break Periods
//Storyboard Layer 0 (Background)
//Storyboard Layer 1 (Fail)
//Storyboard Layer 2 (Pass)
//Storyboard Layer 3 (Foreground)
//Storyboard Layer 4 (Overlay)
//Storyboard Sound Samples

[TimingPoints]
-3395,352.941176470588,4,2,1,40,1,0
1543,-100,4,2,1,40,0,0
1546,-133.333333333333,4,2,1,40,0,0
2249,-133.333333333333,4,2,1,40,0,0
2252,-133.333333333333,4,2,1,60,0,0
13546,-95.2380952380952,4,2,1,70,0,0
24837,-111.111111111111,4,2,1,70,0,0
24840,-133.333333333333,4,2,1,60,0,0
30487,-105.263157894737,4,2,1,75,0,0
35781,-200,4,2,1,60,0,0
36131,-142.857142857143,4,2,1,60,0,0
36134,-142.857142857143,4,2,1,80,0,0
36310,-90.9090909090909,4,2,1,80,0,1
49193,-90.9090909090909,4,2,1,80,0,1
53075,-90.9090909090909,4,2,1,80,0,1
54134,-90.9090909090909,4,2,1,80,0,1
55899,-95.2380952380952,4,2,1,80,0,1
75663,-86.9565217391304,4,2,1,80,0,0
84133,-86.9565217391304,4,2,1,70,0,0
84134,-133.333333333334,4,2,1,70,0,0
86957,-105.263157894737,4,2,1,90,0,0

[Colours]
Combo1 : 191,0,96
Combo2 : 128,0,255

[HitObjects]
31,371,1546,6,0,B|77:388|109:339|95:323|134:274|188:294,1,191.250007966161,2|0,0:0|0:0,0:0:0:0:
241,232,2252,6,0,P|218:210|187:207,1,63.7500026553869,10|0,0:0|0:0,0:0:0:0:
132,355,2604,2,0,P|154:376|185:379,1,63.7500026553869,10|2,0:0|0:0,0:0:0:0:
187,293,2958,1,10,0:0:0:0:
187,293,3135,1,0,0:0:0:0:
105,186,3310,2,0,P|99:154|92:123,1,63.7500026553869,10|2,0:0|0:0,0:0:0:0:
124,8,3664,6,0,P|157:59|218:64,1,127.500005310774,10|8,0:0|0:0,0:0:0:0:
249,194,4193,2,0,P|217:199|186:206,1,63.7500026553869,2|8,0:0|0:0,0:0:0:0:
306,107,4546,2,0,P|336:114|368:119,1,63.7500026553869,2|8,0:0|0:0,0:0:0:0:
467,85,4899,1,2,0:0:0:0:
433,371,5252,5,2,0:0:0:0:
498,261,5429,1,8,0:0:0:0:
423,375,5604,1,2,0:0:0:0:
390,266,5781,6,0,P|360:279|329:285,1,63.7500026553869,10|2,0:0|0:0,0:0:0:0:
262,384,6134,2,0,P|232:370|201:364,1,63.7500026553869,10|2,0:0|0:0,0:0:0:0:
64,206,6487,5,10,0:0:0:0:
41,290,6663,2,0,P|81:242|143:245,1,127.500005310774,2|2,0:0|0:0,0:0:0:0:
226,200,7193,2,0,P|237:170|236:138,1,63.7500026553869,10|2,0:0|0:0,0:0:0:0:
170,75,7546,1,10,0:0:0:0:
170,75,7723,1,2,0:0:0:0:
318,0,7899,6,0,L|331:62,1,63.7500026553869,10|0,0:0|0:0,0:0:0:0:
413,93,8252,2,0,L|426:155,1,63.7500026553869,10|2,0:0|0:0,0:0:0:0:
385,229,8604,1,10,0:0:0:0:
385,229,8781,1,2,0:0:0:0:
424,342,8957,2,0,L|484:361,1,63.7500026553869,10|2,0:0|0:0,0:0:0:0:
307,384,9310,2,0,P|291:356|292:324,1,63.7500026553869,10|0,0:0|0:0,0:0:0:0:
185,272,9663,1,10,0:0:0:0:
127,371,9839,1,2,0:0:0:0:
120,365,10193,6,0,L|60:384,1,63.7500026553869,2|8,0:0|0:0,0:0:0:0:
30,293,10546,2,0,L|90:274,1,63.7500026553869,2|8,0:0|0:0,0:0:0:0:
147,86,10898,1,2,0:0:0:0:
58,51,11075,2,0,B|39:100|39:100|45:126|45:126|25:185,2,127.500005310774,10|8|10,0:0|0:0|0:0,0:0:0:0:
147,86,11957,1,2,0:0:0:0:
220,208,12134,5,10,0:0:0:0:
215,212,12487,1,10,0:0:0:0:
211,217,12840,1,8,0:0:0:0:
266,148,13193,6,0,P|270:135|259:142,2,31.8750013276934,2|0|0,0:3|0:0|0:0,0:0:0:0:
150,282,13546,6,0,P|124:246|128:202,1,89.2499975892304,14|0,0:0|0:0,0:0:0:0:
303,339,13899,2,0,P|259:347|217:362,1,89.2499975892304,2|2,1:2|0:0,0:0:0:0:
365,246,14252,1,10,0:0:0:0:
365,246,14429,1,2,0:0:0:0:
459,372,14604,2,0,P|482:335|469:293,1,89.2499975892304,2|2,1:2|0:0,0:0:0:0:
339,144,14957,6,0,P|380:159|424:167,1,89.2499975892304,10|0,0:0|0:0,0:0:0:0:
403,65,15310,1,0,1:0:0:0:
252,206,15487,2,0,P|216:152|152:153,1,133.874996383846,2|0,0:0|0:0,0:0:0:0:
102,207,15839,2,0,P|117:249|125:293,1,89.2499975892304,2|0,0:0|1:0,0:0:0:0:
132,384,16193,5,2,0:0:0:0:
24,166,16546,5,2,0:0:0:0:
173,233,16723,1,0,1:0:0:0:
15,156,16899,1,2,0:0:0:0:
84,11,17076,5,10,0:0:0:0:
127,115,17252,1,2,0:0:0:0:
274,164,17428,5,2,1:2:0:0:
317,60,17604,1,2,0:0:0:0:
173,233,17781,5,10,0:0:0:0:
240,327,17957,2,0,P|282:315|327:312,1,89.2499975892304,2|0,0:0|1:0,0:0:0:0:
414,381,18310,1,2,0:0:0:0:
489,305,18487,2,0,P|506:264|490:224,1,89.2499975892304,10|2,0:0|0:0,0:0:0:0:
385,106,18840,2,0,P|381:150|369:193,1,89.2499975892304,2|2,1:2|0:0,0:0:0:0:
240,327,19193,6,0,P|206:272|141:269,1,133.874996383846,10|0,0:0|0:0,0:0:0:0:
96,337,19546,2,0,P|64:306|62:262,1,89.2499975892304,2|0,1:2|0:0,0:0:0:0:
169,100,19899,2,0,P|154:142|146:185,1,89.2499975892304,10|2,0:0|0:0,0:0:0:0:
76,115,20252,1,2,1:2:0:0:
231,27,20428,6,0,B|283:13|316:48|299:75|334:114|377:100,1,178.499995178461,2|2,0:0|0:0,0:0:0:0:
454,287,20957,1,2,1:2:0:0:
503,221,21134,2,0,B|468:192|468:192|427:208,1,89.2499975892304,2|8,0:0|0:0,0:0:0:0:
402,358,21487,2,0,P|361:341|318:333,1,89.2499975892304,2|2,0:0|1:2,0:0:0:0:
278,166,21840,2,0,P|247:197|250:240,1,89.2499975892304,2|8,0:0|0:0,0:0:0:0:
138,368,22193,5,2,0:0:0:0:
78,298,22369,2,0,B|112:260|97:208|73:220|50:166|93:135,1,178.499995178461,2|10,1:2|0:0,0:0:0:0:
93,26,22899,2,0,P|58:53|15:60,1,89.2499975892304,2|0,0:0|1:0,0:0:0:0:
157,183,23252,5,2,0:0:0:0:
234,147,23428,2,0,P|241:103|268:69,1,89.2499975892304,10|0,0:0|0:0,0:0:0:0:
337,0,23781,2,0,P|368:29|369:72,1,89.2499975892304,2|0,1:2|0:0,0:0:0:0:
480,212,24134,2,0,B|438:162|379:180|379:180|356:217|309:200,1,178.499995178461,10|2,0:0|1:2,0:0:0:0:
144,369,24840,6,0,L|129:306,1,63.7500026553869,10|0,0:1|0:0,0:0:0:0:
65,256,25193,2,0,L|71:224,1,31.8750013276934,2|0,1:2|0:0,0:0:0:0:
65,256,25369,2,0,L|71:224,1,31.8750013276934,10|0,1:1|0:0,0:0:0:0:
129,169,25545,5,2,0:0:0:0:
73,101,25722,2,0,P|48:121|17:122,1,63.7500026553869,10|0,0:1|1:2,0:0:0:0:
20,44,26075,1,10,0:1:0:0:
154,0,26252,6,0,L|247:18,1,95.6250039830803,2|0,0:0|0:0,0:0:0:0:
304,72,26604,2,0,L|293:102,1,31.8750013276934,2|0,1:2|0:0,0:0:0:0:
304,72,26781,2,0,L|293:102,1,31.8750013276934,2|0,1:2|0:0,0:0:0:0:
341,335,27134,5,10,0:1:0:0:
265,384,27311,2,0,P|240:344|253:300,1,95.6250039830803,2|0,1:2|0:0,0:0:0:0:
316,256,27663,2,0,P|307:225|303:193,1,63.7500026553869,10|0,0:1|0:0,0:0:0:0:
155,265,28016,2,0,P|159:280|163:295,1,31.8750013276934,2|0,1:2|0:0,0:0:0:0:
155,265,28193,2,0,P|159:280|163:295,1,31.8750013276934,10|0,1:1|0:0,0:0:0:0:
134,369,28369,1,2,0:0:0:0:
23,243,28546,2,0,P|47:221|78:218,1,63.7500026553869,10|0,0:1|1:2,0:0:0:0:
144,22,28899,5,10,0:1:0:0:
207,74,29075,2,0,P|171:104|124:102,1,95.6250039830803,2|0,0:0|0:0,0:0:0:0:
64,44,29428,2,0,L|70:12,1,31.8750013276934,2|0,1:2|0:0,0:0:0:0:
64,44,29604,2,0,L|70:12,1,31.8750013276934,2|0,1:2|0:0,0:0:0:0:
281,126,29958,5,2,0:0:0:0:
280,126,30134,2,0,P|316:95|362:96,1,95.6250039830803,10|0,0:1|0:0,0:0:0:0:
420,151,30487,6,0,P|408:189|400:229,1,80.7499981268643,14|0,0:0|0:0,0:0:0:0:
494,301,30840,2,0,P|475:308|455:313,1,40.3749990634321,2|0,1:2|0:0,0:0:0:0:
404,374,31016,2,0,P|385:366|365:361,1,40.3749990634321,2|0,1:2|0:0,0:0:0:0:
312,304,31193,1,10,0:0:0:0:
214,317,31369,2,0,P|186:345|185:384,1,80.7499981268643,2|0,0:0|1:0,0:0:0:0:
136,251,31722,2,0,P|163:222|164:183,1,80.7499981268643,2|8,0:0|0:0,0:0:0:0:
132,100,32075,5,2,0:0:0:0:
8,134,32252,2,0,L|46:120,1,40.3749990634321,2|0,1:2|0:0,0:0:0:0:
144,13,32428,2,0,L|182:26,1,40.3749990634321,2|0,1:2|0:0,0:0:0:0:
275,103,32604,2,0,P|303:75|342:74,1,80.7499981268643,8|2,0:0|0:0,0:0:0:0:
423,141,32957,1,2,1:2:0:0:
423,141,33134,1,2,0:0:0:0:
315,274,33310,6,0,P|338:243|333:204,1,80.7499981268643,10|0,0:0|0:0,0:0:0:0:
217,375,33663,2,0,L|177:384,1,40.3749990634321,2|0,1:2|0:0,0:0:0:0:
217,375,33840,2,0,L|177:384,1,40.3749990634321,0|0,1:0|0:0,0:0:0:0:
179,305,34016,1,10,0:0:0:0:
257,185,34193,2,0,P|233:216|238:255,1,80.7499981268643,2|0,0:0|1:0,0:0:0:0:
396,347,34546,2,0,L|318:370,1,80.7499981268643,2|8,0:0|0:0,0:0:0:0:
312,365,35075,5,10,0:0:0:0:
305,360,35428,5,10,0:0:0:0:
55,122,35781,6,0,P|41:106|57:121,1,63.7500002235173,2|0,0:1|0:0,0:0:0:0:
112,170,36134,5,14,0:0:0:0:
257,185,36311,6,0,P|296:129|274:65,1,140.250004771828,2|0,0:0|0:0,0:0:0:0:
270,72,36664,1,2,0:0:0:0:
177,245,36840,2,0,P|130:251|88:270,1,93.500003181219,10|0,0:0|0:0,0:0:0:0:
351,315,37193,1,2,1:2:0:0:
282,374,37369,2,0,P|256:335|261:290,1,93.500003181219,2|8,0:0|0:0,0:0:0:0:
421,94,37722,5,2,0:0:0:0:
493,167,37899,2,0,P|446:173|404:192,1,93.500003181219,2|2,1:2|0:0,0:0:0:0:
265,5,38252,2,0,P|307:23|353:30,1,93.500003181219,10|0,0:0|0:0,0:0:0:0:
241,167,38604,2,0,P|199:114|132:119,1,140.250004771828,2|0,1:2|0:0,0:0:0:0:
138,126,38957,1,10,0:0:0:0:
65,0,39134,2,0,P|34:33|40:78,1,93.500003181219,2|0,0:0|1:0,0:0:0:0:
163,204,39487,5,2,0:0:0:0:
109,288,39664,2,0,P|63:295|21:316,1,93.500003181219,10|0,0:0|0:0,0:0:0:0:
232,334,40017,5,2,1:2:0:0:
309,384,40194,2,0,P|329:343|315:300,1,93.500003181219,2|8,0:0|0:0,0:0:0:0:
314,299,40546,1,2,0:0:0:0:
499,249,40722,5,2,1:2:0:0:
371,185,40899,1,0,0:0:0:0:
499,249,41075,5,10,0:0:0:0:
368,96,41252,1,2,0:0:0:0:
502,32,41428,5,2,1:2:0:0:
371,185,41605,1,2,0:0:0:0:
300,0,41781,6,0,B|230:-1|241:45|164:35,1,140.250004771828,10|0,0:0|0:0,0:0:0:0:
95,67,42134,2,0,P|73:94|98:69,1,93.500003181219,2|0,1:2|0:0,0:0:0:0:
202,203,42487,2,0,P|248:252|237:318,1,140.250004771828,10|0,0:0|0:0,0:0:0:0:
187,378,42840,2,0,P|150:354|158:310,1,93.500003181219,2|0,1:2|0:0,0:0:0:0:
329,234,43193,6,0,B|418:273|418:273|480:263|451:210,1,187.000006362438,10|2,0:0|1:2,0:0:0:0:
306,75,43722,1,0,0:0:0:0:
375,5,43899,2,0,P|381:51|400:93,1,93.500003181219,10|0,0:0|0:0,0:0:0:0:
242,164,44252,2,0,P|197:113|129:121,1,140.250004771828,2|0,1:2|0:0,0:0:0:0:
70,60,44604,2,0,P|40:94|47:138,1,93.500003181219,10|0,0:0|0:0,0:0:0:0:
137,295,44957,2,0,P|166:260|159:216,1,93.500003181219,2|2,1:2|0:0,0:0:0:0:
129,121,45310,1,10,0:0:0:0:
128,133,45663,5,2,1:2:0:0:
243,293,45840,2,0,P|287:278|333:273,1,93.500003181219,2|8,0:0|0:0,0:0:0:0:
307,366,46193,1,2,0:0:0:0:
469,163,46369,2,0,B|430:106|367:120|367:120|339:150|305:135,1,187.000006362438,2|10,1:2|0:0,0:0:0:0:
149,12,46899,1,2,1:2:0:0:
157,17,46987,1,2,1:2:0:0:
164,22,47075,2,0,L|151:67,1,46.7500015906095,2|0,1:2|0:0,0:0:0:0:
89,116,47252,2,0,L|76:161,1,46.7500015906095,2|2,1:2|1:2,0:0:0:0:
0,256,47428,6,0,B|53:236|94:271|79:303|113:338|158:317,1,187.000006362438,14|0,0:0|1:0,0:0:0:0:
340,374,47957,5,2,0:0:0:0:
271,231,48134,1,10,0:0:0:0:
349,383,48310,1,2,0:0:0:0:
381,16,48663,5,2,0:0:0:0:
485,107,48840,1,10,0:0:0:0:
354,151,49016,1,2,0:0:0:0:
404,91,49193,1,2,1:2:0:0:
271,231,49369,6,0,B|219:221|219:221|175:147|175:147|127:137,1,187.000006362438,2|2,0:0|0:0,0:0:0:0:
113,323,49899,1,2,1:2:0:0:
50,384,50075,2,0,P|18:350|22:305,1,93.500003181219,2|8,0:0|0:0,0:0:0:0:
278,362,50428,5,2,0:0:0:0:
230,200,50604,1,2,1:2:0:0:
417,131,50781,2,0,P|393:170|390:217,1,93.500003181219,2|8,0:0|0:0,0:0:0:0:
501,82,51134,1,2,0:0:0:0:
501,82,51310,1,2,1:2:0:0:
285,84,51487,6,0,B|187:42|187:42|135:52|151:100,1,187.000006362438,2|2,0:0|0:0,0:0:0:0:
206,280,52017,2,0,P|235:244|229:199,1,93.500003181219,2|0,1:2|0:0,0:0:0:0:
121,346,52369,1,10,0:0:0:0:
121,346,52546,1,2,0:0:0:0:
46,238,52722,2,0,P|92:236|134:216,1,93.500003181219,2|2,1:2|0:0,0:0:0:0:
296,320,53075,6,0,P|384:310|437:382,2,187.000006362438,10|2|10,0:0|1:2|0:0,0:0:0:0:
419,225,53957,1,0,0:0:0:0:
478,161,54134,2,0,P|512:189|510:235,1,93.500003181219,2|0,1:2|0:0,0:0:0:0:
330,101,54487,2,0,P|351:59|353:13,1,93.500003181219,10|0,0:0|0:3,0:3:0:0:
236,204,54840,2,0,P|168:216|103:242,1,140.250004771828,2|0,1:2|0:0,0:0:0:0:
36,301,55193,2,0,P|66:334|112:332,1,93.500003181219,10|0,0:0|0:0,0:0:0:0:
144,135,55546,2,0,P|123:92|117:46,1,93.500003181219,2|0,1:2|0:0,0:0:0:0:
296,297,55899,6,0,B|381:288|390:362|463:348,2,178.499995178461,14|0|10,0:0|1:0|0:0,0:0:0:0:
432,110,56781,1,2,0:0:0:0:
451,208,56957,2,0,P|410:189|366:183,1,89.2499975892304,2|0,1:2|0:0,0:0:0:0:
260,109,57310,6,0,P|233:74|245:33,1,89.2499975892304,10|0,0:0|0:0,0:0:0:0:
417,34,57663,2,0,P|443:68|431:109,1,89.2499975892304,2|0,1:2|0:0,0:0:0:0:
236,227,58016,2,0,P|151:233|125:312,2,178.499995178461,10|2|10,0:0|1:2|0:0,0:0:0:0:
242,235,59075,2,0,L|224:322,1,89.2499975892304,2|0,1:2|0:0,0:0:0:0:
58,175,59428,2,0,L|93:-1,2,178.499995178461,10|2|10,0:0|1:2|0:0,0:0:0:0:
65,181,60487,6,0,L|152:162,1,89.2499975892304,2|0,1:2|0:0,0:0:0:0:
231,60,60840,2,0,P|274:53|310:77,1,89.2499975892304,10|0,0:0|0:0,0:0:0:0:
321,251,61193,2,0,P|277:258|241:234,1,89.2499975892304,2|0,1:2|0:0,0:0:0:0:
382,11,61546,2,0,B|425:64|425:64|401:125,1,133.874996383846,10|0,0:0|0:0,0:0:0:0:
391,123,61899,2,0,P|401:166|407:210,1,89.2499975892304,2|0,1:2|0:0,0:0:0:0:
267,375,62252,2,0,P|224:326|160:334,1,133.874996383846,10|0,0:0|0:0,0:0:0:0:
156,341,62604,2,0,P|131:305|140:262,1,89.2499975892304,2|0,1:2|0:0,0:0:0:0:
196,77,62957,2,0,B|140:65|110:107|121:122|95:171|40:147,1,178.499995178461,10|2,0:0|1:2,0:0:0:0:
46,142,63663,6,0,P|87:157|132:162,1,89.2499975892304,10|0,0:0|0:0,0:0:0:0:
220,293,64016,2,0,P|261:277|306:272,1,89.2499975892304,2|0,1:2|0:0,0:0:0:0:
446,297,64369,2,0,P|477:326|476:370,1,89.2499975892304,10|0,0:0|0:0,0:0:0:0:
390,193,64722,2,0,P|404:150|409:106,1,89.2499975892304,2|0,1:2|0:0,0:0:0:0:
324,28,65075,1,10,0:0:0:0:
317,20,65428,6,0,P|274:19|242:48,1,89.2499975892304,2|0,1:2|0:0,0:0:0:0:
220,175,65781,2,0,P|134:150|45:141,1,178.499995178461,10|0,0:0|1:0,0:0:0:0:
181,65,66310,2,0,P|244:84|311:94,1,133.874996383846,2|0,0:0|0:0,0:0:0:0:
326,85,66663,5,2,0:0:0:0:
459,185,66840,1,2,1:2:0:0:
305,250,67016,1,2,0:0:0:0:
363,173,67193,1,14,0:0:0:0:
426,312,67369,2,0,P|344:277|255:278,1,178.499995178461,2|2,0:0|0:0,0:0:0:0:
159,350,67899,1,10,0:0:0:0:
20,261,68075,2,0,P|63:250|106:239,1,89.2499975892304,2|0,0:0|1:0,0:0:0:0:
159,157,68428,5,2,0:0:0:0:
82,24,68604,1,10,0:0:0:0:
187,52,68781,1,2,0:0:0:0:
54,129,68957,1,2,1:2:0:0:
207,253,69134,2,0,P|278:203|364:217,1,178.499995178461,2|2,0:0|0:0,0:0:0:0:
512,103,69663,5,2,1:2:0:0:
450,42,69840,2,0,P|420:88|431:128,1,89.2499975892304,2|8,0:0|0:0,0:0:0:0:
508,246,70193,1,2,0:0:0:0:
319,317,70369,1,2,1:2:0:0:
399,382,70546,2,0,P|410:339|421:296,1,89.2499975892304,2|8,0:0|0:0,0:0:0:0:
347,208,70899,1,2,0:0:0:0:
501,358,71075,1,2,1:2:0:0:
319,317,71252,2,0,P|276:306|233:295,1,89.2499975892304,2|8,0:0|0:0,0:0:0:0:
93,193,71604,5,2,0:0:0:0:
11,292,71781,2,0,P|75:233|162:240,1,178.499995178461,2|8,1:2|0:0,0:0:0:0:
256,145,72310,1,2,0:0:0:0:
305,77,72487,1,2,1:2:0:0:
270,0,72663,1,2,0:0:0:0:
170,91,72840,6,0,P|256:112|342:135,2,178.499995178461,10|2|10,0:0|1:2|0:0,0:0:0:0:
2,239,73722,1,0,0:0:0:0:
113,275,73899,2,0,P|102:232|91:189,1,89.2499975892304,2|0,1:2|0:0,0:0:0:0:
260,280,74252,6,0,P|249:323|238:366,1,89.2499975892304,10|0,0:0|0:0,0:0:0:0:
360,317,74604,2,0,P|385:280|384:236,1,89.2499975892304,2|0,1:2|0:0,0:0:0:0:
231,109,74957,2,0,P|250:149|289:170,1,89.2499975892304,10|0,0:0|0:3,0:3:0:0:
476,102,75310,1,2,0:0:0:0:
476,102,75663,6,0,P|434:91|375:76,1,97.7500022071598,14|0,0:1|0:0,0:0:0:0:
372,91,75928,2,0,L|384:138,1,48.8750011035799,2|0,0:1|0:0,0:0:0:0:
486,301,76193,2,0,L|474:254,1,48.8750011035799,2|0,0:1|0:0,0:0:0:0:
512,178,76369,1,10,0:1:0:0:
396,300,76546,1,0,0:0:0:0:
250,204,76722,2,0,P|268:209|297:216,1,48.8750011035799,2|0,1:1|0:0,0:0:0:0:
191,298,76899,5,2,0:1:0:0:
182,292,76987,1,0,0:0:0:0:
174,288,77075,2,0,P|162:242|149:193,1,97.7500022071598,14|0,0:1|0:0,0:0:0:0:
131,186,77340,2,0,L|119:139,1,48.8750011035799,2|0,0:1|0:0,0:0:0:0:
202,17,77604,2,0,L|214:64,1,48.8750011035799,2|0,0:1|0:0,0:0:0:0:
299,101,77781,1,10,0:1:0:0:
382,36,77957,1,2,0:1:0:0:
447,119,78134,1,2,1:1:0:0:
364,184,78311,5,2,0:1:0:0:
355,191,78399,1,0,0:0:0:0:
347,196,78487,2,0,P|327:241|335:288,1,97.7500022071598,14|0,0:1|0:0,0:0:0:0:
344,305,78752,2,0,L|391:317,1,48.8750011035799,2|0,0:1|0:0,0:0:0:0:
234,379,79016,2,0,L|187:367,1,48.8750011035799,2|0,0:1|0:0,0:0:0:0:
144,298,79193,1,10,0:1:0:0:
243,197,79369,1,0,0:0:0:0:
46,121,79546,2,0,L|58:168,1,48.8750011035799,2|0,1:1|0:0,0:0:0:0:
144,182,79722,5,2,0:1:0:0:
148,174,79810,1,0,0:0:0:0:
153,167,79899,2,0,L|128:72,1,97.7500022071598,14|0,0:1|0:0,0:0:0:0:
137,62,80163,2,0,L|184:74,1,48.8750011035799,2|0,0:1|0:3,0:3:0:0:
312,17,80428,2,0,L|359:29,1,48.8750011035799,2|0,0:1|0:0,0:3:0:0:
417,98,80604,1,10,0:1:0:0:
298,149,80781,1,2,0:1:0:0:
336,232,80957,1,2,1:1:0:0:
455,181,81134,5,2,0:1:0:0:
463,186,81222,1,0,0:0:0:0:
472,190,81310,2,0,P|499:229|501:277,1,97.7500022071598,14|0,0:1|0:0,0:0:0:0:
489,290,81575,2,0,L|442:302,1,48.8750011035799,2|0,0:1|0:3,0:3:0:0:
288,244,81840,2,0,L|335:232,1,48.8750011035799,2|0,0:1|0:0,0:3:0:0:
376,159,82016,1,10,0:1:0:0:
329,320,82193,1,0,0:0:0:0:
208,197,82369,2,0,L|220:150,1,48.8750011035799,2|0,1:1|0:3,0:3:0:0:
154,87,82546,5,2,0:1:0:0:
145,93,82634,1,0,0:0:0:0:
137,98,82722,2,0,L|112:192,1,97.7500022071598,14|0,0:1|0:0,0:3:0:0:
100,205,82987,2,0,L|112:252,1,48.8750011035799,2|0,0:1|0:3,0:3:0:0:
37,384,83252,2,0,L|25:337,1,48.8750011035799,2|0,0:1|0:0,0:3:0:0:
0,256,83428,1,10,0:1:0:0:
179,329,83604,1,2,0:1:0:0:
3,246,83781,1,2,1:1:0:0:
182,319,83957,1,2,0:1:0:0:
260,255,84134,6,0,P|306:243|352:231,2,95.6250039830803,14|2|2,0:1|0:1|0:1,0:3:0:0:
319,141,84840,1,2,0:1:0:0:
338,65,85016,1,2,0:1:0:0:
250,0,85193,1,2,0:1:0:0:
231,76,85369,1,2,0:1:0:0:
136,161,85546,6,0,P|90:173|44:185,2,95.6250039830803,10|2|2,0:1|0:1|0:1,0:3:0:0:
90,301,86252,1,2,0:1:0:0:
8,279,86428,1,2,0:1:0:0:
225,361,86604,1,2,0:1:0:0:
143,383,86780,1,2,0:1:0:0:
274,252,86957,5,14,0:1:0:0:
