osu file format v14

[General]
AudioFilename: audio.mp3
AudioLeadIn: 0
PreviewTime:35737
Countdown: 0
SampleSet: Soft
StackLeniency: 1
Mode: 0
LetterboxInBreaks: 0
WidescreenStoryboard: 1

[Editor]
DistanceSpacing: 0.2
BeatDivisor: 4
GridSize: 8
TimelineZoom: 2.5

[Metadata]
Title:Kaibutsu (TV Size)
TitleUnicode:怪物 (TV Size)
Artist:YOASOBI
ArtistUnicode:YOASOBI
Creator:Ryuusei Aika
Version:Flake's Extreme
Source:BEASTARS
Tags:ビースターズ japanese furry anime op2 pop j-pop jpop opening theme 幾田りら Ikuta Rira Lilas Ayase Monster MoeAsuka Atrue SuperBox Fall Marle Calvaria Mariko Sakuragi Reiji Maigo SB hhjkl [Hatsune Miku] [Hatsune_Miku] Hatsune Miku Remapper _lai Kyrian 09kami Ducky- Acyl Acylica Bellicose wafer iWaifu KAMI NO KOTOBA Addy2607 KaedeharaKazuha Airincat Chompy Yooh Reywateil Amateurre Sparhten Ajisai- HabiHolic newton- Yuuma Ogura Yui fedora- UberFazz xidorn Pata-Mon PataMon Deca Wanpachi cycopton Gibune wiken Fuju Stratos Crystal OneShotFox Elcheer Fieryrage hypercyte hypercute Kittyadventure gokugohan12468 Kyouren Zelq ponbot Yuuma3 Mimari i love ganyu Flake yaspo Regraz Mafumafu bongo Moete Senseabel Senseable Kuse KuBsNia_ZhoYL_ wetdog123 eiri-
BeatmapID:2820226
BeatmapSetID:1335792

[Difficulty]
HPDrainRate:6
CircleSize:4.5
OverallDifficulty:9
ApproachRate:9.3
SliderMultiplier:1.80000000596046
SliderTickRate:1

[Events]
//Background and Video events
0,0,"furry.jpg",0,0
Video,-200,"OP.mp4"
//Break Periods
//Storyboard Layer 0 (Background)
//Storyboard Layer 1 (Fail)
//Storyboard Layer 2 (Pass)
//Storyboard Layer 3 (Foreground)
//Storyboard Layer 4 (Overlay)
//Storyboard Sound Samples

[TimingPoints]
-3395,352.941176470588,4,2,1,40,1,0
1546,-133.333333333333,4,2,1,40,0,0
2252,-100,4,2,1,60,0,0
2340,-100,4,2,1,5,0,0
2428,-100,4,2,1,60,0,0
2693,-100,4,2,1,5,0,0
2781,-100,4,2,1,60,0,0
3046,-100,4,2,1,5,0,0
3134,-100,4,2,1,60,0,0
3399,-100,4,2,1,5,0,0
3487,-100,4,2,1,60,0,0
3928,-100,4,2,1,5,0,0
4016,-100,4,2,1,60,0,0
5163,-100,4,2,1,5,0,0
5251,-100,4,2,1,60,0,0
5516,-100,4,2,1,5,0,0
5604,-100,4,2,1,60,0,0
5869,-100,4,2,1,5,0,0
5957,-100,4,2,1,60,0,0
6222,-100,4,2,1,5,0,0
6310,-100,4,2,1,60,0,0
7987,-100,4,2,1,5,0,0
8075,-100,4,2,1,60,0,0
8340,-100,4,2,1,5,0,0
8428,-100,4,2,1,60,0,0
8693,-100,4,2,1,5,0,0
8781,-100,4,2,1,60,0,0
9046,-100,4,2,1,5,0,0
9134,-100,4,2,1,60,0,0
13193,-133.333333333333,4,2,1,60,0,0
13546,-66.6666666666667,4,2,1,70,0,0
13634,-66.6666666666667,4,2,1,5,0,0
13722,-66.6666666666667,4,2,1,70,0,0
13987,-66.6666666666667,4,2,1,5,0,0
14075,-66.6666666666667,4,2,1,70,0,0
14340,-66.6666666666667,4,2,1,5,0,0
14428,-66.6666666666667,4,2,1,70,0,0
14693,-66.6666666666667,4,2,1,5,0,0
14781,-66.6666666666667,4,2,1,70,0,0
15222,-66.6666666666667,4,2,1,5,0,0
15310,-66.6666666666667,4,2,1,70,0,0
16810,-66.6666666666667,4,2,1,5,0,0
16898,-66.6666666666667,4,2,1,70,0,0
17163,-66.6666666666667,4,2,1,5,0,0
17251,-66.6666666666667,4,2,1,70,0,0
17516,-66.6666666666667,4,2,1,5,0,0
17604,-66.6666666666667,4,2,1,70,0,0
19281,-66.6666666666667,4,2,1,5,0,0
19369,-66.6666666666667,4,2,1,70,0,0
19634,-66.6666666666667,4,2,1,5,0,0
19722,-66.6666666666667,4,2,1,70,0,0
19987,-66.6666666666667,4,2,1,5,0,0
20075,-66.6666666666667,4,2,1,70,0,0
24840,-66.6666666666667,4,2,1,60,0,0
25987,-66.6666666666667,4,2,1,5,0,0
26075,-66.6666666666667,4,2,1,60,0,0
26163,-66.6666666666667,4,2,1,5,0,0
26251,-66.6666666666667,4,2,1,60,0,0
27222,-66.6666666666667,4,2,1,5,0,0
27310,-66.6666666666667,4,2,1,60,0,0
27399,-66.6666666666667,4,2,1,5,0,0
27487,-66.6666666666667,4,2,1,60,0,0
28810,-66.6666666666667,4,2,1,5,0,0
28898,-66.6666666666667,4,2,1,60,0,0
28987,-66.6666666666667,4,2,1,5,0,0
29075,-66.6666666666667,4,2,1,60,0,0
30487,-66.6666666666667,4,2,1,75,0,0
30928,-66.6666666666667,4,2,1,5,0,0
31016,-66.6666666666667,4,2,1,75,0,0
31104,-66.6666666666667,4,2,1,5,0,0
31192,-66.6666666666667,4,2,1,75,0,0
31457,-66.6666666666667,4,2,1,5,0,0
31545,-66.6666666666667,4,2,1,75,0,0
32869,-66.6666666666667,4,2,1,5,0,0
32957,-66.6666666666667,4,2,1,75,0,0
33046,-66.6666666666667,4,2,1,5,0,0
33134,-66.6666666666667,4,2,1,75,0,0
33222,-66.6666666666667,4,2,1,5,0,0
33310,-66.6666666666667,4,2,1,75,0,0
35781,-285.714285714286,4,2,1,60,0,0
36046,-285.714285714286,4,2,1,5,0,0
36134,-66.6666666666667,4,2,1,80,0,0
37457,-66.6666666666667,4,2,1,5,0,0
37546,-66.6666666666667,4,2,1,80,0,0
47163,-66.6666666666667,4,2,1,5,0,0
47252,-66.6666666666667,4,2,1,80,0,0
75663,-50,4,2,1,80,0,0
84134,-66.6666666666667,4,2,1,70,0,0
86957,-66.6666666666667,4,2,1,90,0,0

[Colours]
Combo1 : 191,96,0
Combo2 : 143,32,255
Combo3 : 191,0,96
Combo4 : 0,80,159

[HitObjects]
158,171,1546,6,2,L|10:79,1,168.750006996095,2|0,0:0|0:0,0:1:0:0:
3,75,2075,1,0,0:0:0:0:
25,348,2252,6,0,P|29:330|46:304,1,45.0000001490115,10|0,0:0|0:0,0:0:0:0:
105,247,2428,1,0,0:0:0:0:
105,247,2604,6,0,P|109:265|126:291,1,45.0000001490115,10|0,0:0|0:0,0:0:0:0:
185,348,2780,1,2,0:0:0:0:
185,348,2957,6,0,P|189:330|206:304,1,45.0000001490115,10|0,0:0|0:0,0:0:0:0:
265,247,3133,1,0,0:0:0:0:
265,247,3310,6,0,P|269:265|286:291,1,45.0000001490115,10|0,0:0|0:0,0:0:0:0:
345,348,3486,1,2,0:0:0:0:
347,233,3663,6,0,P|362:195|447:145,1,135.000000447034,10|0,0:0|0:0,0:0:0:0:
439,146,4016,1,8,0:0:0:0:
510,288,4193,6,0,P|484:256|434:234,1,90.000000298023,2|8,0:0|0:0,0:0:0:0:
249,367,4546,2,0,P|256:326|288:282,1,90.000000298023,2|8,0:0|0:0,0:0:0:0:
397,27,4899,6,0,P|395:93|353:156,1,135.000000447034,2|0,0:0|0:0,0:0:0:0:
360,151,5252,1,2,0:0:0:0:
266,63,5428,6,0,P|248:47|218:36,1,45.0000001490115,8|0,0:0|0:0,0:0:0:0:
131,60,5604,1,2,0:0:0:0:
131,60,5781,6,0,P|151:73|170:99,1,45.0000001490115,10|0,0:0|0:0,0:0:0:0:
168,189,5957,1,2,0:0:0:0:
168,189,6134,6,0,P|150:173|120:162,1,45.0000001490115,10|0,0:0|0:0,0:0:0:0:
33,186,6310,1,2,0:0:0:0:
173,293,6487,5,10,0:0:0:0:
28,360,6663,2,0,P|53:321|101:293,1,90.000000298023,2|8,0:0|0:0,0:0:0:0:
243,239,7016,6,0,L|343:301,2,90.000000298023,2|10|2,0:0|0:0|0:0,0:0:0:0:
368,366,7546,2,0,P|393:327|441:299,1,90.000000298023,10|2,0:0|0:0,0:0:0:0:
501,269,7899,6,0,P|489:248|457:229,1,45.0000001490115,10|0,0:0|0:0,0:0:0:0:
423,150,8075,1,0,0:0:0:0:
423,150,8252,6,0,P|411:171|379:190,1,45.0000001490115,10|0,0:0|0:0,0:0:0:0:
345,269,8428,1,2,0:0:0:0:
345,269,8604,6,0,P|333:248|301:229,1,45.0000001490115,10|0,0:0|0:0,0:0:0:0:
267,150,8780,1,2,0:0:0:0:
267,150,8957,6,0,P|255:171|223:190,1,45.0000001490115,10|0,0:0|0:0,0:0:0:0:
189,269,9133,1,2,0:0:0:0:
131,199,9310,5,10,0:0:0:0:
138,348,9487,2,0,P|89:336|48:304,1,90.000000298023,0|10,0:0|0:0,0:0:0:0:
275,123,9840,2,0,P|239:150|216:188,1,90.000000298023,2|8,0:0|0:0,0:0:0:0:
368,366,10193,2,0,P|347:326|342:282,1,90.000000298023,2|8,0:0|0:0,0:0:0:0:
473,92,10546,6,0,P|431:109|398:139,1,90.000000298023,2|8,0:0|0:0,0:0:0:0:
432,295,10899,1,2,0:0:0:0:
328,197,11075,1,10,0:0:0:0:
267,323,11252,1,0,0:0:0:0:
267,323,11604,5,2,0:0:0:0:
432,295,11781,1,10,0:0:0:0:
328,197,11957,1,2,0:0:0:0:
342,281,12134,5,10,0:0:0:0:
342,281,12487,5,10,0:0:0:0:
342,281,12840,5,8,0:0:0:0:
356,202,13193,6,0,L|363:167,2,33.750001399219,2|0|0,0:3|0:0|0:0,0:0:0:0:
42,370,13546,6,0,P|72:365|108:345,1,67.500002798438,10|0,0:0|0:0,0:0:0:0:
181,290,13722,1,0,0:0:0:0:
181,290,13899,6,0,P|151:285|115:265,1,67.500002798438,2|0,1:2|0:0,0:0:0:0:
42,210,14075,1,2,0:0:0:0:
42,210,14252,6,0,P|72:205|108:185,1,67.500002798438,10|0,0:0|0:0,0:0:0:0:
181,130,14428,1,2,0:0:0:0:
181,130,14604,6,0,P|151:125|115:105,1,67.500002798438,2|0,1:2|0:0,0:0:0:0:
42,50,14780,1,2,0:0:0:0:
369,59,14957,6,0,B|347:17|302:-5|256:3|225:29|225:29|231:62,1,202.500008395314,10|0,0:0|0:0,0:0:0:0:
231,62,15310,1,0,1:0:0:0:
450,217,15487,6,0,P|462:143|495:79,1,135.000005596876,2|8,0:0|0:0,0:0:0:0:
369,59,15840,2,0,P|360:125|332:187,1,135.000005596876,2|0,0:0|1:0,0:0:0:0:
42,210,16193,5,2,0:0:0:0:
42,210,16546,1,2,0:0:0:0:
152,108,16722,6,0,P|123:124|90:171,1,67.500002798438,0|0,1:0|0:0,0:0:0:0:
101,277,16899,1,2,0:0:0:0:
101,277,17075,6,0,P|116:247|164:215,1,67.500002798438,10|0,0:0|0:0,0:0:0:0:
239,206,17252,1,2,0:0:0:0:
239,206,17428,6,0,P|221:234|216:291,1,67.500002798438,2|0,1:2|0:0,0:0:0:0:
258,344,17605,1,2,0:0:0:0:
324,176,17781,5,10,0:0:0:0:
463,339,17957,2,0,P|403:283|382:218,1,135.000005596876,2|0,0:0|1:0,0:0:0:0:
485,7,18310,6,0,L|383:102,1,135.000005596876,2|10,0:0|0:0,0:0:0:0:
386,99,18663,1,2,0:0:0:0:
150,22,18840,2,0,P|206:82|271:103,1,135.000005596876,2|2,1:2|0:0,0:0:0:0:
254,100,19193,6,0,P|215:115|175:110,1,67.500002798438,10|0,0:0|0:0,0:0:0:0:
51,69,19369,1,0,0:0:0:0:
51,69,19546,6,0,P|83:95|98:132,1,67.500002798438,2|0,1:2|0:0,0:0:0:0:
125,260,19722,1,0,0:0:0:0:
125,260,19899,6,0,P|132:218|156:186,1,67.500002798438,10|0,0:0|0:0,0:0:0:0:
253,100,20075,1,2,0:0:0:0:
323,169,20252,1,2,1:2:0:0:
385,101,20428,6,0,P|446:59|521:47,1,135.000005596876,2|8,0:0|0:0,0:0:0:0:
512,277,20781,2,0,P|466:227|405:200,2,135.000005596876,2|2|2,0:0|1:2|0:0,0:0:0:0:
242,226,21310,1,8,0:0:0:0:
365,327,21487,1,2,0:0:0:0:
310,385,21663,2,0,P|329:320|324:254,1,135.000005596876,2|2,1:2|0:0,0:0:0:0:
141,222,22016,5,8,0:0:0:0:
141,222,22193,2,0,P|105:278|93:345,2,135.000005596876,2|2|0,0:0|1:2|0:0,0:0:0:0:
31,240,22722,5,10,0:0:0:0:
170,133,22899,2,0,P|138:73|86:30,2,135.000005596876,2|0|2,0:0|1:0|0:0,0:0:0:0:
209,28,23427,5,10,0:0:0:0:
232,202,23604,2,0,P|299:204|362:181,1,135.000005596876,0|2,0:0|1:2,0:0:0:0:
362,181,23957,1,0,0:0:0:0:
406,368,24134,6,0,L|433:215,1,135.000005596876,10|0,0:0|0:0,0:0:0:0:
503,30,24487,2,0,L|479:162,1,135.000005596876,2|0,1:2|0:0,0:0:0:0:
456,306,24840,5,10,0:1:0:0:
56,132,25193,5,2,1:2:0:0:
153,338,25369,1,10,1:1:0:0:
81,369,25722,5,10,0:1:0:0:
136,103,25899,2,0,L|147:36,1,67.500002798438,0|0,1:2|0:0,0:0:0:0:
109,212,26075,6,0,L|97:278,1,67.500002798438,10|0,0:1|0:0,0:0:0:0:
56,132,26604,5,2,1:2:0:0:
357,66,26781,1,2,1:2:0:0:
370,150,27134,6,0,L|282:132,1,67.500002798438,10|0,0:1|0:0,0:0:0:0:
66,57,27310,2,0,L|-22:39,1,67.500002798438,2|0,1:2|0:0,0:0:0:0:
228,347,27663,5,10,0:1:0:0:
503,30,28016,5,2,1:2:0:0:
406,368,28193,1,10,1:1:0:0:
481,324,28546,5,10,0:1:0:0:
432,103,28722,2,0,L|421:21,1,67.500002798438,0|0,1:2|0:0,0:0:0:0:
497,169,28899,6,0,L|505:235,1,67.500002798438,10|0,0:1|0:0,0:0:0:0:
32,198,29428,5,2,1:2:0:0:
370,150,29604,1,2,1:2:0:0:
314,209,29781,6,0,P|259:190|178:192,1,135.000005596876,10|2,0:1|0:0,0:0:0:0:
201,54,30134,2,0,P|256:73|337:71,1,135.000005596876,10|2,0:1|0:0,0:0:0:0:
339,69,30399,1,0,0:0:0:0:
348,65,30487,6,0,P|421:52|496:169,1,202.500008395314,14|0,0:0|0:0,0:0:0:0:
512,243,30840,2,0,B|488:221|488:221|437:220,1,67.500002798438,2|0,1:2|0:0,0:0:0:0:
427,305,31016,2,0,B|450:326|450:326|501:327,1,67.500002798438,2|0,1:2|0:0,0:0:0:0:
314,209,31193,6,0,B|282:188|282:188|321:367,1,202.500008395314,10|0,0:0|0:0,0:0:0:0:
320,360,31546,1,0,1:0:0:0:
18,278,31722,5,2,0:0:0:0:
31,263,31810,1,0,0:0:0:0:
49,254,31899,1,8,0:0:0:0:
240,357,32075,5,2,0:0:0:0:
87,328,32252,1,2,1:2:0:0:
212,122,32428,2,0,L|186:262,1,135.000005596876,2|8,1:2|0:0,0:0:0:0:
187,254,32781,6,0,B|165:226|165:226|120:211,1,67.500002798438,2|0,0:0|0:0,0:0:0:0:
212,122,32957,2,0,B|246:117|246:117|282:85,1,67.500002798438,2|0,1:2|0:0,0:0:0:0:
314,209,33134,2,0,B|300:241|300:241|310:287,1,67.500002798438,2|0,0:0|0:0,0:0:0:0:
486,303,33310,6,0,L|464:146,1,135.000005596876,10|0,0:0|0:0,0:0:0:0:
443,35,33663,1,2,1:2:0:0:
501,94,33840,1,0,1:0:0:0:
314,209,34016,6,0,P|251:203|179:145,1,135.000005596876,10|2,0:0|0:0,0:0:0:0:
303,23,34369,1,0,1:0:0:0:
46,70,34722,5,8,0:0:0:0:
94,326,35075,1,10,0:0:0:0:
350,279,35428,1,10,0:0:0:0:
303,23,35781,6,0,L|353:11,1,47.2499987145065,2|0,0:1|0:0,0:0:0:0:
361,17,36134,5,14,0:0:0:0:
192,163,36310,1,2,0:0:0:0:
459,213,36487,1,0,1:0:0:0:
429,290,36663,5,2,0:0:0:0:
361,17,36840,1,10,0:0:0:0:
182,239,37016,1,0,0:0:0:0:
437,137,37193,5,2,1:2:0:0:
231,100,37369,2,0,P|260:115|289:150,1,67.500002798438,2|0,0:0|0:0,0:0:0:0:
269,227,37546,5,8,0:0:0:0:
283,35,37722,1,2,0:0:0:0:
294,305,37899,2,0,L|438:288,1,135.000005596876,2|2,1:2|0:0,0:0:0:0:
86,0,38252,6,0,L|66:133,1,135.000005596876,10|0,0:0|0:0,0:0:0:0:
435,244,38516,1,0,0:0:0:0:
446,251,38604,2,0,L|426:384,1,135.000005596876,2|0,1:2|0:0,0:0:0:0:
348,368,38957,5,10,0:0:0:0:
207,193,39134,1,2,0:0:0:0:
4,296,39310,1,0,1:0:0:0:
65,345,39487,5,2,0:0:0:0:
65,133,39663,2,0,P|110:82|185:57,1,135.000005596876,10|0,0:0|0:0,0:0:0:0:
364,256,40016,5,2,1:2:0:0:
250,105,40193,2,0,P|295:156|370:181,1,135.000005596876,2|8,0:0|0:0,0:0:0:0:
424,140,40546,5,2,0:0:0:0:
207,193,40722,1,2,1:2:0:0:
512,384,40899,5,2,0:0:0:0:
487,93,41075,1,10,0:0:0:0:
282,211,41252,5,2,0:0:0:0:
480,303,41428,1,2,1:2:0:0:
328,356,41604,1,2,0:0:0:0:
268,295,41781,5,10,0:0:0:0:
341,272,41957,1,0,0:0:0:0:
207,193,42134,5,2,1:2:0:0:
273,119,42310,1,0,0:0:0:0:
83,186,42487,5,10,0:0:0:0:
117,20,42663,1,0,0:0:0:0:
44,384,42840,6,0,L|11:253,1,135.000005596876,2|0,1:2|0:0,0:0:0:0:
0,85,43193,5,10,0:0:0:0:
148,352,43369,1,0,0:0:0:0:
174,78,43546,5,2,1:2:0:0:
225,285,43722,1,0,0:0:0:0:
333,14,43899,5,10,0:0:0:0:
326,325,44075,1,0,0:0:0:0:
0,85,44252,1,2,1:2:0:0:
148,352,44428,1,0,0:0:0:0:
11,252,44604,5,10,0:0:0:0:
403,321,44781,1,0,0:0:0:0:
81,206,44957,5,2,1:2:0:0:
274,188,45134,1,2,0:0:0:0:
127,138,45310,5,10,0:0:0:0:
215,105,45487,1,0,0:0:0:0:
146,56,45663,5,2,1:2:0:0:
488,210,45840,2,0,L|517:51,1,135.000005596876,2|8,0:0|0:0,0:0:0:0:
464,13,46193,5,2,0:0:0:0:
415,255,46369,1,2,1:2:0:0:
386,52,46546,2,0,L|361:184,1,135.000005596876,2|10,0:0|0:0,0:0:0:0:
415,255,46899,5,2,1:2:0:0:
331,351,47075,2,0,P|309:332|270:317,1,67.500002798438,2|0,1:2|0:0,0:0:0:0:
179,220,47252,1,2,1:2:0:0:
189,228,47340,1,2,1:2:0:0:
201,233,47428,6,0,P|130:247|24:338,1,202.500008395314,14|0,0:0|0:0,0:0:0:0:
30,327,47781,1,0,1:0:0:0:
164,365,47957,5,2,0:0:0:0:
8,203,48134,1,10,0:0:0:0:
133,153,48310,2,0,L|149:18,1,135.000005596876,2|0,0:0|1:0,0:0:0:0:
99,79,48663,5,2,0:0:0:0:
304,36,48840,1,10,0:0:0:0:
219,141,49016,1,2,0:0:0:0:
507,79,49193,5,2,1:2:0:0:
201,233,49369,2,0,L|336:249,1,135.000005596876,2|8,0:0|0:0,0:0:0:0:
412,261,49722,1,2,0:0:0:0:
148,18,49899,5,2,1:2:0:0:
247,334,50075,2,0,L|112:350,1,135.000005596876,2|8,0:0|0:0,0:0:0:0:
36,362,50428,1,2,0:0:0:0:
442,156,50604,5,2,1:2:0:0:
55,286,50781,2,0,L|71:151,1,135.000005596876,2|8,0:0|0:0,0:0:0:0:
83,75,51134,1,2,0:0:0:0:
9,107,51310,5,2,1:2:0:0:
399,338,51487,2,0,L|383:203,1,135.000005596876,2|8,0:0|0:0,0:0:0:0:
371,127,51840,1,2,0:0:0:0:
201,233,52016,1,2,1:2:0:0:
442,156,52369,5,10,0:0:0:0:
83,75,52546,1,2,0:0:0:0:
383,203,52722,5,2,1:2:0:0:
115,233,52899,1,2,0:0:0:0:
187,319,53075,6,0,P|231:273|306:251,1,135.000005596876,10|0,0:0|0:0,0:0:0:0:
512,366,53428,2,0,P|481:310|414:269,1,135.000005596876,2|0,1:2|0:0,0:0:0:0:
83,75,53781,6,0,P|127:121|202:143,1,135.000005596876,10|0,0:0|0:0,0:0:0:0:
507,113,54134,5,2,1:2:0:0:
282,0,54310,1,0,0:0:0:0:
297,251,54487,6,0,P|344:208|420:191,1,135.000005596876,10|0,0:0|0:0,0:0:0:0:
282,0,54840,2,0,P|295:62|271:136,1,135.000005596876,2|0,1:2|0:0,0:0:0:0:
507,113,55193,2,0,P|446:93|393:35,1,135.000005596876,10|0,0:0|0:0,0:0:0:0:
297,251,55546,2,0,P|344:208|420:191,1,135.000005596876,2|0,1:2|0:0,0:0:0:0:
161,362,55899,6,0,L|140:151,1,202.500008395314,14|0,0:0|0:0,0:0:0:0:
147,146,56252,2,0,B|84:116|84:116|26:154,1,135.000005596876,0|0,1:0|0:0,0:0:0:0:
247,322,56604,2,0,B|310:352|310:352|368:314,1,135.000005596876,10|2,0:0|0:0,0:0:0:0:
445,300,56957,1,2,1:2:0:0:
297,251,57134,1,0,0:0:0:0:
491,227,57310,6,0,L|512:74,1,135.000005596876,10|0,0:0|0:0,0:0:0:0:
2,93,57663,2,0,L|21:227,1,135.000005596876,2|0,1:2|0:0,0:0:0:0:
465,21,58016,6,0,B|372:39|372:39|348:78,1,135.000005596876,10|0,0:0|0:0,0:0:0:0:
47,21,58369,2,0,B|140:39|140:39|164:78,1,135.000005596876,2|0,1:2|0:0,0:0:0:0:
256,32,58722,1,10,0:0:0:0:
21,227,59075,6,0,L|154:245,1,135.000005596876,2|0,1:2|0:0,0:0:0:0:
491,157,59428,2,0,L|357:138,1,135.000005596876,10|0,0:0|0:0,0:0:0:0:
111,340,59781,6,0,L|244:321,1,135.000005596876,2|0,1:2|0:0,0:0:0:0:
401,44,60134,5,10,0:0:0:0:
401,44,60487,2,0,L|267:62,1,135.000005596876,2|0,1:2|0:0,0:0:0:0:
108,47,60840,2,0,L|126:180,1,135.000005596876,10|0,0:0|0:0,0:0:0:0:
111,340,61193,2,0,L|244:321,1,135.000005596876,2|0,1:2|0:0,0:0:0:0:
404,337,61546,6,0,P|431:277|442:209,1,135.000005596876,10|0,0:0|0:0,0:0:0:0:
342,271,61899,2,0,P|335:205|310:141,1,135.000005596876,2|0,1:2|0:0,0:0:0:0:
108,47,62252,6,0,P|135:107|146:175,1,135.000005596876,10|0,0:0|0:0,0:0:0:0:
46,113,62605,2,0,P|39:178|14:242,1,135.000005596876,2|0,1:2|0:0,0:0:0:0:
314,366,62957,2,0,P|327:235|376:106,1,270.000011193752,10|2,0:0|1:2,0:0:0:0:
376,106,63487,1,2,0:0:0:0:
471,239,63663,6,0,P|404:245|341:270,1,135.000005596876,10|0,0:0|0:0,0:0:0:0:
289,32,64016,2,0,P|355:25|418:0,1,135.000005596876,2|0,1:2|0:0,0:0:0:0:
212,21,64369,6,0,L|189:172,1,135.000005596876,10|0,0:0|0:0,0:0:0:0:
4,133,64722,2,0,L|27:-18,1,135.000005596876,2|0,1:2|0:0,0:0:0:0:
66,194,65075,6,0,L|89:345,1,135.000005596876,10|0,0:0|0:0,0:0:0:0:
486,274,65428,2,0,L|463:123,1,135.000005596876,2|0,1:2|0:0,0:0:0:0:
281,118,65781,6,0,L|239:390,1,270.000011193752,10|0,0:0|1:0,0:0:0:0:
66,194,66310,1,2,0:0:0:0:
86,327,66487,1,8,0:0:0:0:
393,293,66663,5,2,0:0:0:0:
127,252,66840,1,2,1:2:0:0:
374,145,67016,1,2,0:0:0:0:
240,384,67193,5,14,0:0:0:0:
194,80,67369,2,0,P|149:38|63:12,1,135.000005596876,2|0,0:0|1:0,0:0:0:0:
282,49,67722,5,2,0:0:0:0:
66,194,67899,1,10,0:0:0:0:
186,310,68075,2,0,P|252:299|309:264,1,135.000005596876,2|0,0:0|1:0,0:0:0:0:
353,361,68428,5,2,0:0:0:0:
302,181,68604,1,10,0:0:0:0:
477,291,68781,5,2,0:0:0:0:
151,227,68957,1,2,1:2:0:0:
438,213,69134,2,0,P|459:169|467:59,1,135.000005596876,2|8,0:0|0:0,0:0:0:0:
444,11,69487,1,2,0:0:0:0:
229,371,69663,5,2,1:2:0:0:
238,42,69840,2,0,P|217:86|209:196,1,135.000005596876,2|8,0:0|0:0,0:0:0:0:
228,258,70193,1,2,0:0:0:0:
444,11,70369,5,2,1:2:0:0:
228,258,70546,2,0,L|385:280,1,135.000005596876,2|8,0:0|0:0,0:0:0:0:
477,291,70899,1,2,0:0:0:0:
163,311,71075,5,2,1:2:0:0:
487,75,71252,2,0,L|330:53,1,135.000005596876,2|8,0:0|0:0,0:0:0:0:
238,42,71605,1,2,0:0:0:0:
317,353,71781,1,2,1:2:0:0:
42,135,72134,5,8,0:0:0:0:
353,56,72310,1,2,0:0:0:0:
140,163,72487,5,2,1:2:0:0:
295,184,72663,1,2,0:0:0:0:
51,360,72840,6,0,B|26:246|26:246|39:213,1,135.000005596876,10|0,0:0|0:0,0:0:0:0:
205,0,73193,2,0,B|230:114|230:114|217:147,1,135.000005596876,2|0,1:2|0:0,0:0:0:0:
0,64,73546,6,0,L|138:34,1,135.000005596876,10|0,0:0|0:0,0:0:0:0:
252,295,73899,2,0,L|114:325,1,135.000005596876,2|0,1:2|0:0,0:0:0:0:
326,56,74252,6,0,P|266:75|220:139,1,135.000005596876,10|0,0:0|0:0,0:0:0:0:
495,240,74604,2,0,P|508:178|476:106,1,135.000005596876,2|0,1:2|0:0,0:0:0:0:
252,295,74957,2,0,P|298:337|376:345,1,135.000005596876,10|0,0:0|0:0,0:0:0:0:
337,258,75310,1,2,0:0:0:0:
44,369,75663,6,0,B|78:359|83:322|83:322|63:182,1,180.000000596046,14|0,0:1|0:0,0:0:0:0:
11,146,75928,1,2,0:1:0:0:
156,198,76016,2,0,L|170:105,1,90.000000298023,0|0,1:0|0:0,0:0:0:0:
87,109,76193,2,0,L|73:20,1,90.000000298023,2|0,0:1|0:0,0:0:0:0:
302,26,76369,6,0,B|262:22|262:22|261:19|261:19|262:21|262:21|217:57,1,90.000000298023,10|0,0:1|0:0,0:0:0:0:
254,129,76546,2,0,B|294:133|294:133|295:136|295:136|294:134|294:134|339:98,1,90.000000298023
420,217,76722,6,0,B|460:213|460:213|461:210|461:210|460:212|460:212|505:248,1,90.000000298023,2|0,1:1|0:0,0:0:0:0:
467,319,76899,2,0,B|427:323|427:323|426:326|426:326|427:324|427:324|382:288,1,90.000000298023,2|0,0:1|0:0,0:0:0:0:
66,208,77075,6,0,B|62:228|62:228|54:230|54:230|130:213|130:213|138:206|138:206|217:189,1,180.000000596046,14|0,0:1|0:0,0:0:0:0:
264,238,77340,1,2,0:1:0:0:
135,293,77428,2,0,B|208:308|208:308|241:289,1,90.000000298023,0|0,1:0|0:0,0:0:0:0:
333,208,77604,2,0,B|345:200|345:200|419:216,1,90.000000298023,2|0,0:1|0:0,0:0:0:0:
225,45,77781,6,0,B|236:87|236:87|242:91|242:91|254:129,1,90.000000298023,10|0,0:1|0:0,0:0:0:0:
506,234,77957,2,0,B|464:222|464:222|457:226|457:226|419:216,1,90.000000298023,2|0,0:1|0:0,0:0:0:0:
162,367,78134,2,0,B|192:336|192:336|193:329|193:329|220:300,1,90.000000298023,2|0,1:1|0:0,0:0:0:0:
325,226,78310,1,2,0:1:0:0:
282,243,78399,1,0,0:0:0:0:
294,203,78487,6,0,B|344:194|344:194|381:222|381:222|379:229|379:229|412:253|412:253|470:239,1,180.000000596046,14|0,0:1|0:0,0:0:0:0:
394,134,78752,1,2,0:1:0:0:
487,140,78840,2,0,B|500:108|500:108|509:103|509:103|501:108|501:108|448:115,1,90.000000298023,0|0,1:0|0:0,0:0:0:0:
320,60,79016,2,0,B|341:32|341:32|341:22|341:22|340:31|340:31|361:81,1,90.000000298023,2|0,0:1|0:0,0:0:0:0:
395,281,79193,6,0,B|378:376,1,90.000000298023,10|0,0:1|0:0,0:0:0:0:
286,357,79369,2,0,B|301:268,1,90.000000298023
121,100,79546,6,0,B|138:195,1,90.000000298023,2|0,1:1|0:0,0:0:0:0:
224,173,79722,2,0,B|208:84,1,90.000000298023,2|0,0:1|0:0,0:0:0:0:
104,273,79899,6,0,B|94:287|94:287|161:309|161:309|220:262|220:262|204:253,1,180.000000596046,14|0,0:1|0:0,0:0:0:0:
136,188,80163,1,2,0:1:0:0:
267,170,80252,6,0,B|268:183|276:199|276:199|212:167,1,90.000000298023,0|0,1:0|0:0,0:0:0:0:
10,226,80428,2,0,B|13:236|13:256|13:256|59:201,1,90.000000298023,2|0,0:1|0:0,0:0:0:0:
121,100,80604,6,0,B|105:11,1,90.000000298023,10|0,0:1|0:0,0:0:0:0:
104,273,80781,2,0,B|47:343,1,90.000000298023,2|0,0:1|0:0,0:0:0:0:
206,253,80957,2,0,B|286:293,1,90.000000298023,2|0,1:1|0:0,0:0:0:0:
461,50,81134,5,2,0:1:0:0:
445,41,81222,1,0,0:0:0:0:
429,32,81310,6,0,B|446:114|446:114|433:99|433:99|451:183,1,180.000000596046,14|0,0:1|0:0,0:0:0:0:
390,232,81575,1,2,0:1:0:0:
495,295,81663,6,0,B|514:274|514:274|448:286,1,90.000000298023,0|0,1:0|0:0,0:0:0:0:
316,142,81840,2,0,B|297:163|297:163|363:151,1,90.000000298023,2|0,0:1|0:0,0:0:0:0:
266,373,82016,6,0,P|236:358|179:350,1,90.000000298023,10|0,0:1|0:0,0:0:0:0:
206,253,82193,2,0,P|236:268|293:276,1,90.000000298023
61,220,82369,6,0,P|91:205|148:197,1,90.000000298023,2|0,1:1|0:0,0:0:0:0:
121,100,82546,2,0,P|91:115|34:123,1,90.000000298023,2|0,0:1|0:0,0:0:0:0:
298,32,82722,6,0,B|359:26|381:77|381:77|355:157,1,180.000000596046,14|0,0:1|0:0,0:0:0:0:
293,196,82987,1,2,0:1:0:0:
456,285,83075,6,0,P|436:251|390:218,1,90.000000298023,0|0,1:0|0:0,0:0:0:0:
293,196,83252,2,0,P|254:206|211:242,1,90.000000298023,2|0,0:1|0:0,0:0:0:0:
20,366,83428,6,0,L|1:256,1,90.000000298023,10|0,0:1|0:0,0:0:0:0:
139,257,83604,2,0,L|154:345,1,90.000000298023,2|0,0:1|0:0,0:0:0:0:
136,11,83781,6,0,L|117:121,1,90.000000298023,2|0,1:1|0:0,0:0:0:0:
282,120,83957,2,0,L|297:31,1,90.000000298023,2|0,0:1|0:0,0:0:0:0:
376,19,84134,6,0,P|440:15|457:84,1,135.000005596876,14|0,0:1|0:0,0:0:0:0:
484,93,84399,2,0,P|420:89|403:158,1,135.000005596876,2|0,0:1|0:0,0:0:0:0:
379,166,84663,2,0,P|417:163|427:205,1,67.500002798438,2|0,0:1|0:0,0:0:0:0:
482,369,84840,6,0,L|506:211,1,135.000005596876,2|2,0:1|0:1,0:0:0:0:
505,214,85193,2,0,L|484:347,1,135.000005596876,2|2,0:1|0:1,0:0:0:0:
381,363,85546,6,0,P|393:322|315:284,1,135.000005596876,10|0,0:1|0:0,0:0:0:0:
298,253,85810,2,0,P|310:294|232:332,1,135.000005596876,2|0,0:1|0:0,0:0:0:0:
214,352,86075,2,0,P|222:323|167:296,1,67.500002798438,2|0,0:1|0:0,0:0:0:0:
139,245,86252,1,2,0:1:0:0:
14,379,86428,5,2,0:1:0:0:
90,352,86604,1,2,0:1:0:0:
139,245,86781,1,2,0:1:0:0:
103,75,86957,5,14,0:1:0:0:
