osu file format v14

[General]
AudioFilename: audio.mp3
AudioLeadIn: 0
PreviewTime:35737
Countdown: 0
SampleSet: Soft
StackLeniency: 0.5
Mode: 0
LetterboxInBreaks: 0
WidescreenStoryboard: 1

[Editor]
Bookmarks:1543,2249,7896,13543,19190,24837,30484,36131,47072,47425,55896,60484,61543,67190,75660,79896,84131,86954
DistanceSpacing: 0.3
BeatDivisor: 4
GridSize: 32
TimelineZoom: 2.1

[Metadata]
Title:Kaibutsu (TV Size)
TitleUnicode:怪物 (TV Size)
Artist:YOASOBI
ArtistUnicode:YOASOBI
Creator:Ryuusei Aika
Version:Fall's Insane
Source:BEASTARS
Tags:ビースターズ japanese furry anime op2 pop j-pop jpop opening theme 幾田りら Ikuta Rira Lilas Ayase Monster MoeAsuka Atrue SuperBox Fall Marle Calvaria Mariko Sakuragi Reiji Maigo SB hhjkl [Hatsune Miku] [Hatsune_Miku] Hatsune Miku Remapper _lai Kyrian 09kami Ducky- Acyl Acylica Bellicose wafer iWaifu KAMI NO KOTOBA Addy2607 KaedeharaKazuha Airincat Chompy Yooh Reywateil Amateurre Sparhten Ajisai- HabiHolic newton- Yuuma Ogura Yui fedora- UberFazz xidorn Pata-Mon PataMon Deca Wanpachi cycopton Gibune wiken Fuju Stratos Crystal OneShotFox Elcheer Fieryrage hypercyte hypercute Kittyadventure gokugohan12468 Kyouren Zelq ponbot Yuuma3 Mimari i love ganyu Flake yaspo Regraz Mafumafu bongo Moete Senseabel Senseable Kuse KuBsNia_ZhoYL_ wetdog123 eiri-
BeatmapID:2820223
BeatmapSetID:1335792

[Difficulty]
HPDrainRate:6
CircleSize:4
OverallDifficulty:8
ApproachRate:9
SliderMultiplier:1.6
SliderTickRate:1

[Events]
//Background and Video events
0,0,"furry.jpg",0,0
Video,-200,"OP.mp4"
//Break Periods
//Storyboard Layer 0 (Background)
//Storyboard Layer 1 (Fail)
//Storyboard Layer 2 (Pass)
//Storyboard Layer 3 (Foreground)
//Storyboard Layer 4 (Overlay)
//Storyboard Sound Samples

[TimingPoints]
-3395,352.941176470588,4,2,1,40,1,0
1546,-133.333333333333,4,2,1,40,0,0
2252,-133.333333333333,4,2,1,60,0,0
13193,-200,4,2,1,60,0,0
13546,-200,4,2,1,70,0,0
14252,-111.111111111111,4,2,1,70,0,0
24840,-111.111111111111,4,2,1,60,0,0
30487,-76.9230769230769,4,2,1,75,0,0
35075,-133.333333333333,4,2,1,75,0,0
35781,-100,4,2,1,60,0,0
36046,-100,4,2,1,5,0,0
36134,-100,4,2,1,80,0,1
36310,-66.6666666666667,4,2,1,80,0,1
46546,-83.3333333333333,4,2,1,80,0,1
47075,-83.3333333333333,4,2,1,80,0,0
47428,-66.6666666666667,4,2,1,80,0,1
55899,-80,4,2,1,80,0,0
67193,-66.6666666666667,4,2,1,80,0,1
75663,-90.9090909090909,4,2,1,80,0,0
84134,-250,4,2,1,70,0,0
86957,-250,4,2,1,90,0,0

[Colours]
Combo1 : 191,96,0
Combo2 : 143,32,255
Combo3 : 191,0,96
Combo4 : 0,80,159

[HitObjects]
156,118,1546,6,2,B|204:119|204:119|202:169|202:169|154:167|154:167|155:133,1,180,2|0,2:0|2:0,2:1:0:0:
154,134,2252,5,10,2:0:0:0:
82,171,2428,1,0,2:0:0:0:
63,250,2605,1,10,2:0:0:0:
3,304,2781,1,2,2:0:0:0:
78,331,2957,6,0,P|97:360|101:391,1,60.0000000000001,10|0,2:0|2:0,2:0:0:0:
207,309,3310,2,0,P|199:342|180:367,1,60.0000000000001,10|2,2:0|2:0,2:0:0:0:
322,327,3663,6,0,P|310:286|311:204,1,120,10|8,2:0|2:0,2:0:0:0:
344,136,4193,2,0,B|382:130|382:130|398:139|398:139|410:124|410:124|466:112,1,120,2|2,2:0|2:0,2:0:0:0:
452,114,4722,1,8,2:0:0:0:
333,40,4899,1,2,2:0:0:0:
333,40,5252,5,2,2:0:0:0:
229,18,5428,2,0,P|212:48|218:79,1,60.0000000000001,8|2,2:0|2:0,2:0:0:0:
311,178,5781,2,0,P|301:144|275:127,1,60.0000000000001,10|2,2:0|2:0,2:0:0:0:
192,162,6134,1,10,2:0:0:0:
192,162,6310,1,2,2:0:0:0:
111,100,6487,1,10,2:0:0:0:
10,154,6663,1,2,2:0:0:0:
10,154,7016,5,2,2:0:0:0:
73,229,7193,2,0,B|87:261|87:261|74:298,1,60.0000000000001,10|2,2:0|2:0,2:0:0:0:
21,351,7546,1,10,2:0:0:0:
21,351,7722,1,2,2:0:0:0:
86,295,7899,6,0,L|152:302,1,60.0000000000001,10|0,2:0|2:0,2:0:0:0:
220,208,8252,2,0,L|154:215,1,60.0000000000001,10|2,2:0|2:0,2:0:0:0:
89,145,8605,1,10,2:0:0:0:
141,67,8781,1,2,2:0:0:0:
209,110,8957,1,10,2:0:0:0:
261,32,9134,1,2,2:0:0:0:
349,93,9310,6,0,P|346:143|352:170,2,60.0000000000001,10|0|10,2:0|2:0|2:0,2:0:0:0:
349,93,9840,1,2,2:0:0:0:
316,226,10193,6,0,P|367:230|425:175,1,120,2|2,2:0|2:0,2:0:0:0:
418,189,10899,1,2,2:0:0:0:
418,189,11957,5,2,2:0:0:0:
466,268,12134,1,10,2:0:0:0:
420,344,12310,1,2,2:0:0:0:
334,345,12487,1,10,2:0:0:0:
288,269,12663,2,0,B|259:218|201:235|201:235|176:263,1,120,2|2,2:0|2:0,2:0:0:0:
189,248,13193,6,0,L|196:279,2,20,2|0|2,2:3|2:0|2:0,2:0:0:0:
104,203,13546,5,10,2:0:0:0:
136,122,13722,1,0,2:0:0:0:
248,119,13899,1,2,1:2:0:0:
227,23,14075,1,2,2:0:0:0:
115,42,14252,6,0,B|68:66|68:66|62:107,1,72.0000000000001,10|2,2:0|2:0,2:0:0:0:
248,119,14605,2,0,B|295:95|295:95|301:54,1,72.0000000000001,2|2,1:2|2:0,2:0:0:0:
431,6,14957,2,0,B|415:49|415:49|462:142,1,144,10|0,2:0|1:0,2:0:0:0:
506,213,15487,2,0,L|434:242,1,72.0000000000001,2|8,2:0|2:0,2:0:0:0:
312,211,15840,2,0,L|383:180,1,72.0000000000001,2|0,2:0|1:0,2:0:0:0:
288,291,16193,1,2,2:0:0:0:
288,291,16546,5,2,2:0:0:0:
173,345,16722,1,0,1:0:0:0:
120,279,16899,1,2,2:0:0:0:
219,185,17075,5,10,2:0:0:0:
198,270,17252,1,2,2:0:0:0:
137,143,17428,2,0,P|162:108|215:98,1,72.0000000000001,2|2,1:2|2:0,2:0:0:0:
75,206,17781,1,10,2:0:0:0:
75,206,17957,1,2,2:0:0:0:
205,86,18310,5,2,2:0:0:0:
205,86,18487,2,0,P|257:93|287:82,1,72.0000000000001,10|2,2:0|2:0,2:0:0:0:
355,0,18840,2,0,L|368:74,1,72.0000000000001,2|2,1:2|2:0,2:0:0:0:
391,221,19193,6,0,B|385:187|364:171|328:166|332:149|332:149|356:162|397:159,1,144,10|2,2:0|1:2,2:0:0:0:
459,112,19722,1,0,2:0:0:0:
510,183,19899,1,10,2:0:0:0:
510,183,20075,1,2,2:0:0:0:
466,282,20252,1,2,1:2:0:0:
466,282,20428,2,0,B|426:296|409:329|409:329|396:292|362:277,1,144,2|2,2:0|2:0,2:0:0:0:
255,283,20957,1,2,1:2:0:0:
318,359,21134,1,2,2:0:0:0:
244,196,21487,5,2,2:0:0:0:
162,226,21663,1,2,1:2:0:0:
168,307,21840,2,0,L|138:374,1,72.0000000000001,2|8,2:0|2:0,2:0:0:0:
141,215,22193,1,2,2:0:0:0:
141,215,23252,1,2,2:0:0:0:
81,151,23428,6,0,P|39:152|-9:194,1,108,10|0,2:0|2:0,2:0:0:0:
80,129,23781,2,0,P|52:103|46:29,1,108,2|0,1:2|2:0,2:0:0:0:
142,42,24134,6,0,B|214:65|214:65|276:48,1,108,10|0,2:0|2:0,2:0:0:0:
159,65,24487,2,0,B|230:121|230:121|220:170,1,108,2|0,1:2|2:0,2:0:0:0:
204,208,24840,5,10,2:1:0:0:
397,87,25193,1,2,1:2:0:0:
353,157,25369,1,10,1:0:0:0:
416,216,25546,1,2,2:0:0:0:
383,312,25722,1,10,2:1:0:0:
491,248,25899,1,0,1:2:0:0:
416,216,26075,1,10,2:1:0:0:
343,244,26252,6,0,P|311:269|304:310,1,72.0000000000001,2|2,2:0|2:0,2:0:0:0:
179,361,26605,1,2,1:2:0:0:
71,268,26781,1,2,1:2:0:0:
199,202,27134,5,10,2:1:0:0:
158,275,27310,1,2,1:2:0:0:
71,268,27487,1,2,2:0:0:0:
83,127,27663,1,10,2:1:0:0:
302,298,28016,1,2,1:2:0:0:
309,170,28193,1,10,1:0:0:0:
199,202,28369,1,2,2:0:0:0:
175,117,28546,1,10,2:1:0:0:
297,49,28722,1,0,1:2:0:0:
352,107,28899,1,10,2:1:0:0:
309,170,29075,6,0,P|360:182|393:171,1,72.0000000000001,2|2,2:0|2:0,2:0:0:0:
487,35,29428,1,2,1:2:0:0:
297,49,29605,1,2,1:2:0:0:
393,8,29781,1,10,2:1:0:0:
297,49,29957,5,2,2:0:0:0:
190,22,30134,1,10,2:1:0:0:
102,87,30310,1,2,2:0:0:0:
47,240,30487,6,0,P|26:189|23:138,1,104,14|0,2:0|2:0,2:0:0:0:
18,322,30840,1,2,1:2:0:0:
18,322,31016,1,2,1:2:0:0:
132,271,31193,1,10,2:0:0:0:
241,353,31369,2,0,B|296:319|296:319|450:343,1,208,2|2,2:0|2:0,2:0:0:0:
437,341,32075,5,2,2:0:0:0:
369,223,32252,1,2,1:2:0:0:
505,215,32428,1,2,1:2:0:0:
505,215,32781,5,2,2:0:0:0:
358,135,32957,1,2,1:2:0:0:
229,236,33134,1,2,2:0:0:0:
286,96,33310,6,0,P|330:59|387:59,1,104,10|0,2:0|2:0,2:0:0:0:
219,147,33663,2,0,P|175:106|62:100,1,156,2|0,1:2|2:0,2:0:0:0:
60,105,34016,1,10,2:0:0:0:
106,220,34193,1,2,2:0:0:0:
374,55,34546,1,2,2:0:0:0:
449,91,34899,5,2,2:0:0:0:
449,91,35075,2,0,L|460:159,2,60.0000000000001,10|2|10,2:0|2:0|2:0,2:0:0:0:
501,220,35781,6,0,P|455:238|407:298,1,120,2|0,2:1|2:0,2:0:0:0:
370,365,36134,5,14,2:0:0:0:
304,220,36310,2,0,P|250:181|171:166,1,120,2|0,2:0|1:0,2:0:0:0:
371,384,36663,1,2,2:0:0:0:
338,129,36840,2,0,P|392:90|471:75,1,120,10|0,2:0|2:0,2:0:0:0:
300,303,37193,1,2,1:2:0:0:
199,166,37369,6,0,B|133:176|110:237|110:237|79:176|8:180,1,240,2|2,2:0|2:0,2:0:0:0:
94,35,37899,1,2,1:2:0:0:
101,122,38075,1,2,2:0:0:0:
12,179,38252,5,10,2:0:0:0:
199,166,38605,1,2,1:2:0:0:
122,329,38957,5,10,2:0:0:0:
199,166,39134,2,0,L|233:49,1,120,2|0,2:0|1:0,2:0:0:0:
125,350,39487,1,2,2:0:0:0:
101,122,39663,2,0,L|67:5,1,120,10|0,2:0|2:0,2:0:0:0:
303,211,40016,1,2,1:2:0:0:
199,166,40193,1,2,2:0:0:0:
199,166,40546,5,2,2:0:0:0:
159,262,40722,1,2,1:2:0:0:
284,131,40899,1,2,2:0:0:0:
181,80,41075,1,10,2:0:0:0:
303,211,41252,1,2,2:0:0:0:
384,139,41428,1,2,1:2:0:0:
451,190,41605,1,2,2:0:0:0:
451,190,41781,6,0,P|484:264|451:339,1,120,10|0,2:0|2:0,2:0:0:0:
384,139,42134,2,0,P|351:65|384:-10,1,120,2|0,1:2|2:0,2:0:0:0:
303,211,42487,6,0,B|242:216|242:216|195:256,1,120,10|0,2:0|2:0,2:0:0:0:
68,201,42840,2,0,B|129:196|129:196|173:157,1,120,2|0,1:2|2:0,2:0:0:0:
108,42,43193,6,0,P|195:40|151:160,2,240,10|2|10,2:0|1:2|2:0,2:0:0:0:
303,211,44252,2,0,P|372:229|389:280,1,120,2|0,1:2|2:0,2:0:0:0:
474,113,44605,6,0,B|432:157|477:199|477:199|466:216|466:216|505:278|454:354,2,240,10|2|10,2:0|1:2|2:0,2:0:0:0:
474,113,45663,1,2,1:2:0:0:
348,45,45840,2,0,B|228:25|228:25|111:71,1,240,2|2,2:0|2:0,2:0:0:0:
243,212,46369,1,2,1:2:0:0:
332,118,46546,2,0,B|237:102|237:102|145:138,1,192,2|2,2:0|1:2,2:0:0:0:
147,136,46987,1,2,1:2:0:0:
147,136,47075,1,2,1:2:0:0:
255,295,47252,1,2,1:2:0:0:
257,313,47340,1,2,1:2:0:0:
257,327,47428,6,0,B|372:267|377:379|506:303,1,240,14|0,2:0|1:0,2:0:0:0:
474,119,47957,1,2,2:0:0:0:
406,212,48134,1,10,2:0:0:0:
504,50,48310,2,0,P|437:51|400:124,1,120,2|0,2:0|1:0,2:0:0:0:
323,152,48663,5,2,2:0:0:0:
406,212,48840,1,10,2:0:0:0:
474,119,49016,1,2,2:0:0:0:
320,239,49193,1,2,1:2:0:0:
318,64,49369,2,0,P|262:79|236:150,1,120,2|8,2:0|2:0,2:0:0:0:
222,327,49722,5,2,2:0:0:0:
320,239,49899,1,2,1:2:0:0:
234,131,50075,2,0,L|99:142,1,120,2|8,2:0|2:0,2:0:0:0:
0,118,50428,5,2,2:0:0:0:
57,246,50605,1,2,1:2:0:0:
105,66,50781,2,0,L|224:56,1,120,2|8,2:0|2:0,2:0:0:0:
421,65,51134,5,2,2:0:0:0:
317,152,51310,1,2,1:2:0:0:
503,255,51487,2,0,B|396:210|396:210|299:289,1,240,2|2,2:0|2:0,2:0:0:0:
463,321,52016,2,0,B|409:298|409:298|361:338,1,120,2|0,1:2|2:0,2:0:0:0:
232,243,52369,5,10,2:0:0:0:
361,337,52546,1,2,2:0:0:0:
248,355,52722,1,2,1:2:0:0:
299,288,52899,1,2,2:0:0:0:
168,196,53075,6,0,L|38:206,1,120,10|0,2:0|2:0,2:0:0:0:
240,84,53428,2,0,L|370:94,1,120,2|0,1:2|2:0,2:0:0:0:
503,255,53781,6,0,P|519:195|479:139,1,120,10|0,2:0|2:0,2:0:0:0:
359,93,54134,2,0,P|331:144|347:200,1,120,2|0,1:2|2:0,2:0:0:0:
192,343,54487,6,0,B|311:359|311:359|422:267,2,240,10|2|10,2:0|1:2|2:0,2:0:0:0:
89,177,55546,2,0,P|140:221|130:277,1,120,2|0,1:2|2:0,2:0:0:0:
64,95,55899,6,0,B|145:95|145:95|159:109|159:109|173:95|173:95|258:94,1,200,14|0,2:0|1:0,2:0:0:0:
341,32,56428,1,0,2:0:0:0:
404,107,56605,2,0,L|421:212,1,100,10|2,2:0|2:0,2:0:0:0:
507,190,56957,2,0,L|491:91,1,100,2|0,1:2|2:0,2:0:0:0:
347,239,57310,6,0,P|388:277|464:275,1,100,10|0,2:0|2:0,2:0:0:0:
284,177,57663,2,0,P|243:215|167:213,1,100,2|0,1:2|2:0,2:0:0:0:
118,161,58016,1,10,2:0:0:0:
118,161,58105,1,0,2:0:0:0:
118,161,58193,1,0,2:0:0:0:
36,233,58369,2,0,L|28:339,1,100,2|0,1:2|2:0,2:0:0:0:
34,149,58722,6,0,B|55:82|117:79|117:79|161:98|214:76,1,200,10|2,2:0|1:2,2:0:0:0:
318,20,59252,1,0,2:0:0:0:
288,122,59428,2,0,L|279:232,1,100,10|0,2:0|2:0,2:0:0:0:
363,235,59781,2,0,L|371:135,1,100,2|0,1:2|2:0,2:0:0:0:
417,61,60134,6,0,P|457:110|449:160,1,100,10|0,2:0|2:0,2:0:0:0:
318,304,60487,2,0,P|278:255|286:205,1,100,2|0,1:2|2:0,2:0:0:0:
409,314,60840,1,10,2:0:0:0:
409,314,60928,1,0,2:0:0:0:
409,314,61016,1,0,2:0:0:0:
279,220,61193,2,0,L|175:235,1,100,2|0,1:2|2:0,2:0:0:0:
47,104,61546,6,0,B|108:175|108:175|57:276,2,200,10|2|10,2:0|1:2|2:0,2:0:0:0:
118,21,62428,1,0,2:0:0:0:
216,65,62605,2,0,B|261:92|261:92|324:66,1,100,2|0,1:2|2:0,2:0:0:0:
393,27,62957,6,0,B|430:-10|467:2|486:47|486:47|401:96|414:204,1,300,10|2,2:0|2:0,2:0:0:0:
418,287,63663,2,0,P|471:266|493:222,1,100,10|0,2:0|2:0,2:0:0:0:
342,248,64016,2,0,P|289:269|267:313,1,100,2|0,1:2|2:0,2:0:0:0:
176,356,64369,6,0,L|134:252,1,100,10|0,2:0|2:0,2:0:0:0:
179,137,64722,2,0,L|221:241,1,100,2|0,1:2|2:0,2:0:0:0:
248,94,65075,6,0,P|189:57|126:81,1,100,10|0,2:0|2:0,2:0:0:0:
87,117,65428,1,2,1:2:0:0:
87,117,65516,1,0,2:0:0:0:
87,117,65605,1,0,2:0:0:0:
314,53,65781,6,0,P|383:15|501:44,1,200,10|0,2:0|1:0,2:0:0:0:
415,116,66310,1,2,2:0:0:0:
417,130,66399,1,0,2:0:0:0:
419,144,66487,1,8,2:0:0:0:
352,256,66663,5,2,2:0:0:0:
487,216,66840,1,2,1:2:0:0:
317,178,67016,1,2,2:0:0:0:
236,322,67193,6,0,L|164:325,1,60,14|0,2:0|2:0,2:0:0:0:
102,330,67369,2,0,L|30:333,1,60,2|0,2:0|2:0,2:0:0:0:
22,58,67722,5,2,2:0:0:0:
22,58,67899,2,0,L|94:61,1,60,10|0,2:0|2:0,2:0:0:0:
156,66,68075,2,0,L|228:69,1,60,2|0,2:0|2:0,2:0:0:0:
323,339,68428,5,2,2:0:0:0:
323,339,68605,5,10,2:0:0:0:
240,239,68781,1,2,2:0:0:0:
328,134,68957,1,2,1:2:0:0:
243,0,69134,1,2,2:0:0:0:
420,31,69487,6,0,L|378:77,1,60,2|0,2:0|2:0,2:0:0:0:
329,135,69663,2,0,L|287:181,1,60,2|0,1:2|2:0,2:0:0:0:
240,239,69840,1,2,2:0:0:0:
240,239,70193,6,0,L|198:192,1,60,2|0,2:0|2:0,2:0:0:0:
149,135,70369,2,0,L|107:88,1,60,2|0,1:2|2:0,2:0:0:0:
60,31,70546,1,2,2:0:0:0:
191,302,70899,6,0,P|254:318|281:308,1,60,2|0,2:0|2:0,2:0:0:0:
296,255,71075,2,0,P|233:239|206:249,1,60,2|0,1:2|2:0,2:0:0:0:
331,330,71252,2,0,B|402:274|352:195|352:195|396:219|447:183,1,240,2|2,2:0|2:0,2:0:0:0:
504,125,71781,1,2,1:2:0:0:
504,125,72134,5,8,2:0:0:0:
385,67,72310,1,2,2:0:0:0:
280,92,72487,1,2,1:2:0:0:
222,155,72663,1,2,2:0:0:0:
156,198,72840,6,0,P|87:205|46:161,1,120,10|0,2:0|2:0,2:0:0:0:
222,155,73193,2,0,L|278:266,1,120,2|0,1:2|2:0,2:0:0:0:
383,274,73546,6,0,P|323:245|265:272,1,120,10|0,2:0|2:0,2:0:0:0:
455,338,73899,2,0,L|493:219,1,120,2|0,1:2|2:0,2:0:0:0:
419,79,74252,6,0,B|390:133|390:133|417:206,1,120,10|0,2:0|2:0,2:0:0:0:
352,20,74605,2,0,B|298:-9|298:-9|225:18,1,120,2|0,1:2|2:0,2:0:0:0:
222,155,74957,6,0,P|285:115|287:68,1,120,10|0,2:0|2:0,2:0:0:0:
142,162,75310,1,2,2:0:0:0:
142,162,75663,6,0,P|154:224|120:261,1,88,14|0,2:1|2:0,2:0:0:0:
136,254,75928,2,0,P|186:245|233:274,1,88,2|0,2:1|2:0,2:0:0:0:
227,269,76193,1,2,2:1:0:0:
288,328,76369,5,10,2:1:0:0:
288,328,76546,1,0,2:0:0:0:
375,352,76722,5,2,1:0:0:0:
424,249,76899,1,2,2:1:0:0:
472,150,77075,6,0,L|512:60,1,88,14|0,2:1|2:0,2:0:0:0:
512,57,77340,2,0,L|422:97,1,88,2|0,2:1|2:0,2:0:0:0:
419,98,77605,1,2,2:1:0:0:
272,46,77781,5,10,2:1:0:0:
322,156,77957,1,2,2:1:0:0:
253,251,78134,5,2,1:0:0:0:
253,251,78310,1,2,2:1:0:0:
176,203,78487,6,0,P|168:267|196:306,1,88,14|0,2:1|2:0,2:0:0:0:
184,297,78752,2,0,P|139:285|87:313,1,88,2|0,2:1|2:0,2:0:0:0:
94,310,79016,1,2,2:1:0:0:
23,261,79193,5,10,2:1:0:0:
23,261,79369,1,0,2:0:0:0:
11,176,79546,5,2,1:0:0:0:
99,116,79722,1,2,2:1:0:0:
187,56,79899,2,0,B|228:37|228:37|291:64,1,88,14|0,2:1|2:0,2:0:0:0:
276,62,80163,2,0,B|317:81|317:81|380:54,1,88,2|0,2:1|2:0,2:0:0:0:
368,58,80428,1,2,2:1:0:0:
463,24,80605,5,10,2:1:0:0:
433,113,80781,1,2,2:1:0:0:
362,168,80957,5,2,1:0:0:0:
403,299,81134,1,2,2:1:0:0:
286,149,81310,6,0,P|294:210|336:240,1,88,14|0,2:1|2:0,2:0:0:0:
318,238,81575,2,0,P|271:236|231:266,1,88,2|0,2:1|2:0,2:0:0:0:
230,267,81840,1,2,2:1:0:0:
162,328,82016,5,10,2:1:0:0:
162,328,82193,1,0,2:0:0:0:
78,300,82369,5,2,1:0:0:0:
45,200,82546,1,2,2:1:0:0:
14,99,82722,6,0,L|122:123,1,88,14|0,2:1|2:0,2:0:0:0:
110,110,82987,2,0,L|218:134,1,88,2|0,2:1|2:0,2:0:0:0:
209,127,83252,1,2,2:1:0:0:
284,50,83428,5,10,2:1:0:0:
352,137,83605,1,2,2:1:0:0:
426,41,83781,5,2,1:0:0:0:
306,202,83957,1,2,2:1:0:0:
357,267,84134,6,0,P|373:297|372:325,2,48,14|2|2,2:1|2:1|2:1,2:0:0:0:
296,318,84840,5,2,2:1:0:0:
286,321,85016,1,2,2:1:0:0:
211,293,85193,5,2,2:1:0:0:
201,296,85369,1,2,2:1:0:0:
118,271,85546,6,0,L|129:217,2,48,10|2|2,2:1|2:1|2:1,2:0:0:0:
36,273,86252,5,2,2:1:0:0:
31,264,86428,1,2,2:1:0:0:
65,175,86605,5,2,2:1:0:0:
60,184,86781,1,2,2:1:0:0:
106,111,86957,5,14,2:1:0:0:
