osu file format v14

[General]
AudioFilename: audio.mp3
AudioLeadIn: 0
PreviewTime: 35737
Countdown: 0
SampleSet: Soft
StackLeniency: 1
Mode: 0
LetterboxInBreaks: 0
WidescreenStoryboard: 0

[Editor]
DistanceSpacing: 0.9
BeatDivisor: 4
GridSize: 8
TimelineZoom: 2.5

[Metadata]
Title:Kaibutsu (TV Size)
TitleUnicode:怪物 (TV Size)
Artist:YOASOBI
ArtistUnicode:YOASOBI
Creator:Ryuusei Aika
Version:Expert
Source:BEASTARS
Tags:ビースターズ japanese furry anime op2 pop j-pop jpop opening theme 幾田りら Ikuta Rira Lilas Ayase Monster MoeAsuka Atrue SuperBox Fall Marle Calvaria Mariko Sakuragi Reiji Maigo SB hhjkl [Hatsune Miku] [Hatsune_Miku] Hatsune Miku Remapper _lai Kyrian 09kami Ducky- Acyl Acylica Bellicose wafer iWaifu KAMI NO KOTOBA Addy2607 KaedeharaKazuha Airincat Chompy Yooh Reywateil Amateurre Sparhten Ajisai- HabiHolic newton- Yuuma Ogura Yui fedora- UberFazz xidorn Pata-Mon PataMon Deca Wanpachi cycopton Gibune wiken Fuju Stratos Crystal OneShotFox Elcheer Fieryrage hypercyte hypercute Kittyadventure gokugohan12468 Kyouren Zelq ponbot Yuuma3 Mimari i love ganyu Flake yaspo Regraz Mafumafu bongo Moete Senseabel Senseable Kuse KuBsNia_ZhoYL_ wetdog123 eiri-
BeatmapID:2820222
BeatmapSetID:1335792

[Difficulty]
HPDrainRate:5.7
CircleSize:3.7
OverallDifficulty:8.3
ApproachRate:9
SliderMultiplier:1.80000000596046
SliderTickRate:1

[Events]
//Background and Video events
0,0,"furry.jpg",0,0
Video,-200,"OP.mp4"
//Break Periods
//Storyboard Layer 0 (Background)
//Storyboard Layer 1 (Fail)
//Storyboard Layer 2 (Pass)
//Storyboard Layer 3 (Foreground)
//Storyboard Layer 4 (Overlay)
//Storyboard Sound Samples

[TimingPoints]
-3395,352.941176470588,4,2,0,5,1,0
1543,-100,4,2,1,40,0,0
1546,-133.333333333333,4,2,1,40,0,0
2249,-133.333333333333,4,2,1,60,0,0
13193,-50,4,2,1,60,0,0
13546,-111.111111111111,4,2,1,70,0,0
24837,-111.111111111111,4,2,1,60,0,0
24840,-133.333333333333,4,2,1,60,0,0
29604,-111.111111111111,4,2,1,60,0,0
30484,-111.111111111111,4,2,1,75,0,0
30487,-100,4,2,1,75,0,0
35428,-200,4,2,1,75,0,0
35516,-200,4,2,1,5,0,0
35778,-200,4,2,1,60,0,0
35781,-133.333333333333,4,2,1,60,0,0
36046,-133.333333333333,4,2,1,5,0,0
36131,-133.333333333333,4,2,1,80,0,0
36134,-83.3333333333333,4,2,1,80,0,1
36222,-83.3333333333333,4,2,1,80,0,0
42840,-74.0740740740741,4,2,1,80,0,0
43193,-78.7401574803149,4,2,1,80,0,0
44252,-66.6666666666667,4,2,1,80,0,0
44604,-69.9300699300699,4,2,1,80,0,0
45310,-74.0740740740741,4,2,1,80,0,0
45575,-83.3333333333333,4,2,1,80,0,0
45840,-78.7401574803149,4,2,1,80,0,0
47428,-74.0740740740741,4,2,1,80,0,1
47516,-74.0740740740741,4,2,1,80,0,0
49193,-69.9300699300699,4,2,1,80,0,0
53075,-83.3333333333333,4,2,1,80,0,0
54134,-74.0740740740741,4,2,1,80,0,0
54487,-78.7401574803149,4,2,1,80,0,0
55899,-74.0740740740741,4,2,1,80,0,1
55987,-74.0740740740741,4,2,1,80,0,0
56428,-78.7401574803149,4,2,1,80,0,0
57310,-74.0740740740741,4,2,1,80,0,0
58193,-78.7401574803149,4,2,1,80,0,0
58369,-74.0740740740741,4,2,1,80,0,0
58546,-69.9300699300699,4,2,1,80,0,0
58722,-74.0740740740741,4,2,1,80,0,0
59252,-78.7401574803149,4,2,1,80,0,0
60134,-74.0740740740741,4,2,1,80,0,0
60663,-78.7401574803149,4,2,1,80,0,0
61016,-78.7401574803149,4,2,1,80,0,0
61192,-74.0740740740741,4,2,1,80,0,0
61369,-69.9300699300699,4,2,1,80,0,0
61546,-74.0740740740741,4,2,1,80,0,0
62075,-78.7401574803149,4,2,1,80,0,0
62957,-74.0740740740741,4,2,1,80,0,0
63486,-78.7401574803149,4,2,1,80,0,0
63840,-74.0740740740741,4,2,1,80,0,0
64722,-69.9300699300699,4,2,1,80,0,0
65075,-66.6666666666667,4,2,1,80,0,0
65428,-63.6942675159236,4,2,1,80,0,0
65781,-60.6060606060606,4,2,1,80,0,0
66663,-69.9300699300699,4,2,1,80,0,0
67193,-74.0740740740741,4,2,1,80,0,0
69487,-69.9300699300699,4,2,1,80,0,0
72310,-74.0740740740741,4,2,1,80,0,0
72487,-78.7401574803149,4,2,1,80,0,0
72663,-83.3333333333333,4,2,1,80,0,0
74252,-78.7401574803149,4,2,1,80,0,0
74957,-74.0740740740741,4,2,1,80,0,0
75310,-303.030303030303,4,2,1,80,0,0
75663,-42.9184549356223,4,2,1,80,0,1
76193,-56.1797752808989,4,2,1,80,0,1
76369,-42.9184549356223,4,2,1,80,0,1
77075,-40,4,2,1,80,0,1
77781,-50,4,2,1,80,0,1
78487,-56.1797752808989,4,2,1,80,0,1
79193,-42.9184549356223,4,2,1,80,0,1
79899,-40,4,2,1,80,0,1
80604,-50,4,2,1,80,0,1
80781,-44.4444444444445,4,2,1,80,0,1
80957,-50,4,2,1,80,0,1
81134,-40,4,2,1,80,0,1
81310,-35.9712230215827,4,2,1,80,0,1
81575,-56.1797752808989,4,2,1,80,0,1
82016,-42.9184549356223,4,2,1,80,0,1
82722,-40,4,2,1,80,0,1
83428,-50,4,2,1,80,0,1
84130,-50,4,2,1,70,0,1
84134,-66.6666666666667,4,2,1,70,0,0
86957,-50,4,2,1,90,0,0

[Colours]
Combo1 : 191,96,0
Combo2 : 143,32,255
Combo3 : 191,0,96
Combo4 : 0,80,159

[HitObjects]
88,272,1546,6,2,P|48:232|72:152,1,135.000005596876,2|0,0:0|0:0,0:1:0:0:
176,144,2075,2,0,L|120:152,1,33.750001399219
62,160,2252,5,10,0:0:0:0:
168,224,2428,1,0,0:0:0:0:
152,120,2604,1,10,0:0:0:0:
258,184,2780,1,2,0:0:0:0:
242,80,2957,1,10,0:0:0:0:
348,144,3133,1,0,0:0:0:0:
332,40,3310,1,10,0:0:0:0:
438,104,3486,1,2,0:0:0:0:
256,64,3663,6,0,P|192:40|112:48,1,135.000005596876,10|8,0:0|0:0,0:0:0:0:
360,160,4193,2,0,P|360:192|328:240,2,67.500002798438,2|8|2,0:0|0:0|0:0,0:0:0:0:
360,160,4722,1,8,0:0:0:0:
272,240,4899,6,0,P|336:280|424:272,1,135.000005596876,2|2,0:0|0:0,0:0:0:0:
464,240,5428,1,8,0:0:0:0:
360,344,5604,1,2,0:0:0:0:
304,288,5781,1,10,0:0:0:0:
440,320,5957,1,2,0:0:0:0:
384,264,6134,1,10,0:0:0:0:
280,368,6310,1,2,0:0:0:0:
96,232,6487,6,0,L|184:240,1,67.500002798438,10|2,0:0|0:0,0:0:0:0:
163,238,6840,1,8,0:0:0:0:
96,316,7016,2,0,P|65:328|32:328,2,67.500002798438,2|10|2,0:0|0:0|0:0,0:0:0:0:
176,320,7546,2,0,L|256:344,1,67.500002798438,10|2,0:0|0:0,0:0:0:0:
240,216,7899,6,0,L|224:136,1,67.500002798438,10|0,0:0|0:0,0:0:0:0:
24,168,8252,2,0,L|85:139,1,67.500002798438,10|2,0:0|0:0,0:0:0:0:
40,16,8604,2,0,P|24:48|24:88,2,67.500002798438,10|2|10,0:0|0:0|0:0,0:0:0:0:
85,139,9134,1,2,0:0:0:0:
224,72,9310,1,10,0:0:0:0:
152,184,9487,1,0,0:0:0:0:
160,24,9663,1,10,0:0:0:0:
288,120,9840,2,0,L|368:112,1,67.500002798438,2|8,0:0|0:0,0:0:0:0:
432,72,10193,6,0,L|296:168,1,135.000005596876,2|2,0:0|0:0,0:0:0:0:
216,296,10722,2,0,B|208:280|208:280|232:213,1,67.500002798438,8|2,0:0|0:0,0:0:0:0:
280,352,11075,1,10,0:0:0:0:
232,280,11252,2,0,B|200:280|200:280|144:304|144:304|112:272,1,135.000005596876,0|2,0:0|0:0,0:0:0:0:
344,304,11781,2,0,P|376:312|416:336,1,67.500002798438,10|2,0:0|0:0,0:0:0:0:
472,384,12134,5,10,0:0:0:0:
472,384,12487,5,10,0:0:0:0:
472,384,12840,5,8,0:0:0:0:
480,288,13193,6,0,B|464:272|464:272|473:244|473:244|488:264|488:264|480:288,2,72.0000002384184,2|0|0,0:3|0:0|0:0,0:0:0:0:
432,80,13546,6,0,B|440:16|440:16|456:0,1,80.9999977962969,10|0,0:0|0:0,0:0:0:0:
384,184,13899,2,0,B|448:168|448:168|464:144,1,80.9999977962969,2|2,1:2|0:0,0:0:0:0:
272,104,14252,2,0,L|384:112,2,80.9999977962969,10|2|2,0:0|0:0|1:2,0:0:0:0:
384,184,14781,1,2,0:0:0:0:
175,141,14957,6,0,B|279:125|279:125|297:100|297:100|239:109,1,161.999995592594,10|0,0:0|1:0,0:0:0:0:
96,112,15487,2,0,L|80:200,1,80.9999977962969,2|8,0:0|0:0,0:0:0:0:
96,112,15840,1,2,0:0:0:0:
144,248,16016,1,0,1:0:0:0:
16,248,16193,6,0,B|-24:248|0:200|72:200|136:280,1,161.999995592594,2|2,0:0|0:0,0:0:0:0:
72,344,16722,2,0,P|44:321|64:320,1,80.9999977962969,0|2,1:0|0:0,0:0:0:0:
192,288,17075,1,10,0:0:0:0:
224,368,17252,2,0,P|192:376|144:360,1,80.9999977962969,2|2,0:0|1:2,0:0:0:0:
147,362,17604,1,2,0:0:0:0:
256,232,17781,6,0,L|352:272,1,80.9999977962969,10|2,0:0|0:0,0:0:0:0:
176,200,18134,1,0,1:0:0:0:
296,280,18310,2,0,L|272:184,2,80.9999977962969,2|10|2,0:0|0:0|0:0,0:0:0:0:
416,272,18840,2,0,P|400:320|352:344,1,80.9999977962969,2|2,1:2|0:0,0:0:0:0:
360,200,19193,6,0,B|360:152|392:128|392:128|424:104|424:24,2,161.999995592594,10|2|10,0:0|1:2|0:0,0:0:0:0:
344,64,20075,1,2,0:0:0:0:
440,192,20252,1,2,1:2:0:0:
328,48,20428,6,0,P|264:56|272:120,1,121.499996694445,2|0,0:0|0:0,0:0:0:0:
264,120,20781,2,0,P|235:116|208:104,1,40.4999988981485,2|0,0:0|0:0,0:0:0:0:
160,72,20957,2,0,L|112:80,1,40.4999988981485,2|0,1:2|0:0,0:0:0:0:
16,64,21134,2,0,P|16:80|32:104,1,40.4999988981485,2|0,0:0|0:0,0:0:0:0:
40,96,21487,6,0,L|64:-8,1,80.9999977962969,2|2,0:0|1:2,0:0:0:0:
24,176,21840,1,2,0:0:0:0:
96,152,22016,2,0,P|128:208|104:288,1,121.499996694445,8|0,0:0|0:0,0:0:0:0:
112,280,22369,2,0,P|136:296|184:304,1,40.4999988981485,2|0,1:2|0:0,0:0:0:0:
296,256,22546,2,0,L|304:208,1,40.4999988981485
302,216,22722,1,10,0:0:0:0:
216,192,22899,6,0,L|209:231,1,40.4999988981485,2|0,0:0|0:0,0:0:0:0:
224,368,23075,2,0,L|216:328,1,40.4999988981485,0|0,1:0|0:0,0:0:0:0:
224,280,23252,1,2,0:0:0:0:
224,280,23428,6,0,L|416:312,1,161.999995592594,10|2,0:0|1:2,0:0:0:0:
400,328,23957,1,0,0:0:0:0:
312,216,24134,2,0,P|296:184|304:136,1,80.9999977962969,10|0,0:0|0:0,0:0:0:0:
472,224,24487,2,0,P|464:272|448:232,1,121.499996694445,2|0,1:2|0:0,0:0:0:0:
496,144,24840,5,10,0:1:0:0:
256,136,25193,6,0,L|312:128,1,33.750001399219,2|0,1:2|0:0,0:0:0:0:
424,112,25369,1,10,1:1:0:0:
424,112,25722,6,0,L|368:104,1,33.750001399219,10|0,0:1|0:0,0:0:0:0:
200,80,25899,1,0,1:2:0:0:
328,64,26075,1,10,0:1:0:0:
328,64,26604,5,2,1:2:0:0:
144,136,26781,1,2,1:2:0:0:
144,136,27134,6,0,L|128:224,1,67.500002798438,10|2,0:1|1:2,0:0:0:0:
216,176,27487,1,2,0:0:0:0:
56,184,27664,6,0,P|24:144|24:72,1,101.250004197657,10|0,0:1|0:0,0:0:0:0:
24,88,28016,2,0,P|40:96|72:96,1,33.750001399219,2|0,1:2|0:0,0:0:0:0:
40,192,28193,2,0,P|24:200|-8:200,1,33.750001399219,10|0,1:1|0:0,0:0:0:0:
168,312,28546,2,0,P|144:328|128:328,1,33.750001399219,10|0,0:1|0:0,0:0:0:0:
54,272,28722,2,0,P|56:289|64:304,1,33.750001399219,0|0,1:2|0:0,0:0:0:0:
88,344,28899,5,10,0:1:0:0:
176,336,29075,1,2,0:0:0:0:
264,328,29252,1,2,0:0:0:0:
424,376,29428,1,2,1:2:0:0:
365,242,29604,2,0,B|369:255|369:255|349:330,1,80.9999977962969,2|10,1:2|0:1,0:0:0:0:
280,240,29957,6,0,B|272:224|272:224|280:200,1,40.4999988981485,2|0,0:0|0:0,0:0:0:0:
208,184,30134,2,0,B|200:168|200:168|208:144,1,40.4999988981485,10|0,0:1|0:0,0:0:0:0:
144,104,30310,2,0,B|152:88|152:88|144:64,1,40.4999988981485,2|0,0:0|0:0,0:0:0:0:
128,48,30487,6,0,L|96:216,1,135.000000447034,14|0,0:0|0:0,0:0:0:0:
88,240,30840,2,0,P|64:224|88:224,1,45.0000001490115,2|0,1:2|0:0,0:0:0:0:
96,208,31016,2,0,B|136:224|136:224|168:264,1,90.000000298023,2|10,1:2|0:0,0:0:0:0:
80,352,31369,2,0,B|40:336|40:336|8:296,1,90.000000298023,2|0,0:0|1:0,0:0:0:0:
160,344,31722,6,0,B|200:352|200:352|304:328|304:328|240:312,1,180.000000596046,2|2,0:0|0:0,0:0:0:0:
272,320,32252,2,0,L|263:367,1,45.0000001490115,2|0,1:2|0:0,0:0:0:0:
384,352,32428,2,0,L|360:232,1,90.000000298023,2|8,1:2|0:0,0:0:0:0:
296,224,32781,5,2,0:0:0:0:
456,288,32957,2,0,P|480:296|512:296,1,45.0000001490115,2|0,1:2|0:0,0:0:0:0:
424,208,33134,2,0,P|456:200|480:176,1,45.0000001490115,2|0,0:0|0:0,0:0:0:0:
320,152,33310,2,0,P|280:184|176:184,1,135.000000447034,10|0,0:0|0:0,0:0:0:0:
176,184,33663,2,0,L|160:240,1,45.0000001490115,2|0,1:2|0:0,0:0:0:0:
96,184,33840,2,0,L|88:128,1,45.0000001490115,0|0,1:0|0:0,0:0:0:0:
112,56,34016,2,0,P|104:96|64:144,2,90.000000298023,10|2|0,0:0|0:0|1:0,0:0:0:0:
40,24,34546,6,0,P|8:64|0:128,1,90.000000298023,2|8,0:0|0:0,0:0:0:0:
80,224,34899,1,2,0:0:0:0:
80,224,35252,1,2,0:0:0:0:
0,200,35428,2,0,L|8:168,1,22.5000000745057,10|0,0:0|0:0,0:0:0:0:
152,264,35781,6,0,L|256:264,1,101.250004197657,2|0,0:1|0:0,0:0:0:0:
272,256,36134,5,14,0:0:0:0:
88,312,36310,1,2,0:0:0:0:
352,296,36663,1,2,0:0:0:0:
168,352,36840,1,10,0:0:0:0:
432,336,37193,1,2,1:2:0:0:
248,384,37369,6,0,B|200:336|208:272|208:272|264:240,1,161.999995592594,2|0,0:0|0:0,0:0:0:0:
256,248,37722,1,2,0:0:0:0:
384,128,37899,2,0,B|360:200|360:200|328:216,1,107.999997061729,2|2,1:2|0:0,0:0:0:0:
192,56,38252,2,0,L|336:48,1,107.999997061729,10|0,0:0|0:0,0:0:0:0:
320,48,38516,1,2,0:0:0:0:
312,32,38604,2,0,L|296:160,1,107.999997061729,2|0,1:2|0:0,0:0:0:0:
400,32,38957,5,10,0:0:0:0:
232,176,39134,1,2,0:0:0:0:
168,128,39310,1,0,1:0:0:0:
216,192,39487,1,2,0:0:0:0:
64,40,39663,2,0,P|48:0|88:32,1,107.999997061729,10|0,0:0|0:0,0:0:0:0:
96,168,40016,1,2,1:2:0:0:
96,40,40193,2,0,L|72:160,1,107.999997061729,2|8,0:0|0:0,0:0:0:0:
88,248,40546,5,2,0:0:0:0:
152,296,40722,1,2,1:2:0:0:
304,248,40899,1,2,0:0:0:0:
448,288,41075,1,10,0:0:0:0:
384,240,41251,1,2,0:0:0:0:
328,328,41428,1,2,1:2:0:0:
232,288,41604,1,2,0:0:0:0:
288,200,41781,6,0,B|304:160|272:120|272:120|272:32|272:88|312:88|304:88,1,161.999995592594,10|0,0:0|0:0,0:0:0:0:
313,98,42134,2,0,B|192:128|192:128|176:125|176:125|168:96,1,161.999995592594,2|0,1:2|0:0,0:0:0:0:
168,88,42487,2,0,L|144:216,1,107.999997061729,10|0,0:0|0:0,0:0:0:0:
96,224,42752,1,0,0:0:0:0:
96,224,42840,2,0,P|80:192|96:216,1,182.250001298725,2|0,1:2|0:0,0:0:0:0:
64,224,43193,6,0,B|48:200|48:200|72:80|72:80|48:104,1,171.449999259674,10|0,0:0|0:0,0:0:0:0:
57,94,43546,2,0,B|120:104|120:104|160:48,1,114.299999506449,2|0,1:2|0:0,0:0:0:0:
144,48,43810,1,0,0:0:0:0:
144,32,43899,2,0,L|272:48,1,114.299999506449,10|0,0:0|0:0,0:0:0:0:
408,56,44252,6,0,B|392:128|312:160|240:128,1,202.500008395314,2|0,1:2|0:0,0:0:0:0:
272,56,44604,2,0,B|312:40|312:40|432:88|432:88|408:40,1,193.050003290398,10|0,0:0|0:0,0:0:0:0:
352,272,44957,2,0,B|328:128|328:128|408:160,1,193.050003290398,2|0,1:2|0:0,0:0:0:0:
368,288,45310,2,0,P|336:312|296:312,1,60.7500004329084,10|0,0:0|0:0,0:0:0:0:
488,208,45663,2,0,P|464:192|440:188,1,53.9999985308646,2|0,1:2|0:0,0:0:0:0:
264,224,45840,6,0,P|224:312|280:400,1,171.449999259674,2|0,0:0|0:0,0:0:0:0:
264,384,46193,2,0,L|184:376,1,57.1499997532247,2|0,0:0|0:0,0:0:0:0:
24,304,46369,2,0,B|64:288|64:288|96:304,1,57.1499997532247,2|0,1:2|0:0,0:0:0:0:
120,360,46546,2,0,B|144:336|144:336|112:240|112:240|144:208,1,171.449999259674,2|0,0:0|0:0,0:0:0:0:
168,152,46899,1,2,1:2:0:0:
168,160,46987,1,2,1:2:0:0:
168,168,47075,2,0,L|224:176,1,57.1499997532247,2|0,1:2|0:0,0:0:0:0:
72,168,47252,1,2,1:2:0:0:
40,184,47340,1,2,1:2:0:0:
8,184,47428,6,0,P|0:112|64:24,1,182.250001298725,14|0,0:0|0:0,0:0:0:0:
136,0,47781,1,0,1:0:0:0:
40,16,47957,1,2,0:0:0:0:
168,72,48134,1,10,0:0:0:0:
280,16,48310,2,0,P|336:16|408:80,1,121.500000865817,2|0,0:0|1:0,0:0:0:0:
248,88,48663,5,2,0:0:0:0:
440,112,48840,1,10,0:0:0:0:
400,32,49016,1,2,0:0:0:0:
312,136,49193,2,0,L|304:200,1,64.3500010967992,2|0,1:2|0:0,0:0:0:0:
220,360,49369,2,0,B|208:304|208:304|192:288|192:288|184:240,1,128.700002193598,2|8,0:0|0:0,0:0:0:0:
40,312,49634,1,2,0:0:0:0:
48,296,49722,6,0,L|128:280,1,64.3500010967992,2|0,0:0|0:0,0:0:0:0:
168,160,49899,2,0,P|200:160|240:184,1,64.3500010967992,2|0,1:2|0:0,0:0:0:0:
384,344,50075,2,0,P|472:312|432:192,1,193.050003290398,2|0,0:0|0:0,0:0:0:0:
400,184,50428,6,0,L|392:256,1,64.3500010967992,2|0,0:0|0:0,0:0:0:0:
304,360,50604,2,0,P|275:371|232:368,1,64.3500010967992,2|0,1:2|0:0,0:0:0:0:
96,208,50781,2,0,B|72:72|72:72|96:104|160:88|96:104,1,193.050003290398,2|0,0:0|0:0,0:0:0:0:
144,80,51134,6,0,L|208:64,1,64.3500010967992,2|0,0:0|0:0,0:0:0:0:
312,256,51310,2,0,P|272:256|224:216,1,64.3500010967992,2|0,1:2|0:0,0:0:0:0:
280,40,51487,2,0,P|320:8|448:24,1,128.700002193598,2|8,0:0|0:0,0:0:0:0:
456,208,51840,2,0,L|368:224,1,64.3500010967992,2|0,0:0|0:0,0:0:0:0:
264,120,52016,2,0,B|352:144|352:144|432:136,1,128.700002193598,2|0,1:2|0:0,0:0:0:0:
472,16,52369,5,10,0:0:0:0:
400,120,52546,1,2,0:0:0:0:
336,280,52722,1,2,1:2:0:0:
288,208,52899,1,2,0:0:0:0:
208,192,53075,6,0,P|160:248|192:360,1,161.999995592594,10|0,0:0|0:0,0:0:0:0:
272,360,53428,2,0,P|200:304|112:312,1,161.999995592594,2|0,1:2|0:0,0:0:0:0:
132,304,53781,2,0,P|148:320|132:288,1,107.999997061729,10|0,0:0|0:0,0:0:0:0:
80,240,54046,1,0,0:0:0:0:
80,240,54134,2,0,B|72:208|72:208|96:104|96:104|104:152,1,182.250001298725,2|0,1:2|0:0,0:0:0:0:
32,56,54487,6,0,B|168:72|168:72|208:40,1,171.449999259674,10|0,0:0|0:0,0:0:0:0:
256,72,54840,2,0,P|280:104|248:80,1,114.299999506449,2|0,1:2|0:0,0:0:0:0:
248,248,55193,2,0,B|208:272|208:272|144:216|200:112,1,171.449999259674,10|0,0:0|0:0,0:0:0:0:
200,144,55546,2,0,B|232:136|232:136|312:184,1,114.299999506449,2|0,1:2|0:0,0:0:0:0:
432,376,55899,6,0,B|432:344|448:336|448:336|432:232|432:232|448:216|464:248,1,182.250001298725,14|0,0:0|0:0,0:0:0:0:
448,256,56252,2,0,P|392:248|368:224,1,60.7500004329084,2|0,1:2|0:0,0:0:0:0:
336,184,56428,2,0,B|312:176|312:176|272:160|240:200|240:200|240:232|240:232|240:272|208:288|208:288|176:272|152:216|144:184|152:160|152:160|160:136|200:120,1,400.049998272573,2|0,0:2|0:0,0:2:0:0:
168,120,57134,1,0,0:0:0:0:
232,56,57310,6,0,B|264:32|264:32|351:35|408:88,1,182.250001298725,10|0,0:0|0:0,0:0:0:0:
384,88,57663,2,0,P|352:104|312:104,1,60.7500004329084,2|0,1:2|0:0,0:0:0:0:
208,48,57840,2,0,P|104:64|80:128,1,182.250001298725,2|0,0:2|0:0,0:0:0:0:
88,136,58193,2,0,P|80:160|80:128,1,57.1499997532247,2|0,0:0|0:0,0:0:0:0:
24,232,58369,2,0,L|104:248,1,60.7500004329084,2|0,1:2|0:0,0:0:0:0:
32,336,58546,2,0,P|32:312|40:328,1,64.3500010967992,2|0,0:0|0:0,0:0:0:0:
104,368,58722,6,0,B|136:376|136:376|192:320|280:288,1,182.250001298725,10|0,0:0|0:0,0:0:0:0:
264,312,59075,2,0,P|232:320|192:352,1,60.7500004329084,2|0,1:2|0:0,0:0:0:0:
232,216,59252,2,0,B|224:176|248:160|248:160|272:120|237:82|237:82|184:80|152:40|152:40|184:16|200:16|200:16|224:32|176:120,1,400.049998272573,2|0,0:2|0:0,0:0:0:0:
176,128,59957,2,0,B|147:124|147:124|168:104,1,57.1499997532247
376,32,60134,6,0,B|328:24|296:-8|296:-8|296:40|256:72,1,182.250001298725,10|0,0:0|0:0,0:0:0:0:
257,71,60487,2,0,L|279:127,1,60.7500004329084,2|0,1:2|0:0,0:0:0:0:
296,200,60663,2,0,B|336:216|336:216|412:182|412:182|432:136,1,171.449999259674,2|0,0:2|0:0,0:1:0:0:
416,128,61016,6,0,B|384:152|384:152|416:144,1,57.1499997532247,2|0,0:0|0:0,0:0:0:0:
360,256,61193,2,0,B|376:296|376:296|384:280,1,60.7500004329084,2|0,1:2|0:0,0:0:0:0:
472,240,61369,2,0,B|495:242|495:242|456:256,1,64.3500010967992,2|0,0:0|0:0,0:0:0:0:
304,328,61546,6,0,B|272:344|272:344|176:336|192:272|192:272|224:312,1,182.250001298725,10|0,0:0|0:0,0:0:0:0:
208,304,61899,1,2,1:2:0:0:
144,384,62075,2,0,B|112:352|112:352|112:280|96:192|160:192|160:192|176:104|112:72|72:104,1,400.049998272573,2|0,0:0|0:0,0:1:0:0:
72,88,62781,2,0,P|104:80|136:88,1,57.1499997532247
208,152,62957,6,0,B|184:144|184:144|80:216|80:216|48:200,1,182.250001298725,10|0,0:0|0:0,0:0:0:0:
32,192,63310,2,0,B|8:208|8:208|40:208,1,60.7500004329084,2|0,1:2|0:0,0:0:0:0:
52,202,63487,2,0,L|252:154,1,171.449999259674,2|0,0:0|0:0,0:1:0:0:
280,112,63840,2,0,L|344:144,1,60.7500004329084,2|0,0:0|0:0,0:0:0:0:
360,64,64016,2,0,L|424:96,1,60.7500004329084,2|0,1:2|0:0,0:0:0:0:
440,16,64193,2,0,L|504:48,1,60.7500004329084,2|0,0:0|0:0,0:0:0:0:
432,120,64369,6,0,L|400:272,1,121.500000865817,10|0,0:0|0:0,0:1:0:0:
424,248,64634,1,0,0:0:0:0:
440,240,64722,2,0,P|408:296|344:296,1,128.700002193598,2|0,1:2|0:0,0:1:0:0:
320,288,64987,1,0,0:0:0:0:
304,256,65075,2,0,B|200:272|200:272|160:312,1,135.000005596876,10|0,0:0|0:0,0:1:0:0:
160,328,65340,1,0,0:0:0:0:
112,336,65428,2,0,P|56:296|48:168,1,141.300001006913,2|0,1:2|0:0,0:1:0:0:
56,176,65693,1,0,0:0:0:0:
112,160,65781,6,0,P|160:88|48:72,1,222.750002861916,10|0,0:0|0:1,0:1:0:0:
192,208,66134,2,0,P|224:224|264:232,1,74.2500009539722,2|0,1:2|0:1,0:1:0:0:
384,40,66310,2,0,B|328:32|296:80|296:80|264:128|184:112,1,222.750002861916,2|0,0:0|0:1,0:1:0:0:
368,120,66663,6,0,L|440:104,1,64.3500010967992,2|0,0:0|0:0,0:0:0:0:
336,264,66840,2,0,B|344:296|344:296|376:320,1,64.3500010967992,2|0,1:2|0:0,0:0:0:0:
480,208,67016,2,0,P|456:192|408:192,1,64.3500010967992,2|0,0:0|0:0,0:0:0:0:
312,368,67193,5,14,0:0:0:0:
496,288,67369,2,0,P|432:296|376:344,1,121.500000865817,2|0,0:0|1:0,0:0:0:0:
328,384,67722,1,2,0:0:0:0:
256,304,67899,1,10,0:0:0:0:
120,304,68075,2,0,L|248:328,1,121.500000865817,2|0,0:0|1:0,0:0:0:0:
56,352,68428,1,2,0:0:0:0:
208,232,68604,5,10,0:0:0:0:
64,152,68781,1,2,0:0:0:0:
208,48,68957,1,2,1:2:0:0:
88,72,69134,2,0,P|136:32|232:56,1,121.500000865817,2|8,0:0|0:0,0:0:0:0:
344,104,69487,6,0,L|328:192,1,64.3500010967992,2|0,0:0|0:0,0:0:0:0:
496,200,69663,2,0,L|480:128,1,64.3500010967992,2|0,1:2|0:0,0:0:0:0:
288,32,69840,2,0,L|504:0,1,193.050003290398,2|0,0:0|0:0,0:0:0:0:
478,3,70193,6,0,P|496:40|504:80,1,64.3500010967992,2|0,0:0|0:0,0:0:0:0:
413,189,70369,2,0,P|392:224|360:248,1,64.3500010967992,2|0,1:2|0:0,0:0:0:0:
192,376,70546,2,0,P|159:356|168:184,1,193.050003290398,2|0,0:0|0:0,0:0:0:0:
160,208,70899,6,0,P|192:213|224:232,1,64.3500010967992,2|0,0:0|0:0,0:0:0:0:
480,328,71075,2,0,P|448:312|408:304,1,64.3500010967992,2|0,1:2|0:0,0:0:0:0:
264,160,71252,2,0,P|265:205|360:368,1,193.050003290398,2|0,0:0|0:0,0:0:0:0:
360,352,71604,2,0,P|352:384|328:352,1,64.3500010967992,2|0,0:0|0:0,0:0:0:0:
256,272,71781,2,0,B|184:272|208:312|128:304,1,128.700002193598,2|0,1:2|0:0,0:0:0:0:
16,200,72134,6,0,P|8:168|24:144,1,64.3500010967992,8|0,0:0|0:0,0:0:0:0:
104,192,72310,2,0,L|72:264,1,60.7500004329084,2|0,0:0|0:0,0:0:0:0:
96,112,72487,2,0,B|112:88|112:88|144:96,1,57.1499997532247,2|0,1:2|0:0,0:0:0:0:
176,104,72663,2,0,P|205:105|232:80,1,53.9999985308646,2|0,0:0|0:0,0:0:0:0:
240,80,72840,5,10,0:0:0:0:
200,184,73016,1,0,0:0:0:0:
312,48,73193,2,0,P|368:58|424:112,1,107.999997061729,2|0,1:2|0:0,0:0:0:0:
440,160,73546,5,10,0:0:0:0:
304,24,73722,1,0,0:0:0:0:
360,176,73899,2,0,P|378:224|392:320,1,107.999997061729,2|0,1:2|0:0,0:0:0:0:
192,312,74252,6,0,P|208:232|288:216,1,171.449999259674,10|0,0:0|0:0,0:0:0:0:
264,352,74604,2,0,B|224:336|224:336|96:360,1,171.449999259674,2|0,1:2|0:0,0:0:0:0:
48,224,74957,2,0,B|96:232|120:272|120:272|216:288,1,182.250001298725,10|0,0:0|0:0,0:0:0:0:
434,317,75310,6,0,L|474:309,1,29.7000000077104,2|0,0:0|0:0,0:0:0:0:
463,311,75663,6,0,B|423:287|423:287|407:167|407:167|359:143,1,209.700009093785,14|0,0:1|0:0,0:0:0:0:
384,16,75928,2,0,B|344:40|344:40|328:160|328:160|280:184,1,209.700009093785,2|0,0:1|0:0,0:0:0:0:
208,216,76193,2,0,L|216:136,1,80.1000003263519,2|0,0:1|0:0,0:0:0:0:
208,64,76369,6,0,B|176:56|176:56|96:88,1,104.850004546893,10|0,0:1|0:0,0:0:0:0:
109,82,76546,2,0,L|93:202,1,104.850004546893
95,185,76722,2,0,B|111:257|111:257|143:281,1,104.850004546893,2|0,1:1|0:0,0:0:0:0:
104,360,76899,2,0,B|144:328|144:328|216:336,1,104.850004546893,2|0,0:1|0:0,0:0:0:0:
264,384,77075,6,0,B|312:368|312:368|362:248|362:248|416:240,1,225.000000745057,14|0,0:1|0:0,0:0:0:0:
456,304,77340,2,0,B|408:288|408:288|357:168|357:168|304:160,1,225.000000745057,2|0,0:1|0:0,0:0:0:0:
416,112,77604,2,0,B|504:80|504:80|496:104|496:104|472:112,1,112.500000372529,2|0,0:1|0:0,0:0:0:0:
344,88,77781,6,0,L|224:72,1,90.000000298023,10|0,0:1|0:0,0:0:0:0:
78,73,77957,2,0,L|176:97,1,90.000000298023,2|0,0:1|0:0,0:0:0:0:
254,76,78134,2,0,L|160:96,1,90.000000298023,2|0,1:1|0:0,0:0:0:0:
24,16,78310,2,0,L|120:0,1,90.000000298023,2|0,0:1|0:0,0:0:0:0:
176,112,78487,6,0,B|160:232|160:232|120:272,1,160.200000652704,14|0,0:1|0:0,0:0:0:0:
64,360,78752,2,0,B|40:248|40:248|72:208,1,160.200000652704,2|0,0:1|0:0,0:0:0:0:
216,176,79016,2,0,B|248:168|248:168|304:192,1,80.1000003263519,2|0,0:1|0:0,0:0:0:0:
464,320,79193,6,0,B|392:344|392:344|336:336,1,104.850004546893,10|0,0:1|0:0,0:0:0:0:
208,344,79369,2,0,B|144:344|144:344|192:320,1,104.850004546893
360,224,79546,2,0,B|423:207|423:207|368:256,1,104.850004546893,2|0,1:1|0:0,0:0:0:0:
280,376,79722,2,0,L|304:216,1,104.850004546893,2|0,0:1|0:0,0:0:0:0:
368,104,79899,6,0,B|344:80|344:80|264:104|264:104|201:75|201:75|264:56,1,225.000000745057,14|0,0:1|0:0,0:0:0:0:
416,40,80163,2,0,B|480:24|480:24|504:-8|504:-8|368:16,1,225.000000745057,2|0,0:1|0:0,0:0:0:0:
184,168,80428,2,0,B|272:144|272:144|304:112,1,112.500000372529,2|0,0:1|0:0,0:0:0:0:
136,16,80604,6,0,B|120:32|120:32|104:104,1,90.000000298023,10|0,0:1|0:0,0:0:0:0:
256,200,80781,2,0,B|272:208|272:208|256:272|256:272|232:280,1,101.250004197657,2|0,0:1|0:0,0:0:0:0:
128,264,80957,2,0,B|96:208|96:208|104:184,1,90.000000298023,2|0,1:1|0:0,0:0:0:0:
287,128,81134,2,0,B|356:139|356:139|371:153|371:153|367:184,1,112.500000372529,2|0,0:1|0:0,0:0:0:0:
248,360,81310,6,0,B|208:368|208:368|32:328|32:328|64:376,1,250.200008464002,14|0,0:1|0:0,0:0:0:0:
208,368,81575,2,0,B|264:376|264:376|344:352|344:352|328:312,1,160.200000652704,2|0,0:1|0:0,0:0:0:0:
388,263,81840,2,0,L|304:248,1,80.1000003263519,2|0,0:1|0:0,0:0:0:0:
472,384,82016,6,0,B|480:352|480:352|464:296|464:296|448:312,1,104.850004546893,10|0,0:1|0:0,0:0:0:0:
360,176,82193,2,0,B|384:152|384:152|488:128,1,104.850004546893
464,152,82369,2,0,L|352:136,1,104.850004546893,2|0,1:1|0:0,0:0:0:0:
240,136,82546,2,0,B|272:128|272:128|328:32,1,104.850004546893,2|0,0:1|0:0,0:0:0:0:
56,48,82722,6,0,B|72:128|72:128|112:152|112:152|136:248,1,225.000000745057,14|0,0:1|0:0,0:0:0:0:
96,376,82987,2,0,B|112:296|112:296|152:272|152:272|176:176,1,225.000000745057,2|0,0:1|0:0,0:0:0:0:
48,216,83252,2,0,B|0:248|0:248|64:240,1,112.500000372529,2|0,0:1|0:0,0:0:0:0:
248,232,83428,6,0,B|280:240|280:240|288:248|288:248|336:264,1,90.000000298023,10|0,0:1|0:0,0:0:0:0:
192,368,83604,2,0,B|256:360|256:360|280:344,1,90.000000298023,2|0,0:1|0:0,0:0:0:0:
321,279,83781,2,0,B|352:272|352:272|408:288,1,90.000000298023,2|0,1:1|0:0,0:0:0:0:
488,272,83957,2,0,B|520:240|520:240|464:256,1,90.000000298023,2|0,0:1|0:0,0:0:0:0:
360,368,84134,6,0,B|336:216|336:216|376:160,1,202.500008395314,14|2,0:1|0:1,0:0:0:0:
472,24,84663,1,2,0:1:0:0:
432,128,84840,2,0,P|464:120|496:96,1,67.500002798438,2|0,0:1|0:0,0:0:0:0:
360,88,85016,2,0,P|368:56|368:16,1,67.500002798438,2|0,0:1|0:0,0:0:0:0:
280,104,85193,2,0,P|256:80|240:40,1,67.500002798438,2|0,0:1|0:0,0:0:0:0:
224,232,85369,2,0,P|192:248|120:240,1,67.500002798438,2|0,0:1|0:0,0:0:0:0:
48,160,85546,6,0,B|80:136|80:136|208:152|208:152|184:112,2,202.500008395314,10|2|2,0:1|0:1|0:1,0:0:0:0:
72,256,86163,1,0,0:0:0:0:
64,240,86252,2,0,L|-8:248,1,67.500002798438,2|0,0:1|0:0,0:0:0:0:
114,112,86428,2,0,L|104:32,1,67.500002798438,2|0,0:1|0:0,0:0:0:0:
184,16,86604,2,0,B|216:16|216:16|184:40,1,67.500002798438,2|0,0:1|0:0,0:0:0:0:
32,0,86781,2,0,L|16:80,1,67.500002798438,2|0,0:1|0:0,0:0:0:0:
144,224,86957,6,0,B|184:296|272:256|272:256|232:256|224:328,1,180.000000596046,14|0,0:1|0:0,0:0:0:0:
