osu file format v14

[General]
AudioFilename: audio.mp3
AudioLeadIn: 0
PreviewTime:35737
Countdown: 0
SampleSet: Soft
StackLeniency: 0.4
Mode: 0
LetterboxInBreaks: 0
WidescreenStoryboard: 1

[Editor]
Bookmarks:49016
DistanceSpacing: 2.5
BeatDivisor: 4
GridSize: 8
TimelineZoom: 2.5

[Metadata]
Title:Kaibutsu (TV Size)
TitleUnicode:怪物 (TV Size)
Artist:YOASOBI
ArtistUnicode:YOASOBI
Creator:Ryuusei Aika
Version:Elcheer's Expert
Source:BEASTARS
Tags:ビースターズ japanese furry anime op2 pop j-pop jpop opening theme 幾田りら Ikuta Rira Lilas Ayase Monster MoeAsuka Atrue SuperBox Fall Marle Calvaria Mariko Sakuragi Reiji Maigo SB hhjkl [Hatsune Miku] [Hatsune_Miku] Hatsune Miku Remapper _lai Kyrian 09kami Ducky- Acyl Acylica Bellicose wafer iWaifu KAMI NO KOTOBA Addy2607 KaedeharaKazuha Airincat Chompy Yooh Reywateil Amateurre Sparhten Ajisai- HabiHolic newton- Yuuma Ogura Yui fedora- UberFazz xidorn Pata-Mon PataMon Deca Wanpachi cycopton Gibune wiken Fuju Stratos Crystal OneShotFox Elcheer Fieryrage hypercyte hypercute Kittyadventure gokugohan12468 Kyouren Zelq ponbot Yuuma3 Mimari i love ganyu Flake yaspo Regraz Mafumafu bongo Moete Senseabel Senseable Kuse KuBsNia_ZhoYL_ wetdog123 eiri-
BeatmapID:2820221
BeatmapSetID:1335792

[Difficulty]
HPDrainRate:5
CircleSize:3.7
OverallDifficulty:8
ApproachRate:8
SliderMultiplier:1.60000000596046
SliderTickRate:1

[Events]
//Background and Video events
0,0,"furry.jpg",0,0
Video,-200,"OP.mp4"
//Break Periods
//Storyboard Layer 0 (Background)
//Storyboard Layer 1 (Fail)
//Storyboard Layer 2 (Pass)
//Storyboard Layer 3 (Foreground)
//Storyboard Layer 4 (Overlay)
//Storyboard Sound Samples

[TimingPoints]
-3395,352.941176470588,4,2,1,40,1,0
1543,-100,4,2,1,40,0,0
1546,-400,4,2,1,40,0,0
2249,-133.333333333333,4,2,1,40,0,0
2252,-133.333333333333,4,2,1,60,0,0
13193,-50,4,2,1,60,0,0
13543,-100,4,2,1,60,0,0
13546,-111.111111111111,4,2,1,70,0,0
24837,-111.111111111111,4,2,1,70,0,0
24840,-133.333333333333,4,2,1,60,0,0
29604,-111.111111111111,4,2,1,60,0,0
30484,-111.111111111111,4,2,1,60,0,0
30487,-100,4,2,1,75,0,0
35428,-200,4,2,1,75,0,0
35516,-200,4,2,1,75,0,0
35778,-200,4,2,1,75,0,0
35781,-133.333333333333,4,2,1,60,0,0
36046,-133.333333333333,4,2,1,60,0,0
36131,-133.333333333333,4,2,1,60,0,0
36134,-83.3333333333333,4,2,1,80,0,1
36222,-83.3333333333333,4,2,1,80,0,0
42840,-74.0740740740741,4,2,1,80,0,0
43193,-78.7401574803149,4,2,1,80,0,0
44252,-66.6666666666667,4,2,1,80,0,0
44604,-69.9300699300699,4,2,1,80,0,0
45310,-74.0740740740741,4,2,1,80,0,0
45575,-83.3333333333333,4,2,1,80,0,0
45840,-78.7401574803149,4,2,1,80,0,0
47428,-74.0740740740741,4,2,1,80,0,1
49193,-69.9300699300699,4,2,1,80,0,0
53075,-83.3333333333333,4,2,1,80,0,0
54134,-74.0740740740741,4,2,1,80,0,0
54487,-78.7401574803149,4,2,1,80,0,0
55899,-74.0740740740741,4,2,1,80,0,1
56428,-78.7401574803149,4,2,1,80,0,0
57310,-74.0740740740741,4,2,1,80,0,0
58193,-78.7401574803149,4,2,1,80,0,0
58369,-74.0740740740741,4,2,1,80,0,0
58546,-69.9300699300699,4,2,1,80,0,0
58722,-74.0740740740741,4,2,1,80,0,0
60134,-74.0740740740741,4,2,1,80,0,0
60663,-78.7401574803149,4,2,1,80,0,0
61016,-78.7401574803149,4,2,1,80,0,0
61192,-74.0740740740741,4,2,1,80,0,0
61369,-69.9300699300699,4,2,1,80,0,0
61546,-74.0740740740741,4,2,1,80,0,0
62075,-78.7401574803149,4,2,1,80,0,0
62957,-74.0740740740741,4,2,1,80,0,0
63486,-78.7401574803149,4,2,1,80,0,0
64722,-69.9300699300699,4,2,1,80,0,0
65075,-66.6666666666667,4,2,1,80,0,0
65428,-63.6942675159236,4,2,1,80,0,0
65781,-60.6060606060606,4,2,1,80,0,0
66663,-69.9300699300699,4,2,1,80,0,0
67193,-74.0740740740741,4,2,1,80,0,0
69487,-69.9300699300699,4,2,1,80,0,0
72310,-74.0740740740741,4,2,1,80,0,0
72487,-78.7401574803149,4,2,1,80,0,0
72663,-83.3333333333333,4,2,1,80,0,0
74252,-78.7401574803149,4,2,1,80,0,0
74957,-74.0740740740741,4,2,1,80,0,0
75310,-303.030303030303,4,2,1,80,0,0
75663,-55.5555555555556,4,2,1,80,0,0
76193,-56.1797752808989,4,2,1,80,0,1
77781,-50,4,2,1,80,0,1
84133,-50,4,2,1,70,0,1
84134,-66.6666666666667,4,2,1,70,0,0
86957,-50,4,2,1,90,0,0

[Colours]
Combo1 : 191,96,0
Combo2 : 143,32,255
Combo3 : 191,0,96
Combo4 : 0,80,159

[HitObjects]
22,45,1546,6,0,L|12:131,1,60.0000025123357,2|0,0:0|0:0,0:0:0:0:
15,104,2252,6,0,L|22:45,1,60.0000025123357,10|0,0:0|0:0,0:0:0:0:
95,158,2604,2,0,L|101:217,1,60.0000025123357,10|2,0:0|0:0,0:0:0:0:
120,302,2957,1,10,0:0:0:0:
120,302,3134,1,0,0:0:0:0:
213,244,3310,1,10,0:0:0:0:
326,309,3487,1,2,0:0:0:0:
350,118,3663,6,0,L|335:42,2,60.0000025123357,10|0|8,0:0|0:0|0:0,0:0:0:0:
326,309,4193,2,0,L|311:233,1,60.0000025123357,2|8,0:0|0:0,0:0:0:0:
338,59,4546,2,0,L|350:117,1,60.0000025123357,2|8,0:0|0:0,0:0:0:0:
148,172,4899,6,0,P|133:122|193:76,1,120.000005024671,2|2,0:0|0:0,0:0:0:0:
82,27,5428,1,8,0:0:0:0:
82,27,5604,1,2,0:0:0:0:
176,77,5781,1,10,0:0:0:0:
46,121,5957,1,2,0:0:0:0:
148,172,6134,1,10,0:0:0:0:
148,172,6310,1,2,0:0:0:0:
17,112,6487,6,0,P|2:147|0:181,2,60.0000025123357,10|2|8,0:0|0:0|0:0,0:0:0:0:
148,172,7016,2,0,P|160:199|165:228,1,60.0000025123357,2|10,0:0|0:0,0:0:0:0:
128,326,7369,1,2,0:0:0:0:
239,263,7546,1,10,0:0:0:0:
298,369,7722,1,2,0:0:0:0:
376,212,7899,6,0,L|365:144,1,60.0000025123357,10|0,0:0|0:0,0:0:0:0:
270,66,8252,2,0,L|279:125,1,60.0000025123357,10|0,0:0|0:0,0:0:0:0:
376,212,8604,1,10,0:0:0:0:
420,49,8781,1,2,0:0:0:0:
279,125,8957,1,10,0:0:0:0:
463,175,9134,1,2,0:0:0:0:
279,125,9310,5,10,0:0:0:0:
420,49,9487,1,0,0:0:0:0:
376,212,9663,1,10,0:0:0:0:
263,33,9840,2,0,B|229:17|193:32|210:47|175:68|130:49,1,120.000005024671,2|2,0:0|0:0,0:0:0:0:
59,7,10369,1,8,0:0:0:0:
59,7,10546,6,0,L|43:133,1,120.000005024671,2|2,0:0|0:0,0:0:0:0:
115,196,11075,2,0,L|187:179,1,60.0000025123357,10|0,0:0|0:0,0:0:0:0:
65,271,11604,5,2,0:0:0:0:
173,182,11780,2,0,L|245:199,1,60.0000025123357,10|2,0:0|0:0,0:0:0:0:
249,306,12134,5,10,0:0:0:0:
373,298,12310,1,2,0:0:0:0:
488,240,12487,1,10,0:0:0:0:
373,298,12663,2,0,P|358:228|381:168,1,120.000005024671,2|2,0:0|0:0,0:0:0:0:
371,182,13369,5,0,0:0:0:0:
280,77,13546,5,14,0:0:0:0:
222,209,13722,1,0,0:0:0:0:
90,151,13899,1,2,1:2:0:0:
222,209,14075,1,2,0:0:0:0:
354,267,14252,1,10,0:0:0:0:
222,209,14428,1,2,0:0:0:0:
164,341,14604,1,2,1:2:0:0:
222,209,14780,1,2,0:0:0:0:
280,77,14957,6,0,L|222:211,1,143.99999614191,10|0,0:0|1:0,0:0:0:0:
354,267,15487,2,0,L|337:179,1,71.9999980709551,2|8,0:0|0:0,0:0:0:0:
207,297,15840,2,0,L|295:314,1,71.9999980709551,2|0,0:0|1:0,0:0:0:0:
425,229,16193,6,0,L|399:87,1,143.99999614191,2|2,0:0|0:0,0:0:0:0:
294,27,16722,1,0,1:0:0:0:
294,27,16899,1,2,0:0:0:0:
248,187,17075,1,10,0:0:0:0:
248,187,17252,1,2,0:0:0:0:
130,67,17428,1,2,1:2:0:0:
248,187,17604,1,2,0:0:0:0:
88,254,17781,5,10,0:0:0:0:
137,181,17957,2,0,P|167:216|174:253,1,71.9999980709551,2|0,0:0|1:0,0:0:0:0:
79,366,18310,2,0,B|114:339|150:352|146:365|184:382|221:367,1,143.99999614191,2|2,0:0|0:0,0:0:0:0:
288,258,18840,1,2,1:2:0:0:
357,360,19016,1,2,0:0:0:0:
379,157,19193,6,0,L|371:234,1,71.9999980709551,10|0,0:0|0:0,0:0:0:0:
270,81,19546,2,0,L|278:4,1,71.9999980709551,2|0,1:2|0:0,0:0:0:0:
379,157,19899,1,10,0:0:0:0:
270,81,20075,1,2,0:0:0:0:
201,181,20252,1,2,1:2:0:0:
337,282,20428,6,0,P|283:255|227:314,1,143.99999614191,2|2,0:0|0:0,0:0:0:0:
126,195,20957,1,2,1:2:0:0:
99,353,21134,2,0,L|114:267,1,71.9999980709551,2|8,0:0|0:0,0:0:0:0:
142,105,21487,1,2,0:0:0:0:
126,195,21663,1,2,1:2:0:0:
159,14,21840,6,0,L|245:29,1,71.9999980709551,2|8,0:0|0:0,0:0:0:0:
318,1,22193,1,2,0:0:0:0:
332,71,22369,2,0,L|317:0,1,71.9999980709551,2|0,1:2|0:0,0:0:0:0:
373,209,22899,5,2,0:0:0:0:
317,141,23076,2,0,L|331:70,1,71.9999980709551,0|0,1:0|0:0,0:0:0:0:
459,196,23428,6,0,L|473:266,1,71.9999980709551,10|0,0:0|0:0,0:0:0:0:
324,333,23781,2,0,P|355:297|391:299,1,71.9999980709551,2|0,1:2|0:0,0:0:0:0:
240,271,24134,2,0,L|144:256,1,71.9999980709551,10|0,0:0|0:0,0:0:0:0:
88,173,24487,2,0,P|148:149|184:200,1,107.999997106433,2|0,1:2|0:0,0:0:0:0:
65,250,24840,6,0,L|44:124,1,120.000005024671,10|2,0:1|1:2,0:0:0:0:
25,7,25369,1,10,1:1:0:0:
148,69,25546,1,2,0:0:0:0:
148,69,25722,2,0,L|217:49,1,60.0000025123357,10|0,0:1|1:2,0:0:0:0:
316,18,26075,1,10,0:1:0:0:
252,152,26252,5,2,0:0:0:0:
252,152,26428,1,2,0:0:0:0:
346,99,26604,1,2,1:2:0:0:
335,229,26781,2,0,L|316:364,1,120.000005024671,2|10,1:2|0:1,0:0:0:0:
335,229,27310,1,2,1:2:0:0:
335,229,27487,1,2,0:0:0:0:
400,380,27663,6,0,P|367:332|311:339,2,120.000005024671,10|2|2,0:1|1:2|0:0,0:0:0:0:
430,249,28546,2,0,L|459:130,1,120.000005024671,10|10,0:1|0:1,0:0:0:0:
378,14,29075,1,2,0:0:0:0:
378,14,29252,1,2,0:0:0:0:
458,132,29428,1,2,1:2:0:0:
302,73,29604,2,0,B|263:57|224:73|238:88|201:104|156:81,1,143.99999614191,2|2,1:2|0:0,0:0:0:0:
52,0,30134,1,10,0:1:0:0:
99,178,30310,1,2,0:0:0:0:
99,178,30399,1,0,0:0:0:0:
99,178,30487,6,0,P|152:166|196:251,1,160.000000596046,14|2,0:0|1:2,0:0:0:0:
126,352,31016,1,2,1:2:0:0:
197,246,31193,5,10,0:0:0:0:
257,368,31369,2,0,L|279:287,1,80.000000298023,2|0,0:0|1:0,0:0:0:0:
301,154,31722,6,0,B|323:251|323:251|274:293,1,160.000000596046,2|2,0:0|0:0,0:0:0:0:
221,94,32252,1,2,1:2:0:0:
378,134,32428,2,0,L|301:154,1,80.000000298023,2|8,1:2|0:0,0:0:0:0:
156,33,32781,1,2,0:0:0:0:
298,61,32957,1,2,1:2:0:0:
219,205,33134,1,2,0:0:0:0:
378,134,33310,6,0,B|456:114|456:114|489:137|499:179,1,160.000000596046,10|2,0:0|1:2,0:0:0:0:
407,357,33840,1,0,1:0:0:0:
407,357,34016,2,0,P|401:306|427:260,1,80.000000298023,10|2,0:0|0:0,0:0:0:0:
498,178,34369,1,0,1:0:0:0:
328,221,34546,5,2,0:0:0:0:
328,221,34899,5,2,0:0:0:0:
230,156,35076,1,10,0:0:0:0:
180,288,35252,1,2,0:0:0:0:
180,288,35428,1,10,0:0:0:0:
53,83,35781,6,0,P|41:134|34:190,1,90.0000037685036,2|0,0:1|0:0,0:0:0:0:
31,211,36134,5,14,0:0:0:0:
184,64,36310,2,0,P|200:111|205:173,1,95.9999974279402,2|0,0:0|1:0,0:0:0:0:
277,34,36663,1,2,0:0:0:0:
175,246,36840,2,0,P|185:199|205:156,1,95.9999974279402,10|0,0:0|0:0,0:0:0:0:
178,365,37193,1,2,1:2:0:0:
314,244,37369,6,0,P|371:239|394:321,1,143.99999614191,2|0,0:0|0:0,0:0:0:0:
377,345,37722,1,2,0:0:0:0:
477,182,37899,1,2,1:2:0:0:
314,244,38075,1,2,0:0:0:0:
224,63,38252,2,0,P|205:114|207:169,1,95.9999974279402,10|0,0:0|0:0,0:0:0:0:
454,92,38604,2,0,P|452:44|434:-1,1,95.9999974279402,2|0,1:2|0:0,0:0:0:0:
204,155,38957,5,10,0:0:0:0:
314,244,39134,2,0,P|332:184|328:139,1,95.9999974279402,2|0,0:0|1:0,0:0:0:0:
300,25,39487,1,2,0:0:0:0:
111,138,39663,2,0,P|171:156|216:152,1,95.9999974279402,10|0,0:0|0:0,0:0:0:0:
370,71,40016,1,2,1:2:0:0:
203,154,40193,6,0,P|179:207|192:310,1,143.99999614191,2|0,0:0|0:0,0:0:0:0:
204,326,40546,1,2,0:0:0:0:
340,251,40722,1,2,1:2:0:0:
469,383,40899,1,2,0:0:0:0:
365,153,41075,1,10,0:0:0:0:
291,380,41252,1,2,0:0:0:0:
194,184,41428,1,2,1:2:0:0:
194,184,41604,1,2,0:0:0:0:
431,225,41781,6,0,P|374:234|335:255,1,95.9999974279402,10|0,0:0|0:0,0:0:0:0:
265,66,42134,2,0,P|308:86|355:92,1,95.9999974279402,2|0,1:2|0:0,0:0:0:0:
449,317,42487,2,0,P|447:270|431:225,1,95.9999974279402,10|0,0:0|0:0,0:0:0:0:
266,185,42840,2,0,P|331:173|319:263,1,162.000001221478,2|0,1:2|0:0,0:0:0:0:
232,255,43193,6,0,P|220:202|217:135,1,101.599999603343,10|0,0:0|0:0,0:0:0:0:
93,56,43546,2,0,P|81:109|78:176,1,101.599999603343,2|0,1:2|0:0,0:0:0:0:
319,62,43899,2,0,P|274:16|196:63,1,152.399999405014,10|0,0:0|0:0,0:0:0:0:
264,119,44252,2,0,L|388:97,1,120.000005024671,2|0,1:2|0:0,0:0:0:0:
512,240,44604,6,0,P|438:218|392:227,1,114.400001997218,10|0,0:0|0:0,0:0:0:0:
217,325,44957,2,0,P|291:303|337:312,1,114.400001997218,2|2,1:2|0:0,0:0:0:0:
196,205,45310,1,10,0:0:0:0:
343,142,45487,1,0,0:0:0:0:
217,325,45663,1,2,1:2:0:0:
217,325,45840,6,0,B|169:356|113:332|127:306|69:283|20:327,1,203.199999206685,2|2,0:0|0:0,0:0:0:0:
95,179,46369,1,2,1:2:0:0:
217,325,46546,2,0,P|261:231|191:144,1,203.199999206685,2|2,0:0|1:2,0:0:0:0:
67,46,47075,2,0,P|120:84|201:52,1,152.399999405014,2|2,1:2|1:2,0:0:0:0:
212,17,47428,6,0,B|370:34|370:34|396:78|370:123,1,216.000001628637,14|0,0:0|1:0,0:0:0:0:
321,202,47957,1,2,0:0:0:0:
382,88,48134,1,10,0:0:0:0:
413,272,48310,2,0,L|430:378,1,108.000000814318,2|0,0:0|1:0,0:0:0:0:
452,162,48663,5,2,0:0:0:0:
234,252,48840,1,10,0:0:0:0:
413,272,49016,5,2,0:0:0:0:
191,113,49193,1,2,1:2:0:0:
309,384,49369,2,0,P|315:313|310:262,1,114.400001997218,2|8,0:0|0:0,0:0:0:0:
127,160,49722,5,2,0:0:0:0:
364,182,49899,1,2,1:2:0:0:
127,160,50075,2,0,P|187:138|234:104,1,114.400001997218,2|8,0:0|0:0,0:0:0:0:
39,13,50428,5,2,0:0:0:0:
9,260,50604,1,2,1:2:0:0:
39,13,50781,2,0,P|51:83|57:143,1,114.400001997218,2|8,0:0|0:0,0:0:0:0:
10,365,51134,5,2,0:0:0:0:
127,160,51310,1,2,1:2:0:0:
10,365,51487,2,0,P|70:337|123:328,1,114.400001997218,2|8,0:0|0:0,0:0:0:0:
341,364,51840,1,2,0:0:0:0:
234,158,52016,2,0,P|214:226|211:276,1,114.400001997218,2|0,1:2|0:0,0:0:0:0:
423,150,52369,5,10,0:0:0:0:
292,14,52546,1,2,0:0:0:0:
163,89,52722,1,2,1:2:0:0:
234,158,52899,1,2,0:0:0:0:
439,61,53075,6,0,P|378:76|355:109,1,95.9999974279402,10|0,0:0|0:0,0:0:0:0:
482,309,53428,2,0,P|488:239|483:196,1,95.9999974279402,2|0,1:2|0:0,0:0:0:0:
432,28,53781,2,0,P|371:43|348:76,1,95.9999974279402,10|0,0:0|0:0,0:0:0:0:
455,309,54134,2,0,P|461:239|449:187,1,108.000000814318,2|0,1:2|0:0,0:0:0:0:
240,75,54487,6,0,P|234:145|246:196,1,101.599999603343,10|0,0:0|0:0,0:0:0:0:
374,318,54840,2,0,P|321:303|272:326,1,101.599999603343,2|0,1:2|0:0,0:0:0:0:
157,381,55193,1,10,0:0:0:0:
239,175,55369,1,0,0:0:0:0:
78,298,55546,2,0,P|63:228|63:177,1,101.599999603343,2|0,1:2|0:0,0:0:0:0:
319,153,55899,6,0,P|315:218|186:246,2,216.000001628637,10|0|10,0:0|1:0|0:0,0:0:0:0:
115,109,56781,1,2,0:0:0:0:
187,247,56957,2,0,P|198:317|191:358,1,101.599999603343,2|0,1:2|0:0,0:0:0:0:
26,160,57310,6,0,P|15:90|25:47,1,108.000000814318,10|0,0:0|0:0,0:0:0:0:
190,3,57663,2,0,P|234:58|247:100,1,108.000000814318,2|0,1:2|0:0,0:0:0:0:
109,281,58016,2,0,P|97:211|108:167,1,108.000000814318,10|0,0:0|0:0,0:0:0:0:
323,75,58369,2,0,P|367:130|380:172,1,108.000000814318,2|0,1:2|0:0,0:0:0:0:
276,307,58722,1,10,0:0:0:0:
276,307,59075,6,0,B|259:239|259:239|298:188,1,108.000000814318,2|0,1:2|0:0,0:0:0:0:
435,286,59428,2,0,B|452:354|452:354|413:405,1,108.000000814318,10|0,0:0|0:0,0:0:0:0:
176,232,59781,2,0,L|286:207,1,108.000000814318,2|0,1:2|0:0,0:0:0:0:
476,155,60134,1,10,0:0:0:0:
476,155,60487,6,0,P|492:91|469:52,1,108.000000814318,2|0,1:2|0:0,0:0:0:0:
252,0,60840,2,0,P|236:64|256:104,1,101.599999603343,10|0,0:0|0:0,0:0:0:0:
404,204,61193,2,0,B|353:186|353:186|306:234|316:304,1,162.000001221478,2|0,1:2|0:0,0:0:0:0:
336,318,61546,6,0,B|276:292|221:314|243:337|180:366|128:326,2,216.000001628637,10|2|10,0:0|1:2|0:0,0:0:0:0:
182,237,62428,1,0,0:0:0:0:
335,102,62604,2,0,L|317:212,1,101.599999603343,2|0,1:2|0:0,0:0:0:0:
79,128,62957,6,0,B|88:97|118:83|118:83|219:108|249:191,1,216.000001628637,10|2,0:0|1:2,0:0:0:0:
163,6,63487,1,2,0:0:0:0:
44,204,63663,2,0,P|24:272|31:326,1,101.599999603343,10|0,0:0|0:0,0:0:0:0:
239,169,64016,2,0,P|259:237|252:291,1,101.599999603343,2|0,1:2|0:0,0:0:0:0:
145,354,64369,5,10,0:0:0:0:
335,306,64546,1,0,0:0:0:0:
159,210,64722,2,0,P|149:147|174:96,1,114.400001997218,2|0,1:2|0:0,0:0:0:0:
354,33,65075,5,10,0:0:0:0:
401,239,65252,1,0,0:0:0:0:
168,102,65428,2,0,P|224:118|294:112,1,125.600000947022,2|0,1:2|0:0,0:0:0:0:
499,58,65781,6,0,P|400:98|422:259,1,264.000003501176,10|0,0:0|1:0,0:0:0:0:
494,348,66310,2,0,B|440:308|354:345|378:372|313:397|244:350,1,264.000003501176,2|2,0:0|0:0,0:0:0:0:
124,242,66840,1,2,1:2:0:0:
124,242,67016,1,2,0:0:0:0:
314,87,67193,5,14,0:0:0:0:
215,265,67369,2,0,P|202:197|204:141,1,108.000000814318,2|0,0:0|1:0,0:0:0:0:
267,3,67722,1,2,0:0:0:0:
91,156,67899,1,10,0:0:0:0:
339,293,68075,2,0,P|352:225|350:169,1,108.000000814318,2|0,0:0|1:0,0:0:0:0:
267,3,68428,5,2,0:0:0:0:
91,156,68604,1,10,0:0:0:0:
342,81,68781,1,2,0:0:0:0:
128,241,68957,1,2,1:2:0:0:
342,81,69134,2,0,P|362:143|370:205,1,108.000000814318,2|8,0:0|0:0,0:0:0:0:
258,354,69487,5,2,0:0:0:0:
171,126,69663,1,2,1:2:0:0:
258,354,69840,2,0,P|277:280|280:228,1,114.400001997218,2|8,0:0|0:0,0:0:0:0:
190,27,70193,5,2,0:0:0:0:
115,269,70369,1,2,1:2:0:0:
190,27,70546,2,0,P|128:48|85:86,1,114.400001997218,2|8,0:0|0:0,0:0:0:0:
6,239,70899,5,2,0:0:0:0:
272,126,71075,1,2,1:2:0:0:
6,239,71252,2,0,P|70:247|119:272,1,114.400001997218,2|8,0:0|0:0,0:0:0:0:
254,358,71604,1,2,0:0:0:0:
156,166,71781,2,0,P|120:222|115:277,1,114.400001997218,2|0,1:2|0:0,0:0:0:0:
335,369,72134,5,8,0:0:0:0:
258,146,72310,1,2,0:0:0:0:
415,253,72487,1,2,1:2:0:0:
276,280,72663,1,2,0:0:0:0:
350,50,72840,6,0,P|405:67|446:100,1,95.9999974279402,10|0,0:0|0:0,0:0:0:0:
500,305,73193,2,0,P|460:331|414:344,1,95.9999974279402,2|0,1:2|0:0,0:0:0:0:
343,138,73546,2,0,P|382:180|401:229,1,95.9999974279402,10|0,0:0|0:0,0:0:0:0:
285,372,73899,2,0,P|237:375|191:363,1,95.9999974279402,2|0,1:2|0:0,0:0:0:0:
157,158,74252,6,0,P|206:126|246:230,2,203.199999206685,10|2|10,0:0|1:2|0:0,0:0:0:0:
89,304,75310,1,0,0:0:0:0:
89,304,75663,6,0,P|78:209|50:167,1,143.99999614191,14|0,0:1|0:0,0:0:0:0:
22,142,75928,2,0,P|97:112|143:63,1,143.99999614191,2|0,0:1|0:0,0:0:0:0:
146,27,76193,1,2,0:1:0:0:
166,196,76369,5,10,0:1:0:0:
282,30,76546,1,0,0:0:0:0:
166,196,76722,1,2,1:1:0:0:
372,59,76899,1,2,0:1:0:0:
166,196,77075,6,0,P|248:209|310:249,1,142.400000639124,14|0,0:1|0:0,0:0:0:0:
331,267,77340,2,0,P|249:280|187:320,1,142.400000639124,2|0,0:1|0:0,0:0:0:0:
178,339,77604,1,2,0:1:0:0:
95,132,77781,5,10,0:1:0:0:
302,49,77957,1,2,0:1:0:0:
385,256,78134,1,2,1:1:0:0:
302,49,78310,1,2,0:1:0:0:
95,132,78487,6,0,P|158:172|251:188,1,160.000000596046,14|0,0:1|0:0,0:0:0:0:
281,162,78752,2,0,P|237:247|268:317,1,160.000000596046,2|0,0:1|0:0,0:0:0:0:
283,328,79016,1,2,0:1:0:0:
453,182,79193,5,10,0:1:0:0:
245,80,79369,1,0,0:0:0:0:
453,182,79546,1,2,1:1:0:0:
327,44,79722,1,2,0:1:0:0:
453,182,79899,6,0,P|483:270|453:339,1,160.000000596046,14|0,0:1|0:0,0:0:0:0:
429,355,80163,2,0,B|350:372|350:372|257:341,1,160.000000596046,2|0,0:1|0:0,0:0:0:0:
242,329,80428,1,2,0:1:0:0:
339,145,80604,5,10,0:1:0:0:
242,329,80781,1,2,0:1:0:0:
58,232,80957,1,2,1:1:0:0:
313,248,81134,1,2,0:1:0:0:
58,232,81310,6,0,P|42:140|92:78,1,160.000000596046,14|0,0:1|0:0,0:0:0:0:
106,75,81575,2,0,P|174:113|250:94,1,160.000000596046,2|0,0:1|0:0,0:0:0:0:
270,63,81840,1,2,0:1:0:0:
201,251,82016,5,10,0:1:0:0:
379,117,82193,1,0,0:0:0:0:
201,251,82369,1,2,1:1:0:0:
401,205,82546,1,2,0:1:0:0:
201,251,82722,6,0,P|295:270|327:327,1,160.000000596046,14|0,0:1|0:0,0:0:0:0:
311,348,82987,2,0,P|276:258|307:199,1,160.000000596046,2|0,0:1|0:0,0:0:0:0:
320,175,83252,1,2,0:1:0:0:
194,342,83428,5,10,0:1:0:0:
134,144,83604,1,2,0:1:0:0:
53,352,83781,1,2,1:1:0:0:
201,251,83957,1,2,0:1:0:0:
109,63,84134,6,0,P|60:105|93:216,2,180.000007537007,14|2|2,0:1|0:1|0:1,0:0:0:0:
248,106,84840,2,0,L|131:144,1,120.000005024671,2|2,0:1|0:1,0:0:0:0:
305,182,85193,2,0,L|422:220,1,120.000005024671,2|2,0:1|0:1,0:0:0:0:
200,369,85546,6,0,B|161:302|191:238|191:238|242:219,2,180.000007537007,10|2|2,0:1|0:1|0:1,0:0:0:0:
419,219,86252,2,0,L|387:96,1,120.000005024671,2|2,0:1|0:1,0:0:0:0:
271,21,86604,1,2,0:1:0:0:
176,117,86781,1,2,0:1:0:0:
302,267,86957,5,14,0:1:0:0:
