osu file format v14

[General]
AudioFilename: audio.mp3
AudioLeadIn: 0
PreviewTime: 35737
Countdown: 0
SampleSet: Soft
StackLeniency: 0.2
Mode: 0
LetterboxInBreaks: 0
WidescreenStoryboard: 1

[Editor]
Bookmarks: 2252,13546,24840,36134,55899,67193,75663
DistanceSpacing: 1
BeatDivisor: 16
GridSize: 8
TimelineZoom: 2.5

[Metadata]
Title:Kaibutsu (TV Size)
TitleUnicode:怪物 (TV Size)
Artist:YOASOBI
ArtistUnicode:YOASOBI
Creator:Ryuusei Aika
Version:Ducky-'s Extra
Source:BEASTARS
Tags:ビースターズ japanese furry anime op2 pop j-pop jpop opening theme 幾田りら Ikuta Rira Lilas Ayase Monster MoeAsuka Atrue SuperBox Fall Marle Calvaria Mariko Sakuragi Reiji Maigo SB hhjkl [Hatsune Miku] [Hatsune_Miku] Hatsune Miku Remapper _lai Kyrian 09kami Ducky- Acyl Acylica Bellicose wafer iWaifu KAMI NO KOTOBA Addy2607 KaedeharaKazuha Airincat Chompy Yooh Reywateil Amateurre Sparhten Ajisai- HabiHolic newton- Yuuma Ogura Yui fedora- UberFazz xidorn Pata-Mon PataMon Deca Wanpachi cycopton Gibune wiken Fuju Stratos Crystal OneShotFox Elcheer Fieryrage hypercyte hypercute Kittyadventure gokugohan12468 Kyouren Zelq ponbot Yuuma3 Mimari i love ganyu Flake yaspo Regraz Mafumafu bongo Moete Senseabel Senseable Kuse KuBsNia_ZhoYL_ wetdog123 eiri-
BeatmapID:2820220
BeatmapSetID:1335792

[Difficulty]
HPDrainRate:5
CircleSize:4.3
OverallDifficulty:8.8
ApproachRate:9.4
SliderMultiplier:2.50000000596046
SliderTickRate:1

[Events]
//Background and Video events
0,0,"furry.jpg",0,0
Video,-200,"OP.mp4"
//Break Periods
//Storyboard Layer 0 (Background)
//Storyboard Layer 1 (Fail)
//Storyboard Layer 2 (Pass)
//Storyboard Layer 3 (Foreground)
//Storyboard Layer 4 (Overlay)
//Storyboard Sound Samples

[TimingPoints]
-3395,352.941176470588,4,2,1,40,1,0
2252,-90.9090909090909,4,2,1,60,0,0
10369,-90.9090909090909,4,2,100,60,0,0
10546,-90.9090909090909,4,2,1,60,0,0
12840,-90.9090909090909,4,2,100,60,0,0
13193,-90.9090909090909,4,2,1,60,0,0
13546,-90.9090909090909,4,2,1,70,0,0
13634,-90.9090909090909,4,2,1,5,0,0
13722,-90.9090909090909,4,2,1,70,0,0
13987,-90.9090909090909,4,2,1,5,0,0
14075,-90.9090909090909,4,2,1,70,0,0
14340,-90.9090909090909,4,2,1,5,0,0
14428,-90.9090909090909,4,2,1,70,0,0
14692,-90.9090909090909,4,2,1,5,0,0
14780,-90.9090909090909,4,2,1,70,0,0
16810,-90.9090909090909,4,2,1,5,0,0
16899,-90.9090909090909,4,2,1,70,0,0
17163,-90.9090909090909,4,2,1,5,0,0
17252,-90.9090909090909,4,2,1,70,0,0
17516,-90.9090909090909,4,2,1,5,0,0
17605,-90.9090909090909,4,2,1,70,0,0
18486,-90.9090909090909,4,2,100,70,0,0
18663,-90.9090909090909,4,2,1,70,0,0
19987,-90.9090909090909,4,2,1,5,0,0
20075,-90.9090909090909,4,2,1,70,0,0
20604,-90.9090909090909,4,2,100,70,0,0
20781,-90.9090909090909,4,2,1,70,0,0
24840,-133.333333333333,4,2,1,60,0,0
25987,-133.333333333333,4,2,1,5,0,0
26075,-133.333333333333,4,2,1,60,0,0
27398,-133.333333333333,4,2,1,5,0,0
27663,-133.333333333333,4,2,1,60,0,0
28810,-133.333333333333,4,2,1,5,0,0
28899,-133.333333333333,4,2,1,60,0,0
30487,-133.333333333333,4,2,1,75,0,0
31457,-133.333333333333,4,2,1,5,0,0
31546,-133.333333333333,4,2,1,75,0,0
35781,-250,4,2,1,60,0,0
36134,-66.6666666666667,4,2,1,80,0,0
36310,-83.3333333333333,4,2,1,80,0,0
36663,-66.6666666666667,4,2,1,80,0,0
36839,-83.3333333333333,4,2,1,80,0,0
37369,-66.6666666666667,4,2,1,80,0,0
37457,-66.6666666666667,4,2,1,5,0,0
37546,-66.6666666666667,4,2,1,80,0,0
38252,-133.333333333333,4,2,1,80,0,0
38604,-66.6666666666667,4,2,1,80,0,0
38957,-66.6666666666667,4,2,1,80,0,0
39133,-83.3333333333333,4,2,1,80,0,0
39487,-66.6666666666667,4,2,1,80,0,0
39663,-83.3333333333333,4,2,1,80,0,0
40193,-66.6666666666667,4,2,1,80,0,0
41781,-133.333333333333,4,2,1,80,0,0
42134,-83.3333333333333,4,2,1,80,0,0
42443,-83.3333333333333,4,2,1,5,0,0
42487,-83.3333333333333,4,2,1,80,0,0
42840,-71.4285714285714,4,2,1,80,0,0
43193,-100,4,2,1,80,0,0
43546,-125,4,2,1,80,0,0
43899,-76.9230769230769,4,2,1,80,0,0
44252,-55.5555555555556,4,2,1,80,0,0
44604,-50,4,2,1,80,0,0
44957,-58.8235294117647,4,2,1,80,0,0
45310,-66.6666666666667,4,2,1,80,0,0
45663,-83.3333333333333,4,2,1,80,0,0
45840,-66.6666666666667,4,2,1,80,0,0
46899,-133.333333333333,4,2,1,80,0,0
47428,-83.3333333333333,4,2,1,80,0,0
47781,-62.5,4,2,1,80,0,0
48134,-83.3333333333333,4,2,1,80,0,0
49369,-71.4285714285714,4,2,1,80,0,0
49545,-71.4285714285714,4,2,100,80,0,0
49722,-90.9090909090909,4,2,1,80,0,0
50075,-71.4285714285714,4,2,1,80,0,0
50251,-71.4285714285714,4,2,100,80,0,0
50428,-90.9090909090909,4,2,1,80,0,0
50781,-71.4285714285714,4,2,1,80,0,0
50957,-71.4285714285714,4,2,100,80,0,0
51134,-90.9090909090909,4,2,1,80,0,0
51487,-71.4285714285714,4,2,1,80,0,0
51663,-71.4285714285714,4,2,100,80,0,0
51840,-90.9090909090909,4,2,1,80,0,0
52016,-71.4285714285714,4,2,1,80,0,0
53075,-62.5,4,2,1,80,0,0
54487,-83.3333333333333,4,2,1,80,0,0
54840,-62.5,4,2,1,80,0,0
55193,-100,4,2,1,80,0,0
55546,-62.5,4,2,1,80,0,0
55899,-83.3333333333333,4,2,1,80,0,0
56957,-133.333333333333,4,2,1,80,0,0
57310,-100,4,2,1,80,0,0
58016,-76.9230769230769,4,2,1,80,0,0
58369,-100,4,2,1,80,0,0
59428,-76.9230769230769,4,2,1,80,0,0
59781,-100,4,2,1,80,0,0
60487,-90.9090909090909,4,2,1,80,0,0
60840,-111.111111111111,4,2,1,80,0,0
61193,-142.857142857143,4,2,1,80,0,0
61546,-100,4,2,1,80,0,0
64369,-76.9230769230769,4,2,1,80,0,0
65781,-100,4,2,1,80,0,0
67193,-90.9090909090909,4,2,1,80,0,0
67369,-62.5,4,2,1,80,0,0
67722,-83.3333333333333,4,2,1,80,0,0
69134,-71.4285714285714,4,2,1,80,0,0
69310,-71.4285714285714,4,2,100,80,0,0
69487,-90.9090909090909,4,2,1,80,0,0
69840,-71.4285714285714,4,2,1,80,0,0
70016,-71.4285714285714,4,2,100,80,0,0
70193,-90.9090909090909,4,2,1,80,0,0
70546,-71.4285714285714,4,2,1,80,0,0
70722,-71.4285714285714,4,2,100,80,0,0
70899,-90.9090909090909,4,2,1,80,0,0
71252,-71.4285714285714,4,2,1,80,0,0
71428,-71.4285714285714,4,2,100,80,0,0
71604,-90.9090909090909,4,2,1,80,0,0
71781,-71.4285714285714,4,2,1,80,0,0
72840,-62.5,4,2,1,80,0,0
74252,-83.3333333333333,4,2,1,80,0,0
74604,-62.5,4,2,1,80,0,0
74957,-133.333333333333,4,2,1,80,0,0
75663,-55.5555555555556,4,2,1,80,0,0
84133,-55.5555555555556,4,2,1,70,0,0
86957,-55.5555555555556,4,2,1,90,0,0

[Colours]
Combo1 : 191,96,0
Combo2 : 143,32,255
Combo3 : 191,0,96
Combo4 : 0,80,159

[HitObjects]
11,147,2252,5,10,0:0:0:0:
31,141,2428,1,0,0:0:0:0:
166,82,2604,1,10,0:0:0:0:
148,90,2781,1,2,0:0:0:0:
66,56,2957,5,10,0:0:0:0:
69,67,3134,1,0,0:0:0:0:
110,167,3310,5,10,0:0:0:0:
107,178,3487,1,2,0:0:0:0:
23,382,3663,6,0,B|11:302|68:337|42:244,2,137.500004523992,10|0|8,0:0|0:0|0:0,0:0:0:0:
120,312,4193,1,2,0:0:0:0:
197,369,4369,5,8,0:0:0:0:
210,358,4546,1,2,0:0:0:0:
340,292,4722,5,8,0:0:0:0:
329,280,4899,1,2,0:0:0:0:
234,186,5075,5,8,0:0:0:0:
294,74,5252,5,2,0:0:0:0:
273,67,5428,1,8,0:0:0:0:
247,61,5604,1,2,0:0:0:0:
113,174,5781,5,10,0:0:0:0:
108,182,5957,1,2,0:0:0:0:
0,0,6134,5,10,0:0:0:0:
9,7,6310,1,2,0:0:0:0:
151,76,6487,6,0,L|-20:103,2,137.500004523992,10|2|8,0:0|0:0|0:0,0:0:0:0:
247,126,7016,1,2,0:0:0:0:
285,123,7193,1,10,0:0:0:0:
319,95,7369,1,2,0:0:0:0:
412,59,7546,1,10,0:0:0:0:
443,71,7722,1,2,0:0:0:0:
400,236,7899,5,10,0:0:0:0:
343,290,8075,1,0,0:0:0:0:
224,190,8252,5,10,0:0:0:0:
111,258,8428,1,2,0:0:0:0:
38,86,8604,5,10,0:0:0:0:
66,158,8781,1,2,0:0:0:0:
204,278,8957,5,10,0:0:0:0:
162,384,9134,1,2,0:0:0:0:
247,144,9310,6,0,B|345:178|249:201|379:236,2,137.500004523992,10|0|10,0:0|0:0|0:0,0:0:0:0:
221,74,9840,1,2,0:0:0:0:
217,64,10016,1,8,0:0:0:0:
388,21,10193,6,0,P|367:119|344:263,1,206.250006785989,2|0,0:0|0:0,0:0:0:0:
349,223,10546,1,2,0:0:0:0:
190,384,10722,6,0,L|203:290,1,68.7500022619962,8|0,0:0|0:0,0:0:0:0:
241,258,10899,1,2,0:0:0:0:
374,351,11075,6,0,P|470:335|544:325,1,137.500004523992,10|0,0:0|0:0,0:0:0:0:
510,330,11428,1,8,0:0:0:0:
509,340,11604,1,2,0:0:0:0:
306,150,11781,1,10,0:0:0:0:
308,171,11957,1,2,0:0:0:0:
324,200,12134,1,10,0:0:0:0:
373,223,12310,1,2,0:0:0:0:
443,208,12487,1,10,0:0:0:0:
471,191,12663,6,0,P|389:169|174:140,1,275.000009047985,2|2,0:0|0:0,0:0:0:0:
202,142,13193,6,0,B|218:212,1,68.7500022619962,2|0,0:3|0:0,0:0:0:0:
236,280,13369,1,0,0:0:0:0:
281,137,13546,6,0,P|277:107|229:74,1,68.7500022619962,10|0,0:0|0:0,0:0:0:0:
259,0,13722,2,0,P|291:8|313:34,1,68.7500022619962
323,219,13899,6,0,P|346:200|351:142,1,68.7500022619962,2|0,1:2|0:0,0:0:0:0:
431,131,14075,2,0,P|439:163|428:195,1,68.7500022619962,2|0,0:0|0:0,0:0:0:0:
296,355,14252,6,0,L|208:366,1,68.7500022619962,10|0,0:0|0:0,0:0:0:0:
193,292,14428,2,0,L|261:283,1,68.7500022619962,2|0,0:0|0:0,0:0:0:0:
393,268,14604,6,0,L|461:276,1,68.7500022619962,2|0,1:2|0:0,0:0:0:0:
497,204,14780,2,0,L|428:195,1,68.7500022619962,2|0,0:0|0:0,0:0:0:0:
259,0,14957,6,0,P|273:79|282:157,1,137.500004523992,10|0,0:0|0:0,0:0:0:0:
236,269,15310,1,0,1:0:0:0:
108,239,15487,6,0,P|114:206|97:178,1,68.7500022619962,2|0,0:0|0:0,0:0:0:0:
25,268,15663,2,0,P|119:285|137:356,1,137.500004523992,8|2,0:0|0:0,0:0:0:0:
135,315,16016,1,0,1:0:0:0:
333,349,16193,2,0,P|362:338|423:327,1,68.7500022619962,2|0,0:0|0:0,0:0:0:0:
465,376,16369,1,8,0:0:0:0:
331,183,16546,6,0,P|349:149|363:103,1,68.7500022619962,2|0,0:0|0:0,0:0:0:0:
391,16,16722,2,0,P|411:48|444:83,1,68.7500022619962,0|0,1:0|0:0,0:0:0:0:
505,151,16899,2,0,P|466:152|419:163,1,68.7500022619962,2|0,0:0|0:0,0:0:0:0:
198,255,17075,6,0,P|227:258|276:293,1,68.7500022619962,10|0,0:0|0:0,0:0:0:0:
272,246,17252,2,0,P|295:263|320:317,1,68.7500022619962,2|0,0:0|0:0,0:0:0:0:
178,153,17428,6,0,P|149:156|100:191,1,68.7500022619962,2|0,1:2|0:0,0:0:0:0:
104,144,17605,2,0,P|80:161|55:215,1,68.7500022619962,2|0,0:0|0:0,0:0:0:0:
81,382,17781,6,0,B|74:360|74:360|89:306,1,68.7500022619962,10|0,0:0|0:0,0:0:0:0:
118,249,17957,1,2,0:0:0:0:
118,249,18134,1,0,1:0:0:0:
34,24,18310,6,0,B|11:44|15:80|15:80|79:6|164:25,1,206.250006785989,2|0,0:0|0:0,0:0:0:0:
362,59,18663,2,0,B|387:41|387:41|350:49,1,68.7500022619962,2|0,0:0|0:0,0:0:0:0:
198,154,18840,6,0,L|186:70,1,68.7500022619962,2|0,1:2|0:0,0:0:0:0:
277,8,19016,2,0,L|267:76,1,68.7500022619962,2|0,0:0|0:0,0:0:0:0:
512,188,19193,6,0,P|493:284|376:265,1,206.250006785989,10|0,0:0|0:0,0:0:0:0:
325,384,19546,6,0,B|343:328|301:271|232:273|232:273|248:289|250:312,1,206.250006785989,2|0,1:2|0:0,0:0:0:0:
248,303,19899,6,0,L|335:288,1,68.7500022619962,10|0,0:0|0:0,0:0:0:0:
362,217,20075,2,0,L|430:206,1,68.7500022619962,2|0,0:0|0:0,0:0:0:0:
270,145,20252,2,0,L|357:130,1,68.7500022619962,2|0,1:2|0:0,0:0:0:0:
474,43,20428,6,0,B|504:90|504:90|335:33,1,206.250006785989,2|0,0:0|0:0,0:0:0:0:
137,6,20781,6,0,P|121:10|139:0,1,68.7500022619962,2|0,0:0|0:0,0:0:0:0:
361,41,20957,2,0,P|335:65|282:54,1,68.7500022619962,2|0,1:2|0:0,0:0:0:0:
236,17,21134,6,0,P|217:90|202:174,1,137.500004523992,2|8,0:0|0:0,0:0:0:0:
13,373,21487,6,0,P|16:339|53:328,1,68.7500022619962,2|0,0:0|0:0,0:0:0:0:
203,293,21663,2,0,P|172:307|144:280,1,68.7500022619962,2|0,1:2|0:0,0:0:0:0:
39,169,21840,2,0,P|66:188|57:226,1,68.7500022619962,2|0,0:0|0:0,0:0:0:0:
116,384,22016,6,0,P|130:272|160:104,1,275.000009047985,8|2,0:0|1:2,0:0:0:0:
158,112,22546,1,0,0:0:0:0:
158,112,22722,6,0,P|180:105|208:148,1,68.7500022619962,10|0,0:0|0:0,0:0:0:0:
268,237,22899,2,0,P|270:201|302:155,1,68.7500022619962,2|0,0:0|0:0,0:0:0:0:
367,152,23075,1,0,1:0:0:0:
290,1,23252,6,0,P|292:19|340:33,1,68.7500022619962,2|0,0:0|0:0,0:0:0:0:
512,29,23428,6,0,P|343:64|209:116,3,275.000009047985,10|2|10|2,0:0|1:2|0:0|1:2,0:0:0:0:
247,98,24840,5,10,0:1:0:0:
374,384,25193,6,0,L|382:333,1,46.875001899898,2|0,1:2|0:0,0:0:0:0:
432,286,25369,1,10,1:1:0:0:
432,286,25722,5,10,0:1:0:0:
359,110,25899,2,0,L|377:177,1,46.875001899898,0|0,1:2|0:0,0:0:0:0:
434,192,26075,1,10,0:1:0:0:
272,336,26604,6,0,L|218:345,1,46.875001899898,2|0,1:2|0:0,0:0:0:0:
158,384,26781,1,2,1:2:0:0:
158,384,27134,5,10,0:1:0:0:
218,162,27310,2,0,L|235:205,1,46.875001899898,2|0,1:2|0:0,0:0:0:0:
5,81,27663,5,10,0:1:0:0:
193,19,28016,6,0,L|251:45,1,46.875001899898,2|0,1:2|0:0,0:0:0:0:
274,108,28193,1,10,1:1:0:0:
274,108,28546,5,10,0:1:0:0:
502,18,28722,2,0,L|433:6,1,46.875001899898,0|0,1:2|0:0,0:0:0:0:
389,34,28899,1,10,0:1:0:0:
304,340,29428,6,0,L|226:333,1,46.875001899898,2|0,1:2|0:0,0:0:0:0:
207,283,29605,1,2,1:2:0:0:
207,283,29781,6,0,L|220:176,1,93.7500037997961,10|2,0:1|0:0,0:0:0:0:
242,16,30134,2,0,L|230:109,1,93.7500037997961,10|2,0:1|0:0,0:0:0:0:
233,116,30369,2,0,L|281:108,1,31.2500012665987
222,113,30487,6,0,B|156:111|140:157|163:165|134:221|71:205,1,187.500007599592,14|2,0:0|1:2,0:0:0:0:
41,131,31016,1,2,1:2:0:0:
41,131,31193,2,0,P|49:88|50:135,1,140.625005699694,10|0,0:0|0:0,0:0:0:0:
78,206,31546,2,0,P|54:92|37:18,1,187.500007599592,0|8,1:0|0:0,0:0:0:0:
437,0,32075,5,2,0:0:0:0:
440,7,32252,2,0,L|371:19,1,46.875001899898,2|0,1:2|0:0,0:0:0:0:
337,69,32428,1,2,1:2:0:0:
394,127,32604,6,0,B|424:159|432:213|432:213|456:163|500:146,1,187.500007599592,8|2,0:0|1:2,0:0:0:0:
496,148,33310,6,0,L|293:176,1,187.500007599592,10|2,0:0|1:2,0:0:0:0:
260,104,33840,1,0,1:0:0:0:
260,104,34016,2,0,B|154:88,1,93.7500037997961,10|2,0:0|0:0,0:0:0:0:
245,262,34369,5,0,1:0:0:0:
245,262,34722,5,8,0:0:0:0:
244,254,35075,5,10,0:0:0:0:
241,242,35428,5,10,0:0:0:0:
238,231,35781,6,0,L|333:219,1,87.5000002086161,2|0,0:1|0:0,0:0:0:0:
355,237,36134,6,0,P|393:198|379:161,1,93.7500037997961,14|0,0:0|0:0,0:0:0:0:
285,0,36310,2,0,P|297:67|313:159,1,149.999995779991,2|0,0:0|1:0,0:0:0:0:
464,341,36663,6,0,P|419:344|398:384,1,93.7500037997961,2|0,0:0|0:0,0:0:0:0:
190,337,36840,2,0,P|261:325|356:316,1,149.999995779991,10|0,0:0|0:0,0:0:0:0:
212,0,37193,5,2,1:2:0:0:
212,0,37369,2,0,P|228:46|240:99,1,93.7500037997961,2|0,0:0|0:0,0:0:0:0:
316,48,37546,5,8,0:0:0:0:
255,192,37722,1,2,0:0:0:0:
319,326,37899,5,2,1:2:0:0:
189,240,38075,1,2,0:0:0:0:
102,263,38252,6,0,L|50:254,1,46.875001899898,10|0,0:0|0:0,0:0:0:0:
90,270,38428,2,0,L|38:261,1,46.875001899898
0,353,38604,6,0,B|38:373|38:373|100:302|49:129,1,281.250011399388,2|0,1:2|0:0,0:0:0:0:
136,97,38957,6,0,P|179:84|187:41,1,93.7500037997961,10|0,0:0|0:0,0:0:0:0:
7,83,39134,2,0,B|30:44|86:52|86:52|89:86|128:107,1,149.999995779991,2|0,0:0|1:0,0:0:0:0:
276,384,39487,6,0,B|269:349|269:349|318:270,1,93.7500037997961,2|0,0:0|0:0,0:0:0:0:
425,347,39663,2,0,B|401:352|401:352|336:284|336:284|302:287,1,149.999995779991,10|0,0:0|0:0,0:0:0:0:
499,0,40016,5,2,1:2:0:0:
499,0,40193,2,0,B|489:54|466:39|453:90,1,93.7500037997961,2|0,0:0|0:0,0:0:0:0:
485,157,40369,5,8,0:0:0:0:
485,157,40546,1,2,0:0:0:0:
296,158,40722,5,2,1:2:0:0:
361,211,40899,1,2,0:0:0:0:
187,259,41075,5,10,0:0:0:0:
310,72,41252,1,2,0:0:0:0:
316,359,41428,5,2,1:2:0:0:
217,176,41604,1,2,0:0:0:0:
83,235,41781,6,0,L|93:183,1,46.875001899898,10|0,0:0|0:0,0:0:0:0:
94,229,41957,2,0,L|104:177,1,46.875001899898
218,365,42134,2,0,P|166:296|-11:268,1,262.499992614984,2|0,1:2|0:0,0:0:0:0:
0,263,42487,6,0,L|17:344,1,74.9999978899955,10|0,0:0|0:0,0:0:0:0:
74,384,42663,1,0,0:0:0:0:
234,186,42840,6,0,B|243:119|370:103|396:129|396:129|357:123|322:153,1,262.499992614984,2|0,1:2|0:0,0:0:0:0:
331,145,43193,6,0,L|349:210,1,62.5000001490115,10|0,0:0|0:0,0:0:0:0:
409,258,43369,1,0,0:0:0:0:
181,105,43546,5,2,1:2:0:0:
124,263,43722,1,0,0:0:0:0:
356,380,43899,6,0,P|345:360|352:385,1,81.2499964743853,10|0,0:0|0:0,0:0:0:0:
244,305,44075,2,0,P|223:290|243:308,1,81.2499964743853
125,356,44252,6,0,B|3:258|85:99|237:163|165:258|113:265,1,337.49999050498,2|0,1:2|0:0,0:0:0:0:
0,368,44604,6,0,B|162:326|162:326|178:337|178:337|164:326|164:326|213:312|213:312|218:303|218:303|216:312|216:312|333:281,1,375.000000894069,10|0,0:0|0:0,0:0:0:0:
512,342,44957,6,0,B|459:315|458:256|458:256|402:222|402:222|402:215|402:215|397:219|397:219|276:149,1,318.750006839633,2|0,1:2|0:0,0:0:0:0:
390,384,45310,6,0,B|405:360|405:360|384:299,1,93.7500037997961,10|0,0:0|0:0,0:0:0:0:
312,286,45487,1,0,0:0:0:0:
467,98,45663,6,0,P|472:73|462:94,1,74.9999978899955,2|0,1:2|0:0,0:0:0:0:
442,0,45840,2,0,B|495:179,1,187.500007599592,2|8,0:0|0:0,0:0:0:0:
312,286,46193,5,2,0:0:0:0:
364,189,46369,1,2,1:2:0:0:
410,380,46546,1,2,0:0:0:0:
212,284,46722,1,10,0:0:0:0:
47,374,46899,6,0,B|91:359,1,46.875001899898,2|2,1:2|1:2,0:0:0:0:
36,384,47075,1,2,1:2:0:0:
42,343,47163,1,0,1:0:0:0:
49,303,47251,1,2,1:2:0:0:
55,263,47339,1,2,1:2:0:0:
122,210,47428,6,0,B|80:180|70:113|70:113|45:177|-5:198,1,224.999993669987,14|0,0:0|0:0,0:0:0:0:
55,263,47781,2,0,B|269:212,1,200.000000476837,0|2,1:0|0:0,0:0:0:0:
196,155,48134,6,0,P|207:109|218:74,1,74.9999978899955,10|0,0:0|0:0,0:0:0:0:
0,20,48310,2,0,L|165:63,1,149.999995779991,2|0,0:0|1:0,0:0:0:0:
386,41,48663,6,0,P|391:77|370:107,1,74.9999978899955,2|0,0:0|0:0,0:0:0:0:
294,94,48840,1,10,0:0:0:0:
403,207,49016,1,2,0:0:0:0:
483,18,49193,1,2,1:2:0:0:
490,367,49369,6,0,P|404:376|327:230,1,262.499992614984,2|0,0:0|0:0,0:0:0:0:
403,207,49722,6,0,P|433:201|460:153,1,68.7500022619962,2|0,0:0|0:0,0:0:0:0:
294,94,49899,2,0,P|307:115|323:178,1,68.7500022619962,2|0,1:2|0:0,0:0:0:0:
445,297,50075,6,0,P|315:319|188:352,1,262.499992614984,2|0,0:0|0:0,0:0:0:0:
0,292,50428,6,0,B|1:279|1:279|12:318|38:344,1,68.7500022619962,2|0,0:0|0:0,0:0:0:0:
116,384,50604,2,0,B|105:367|105:367|126:304,1,68.7500022619962,2|0,1:2|0:0,0:0:0:0:
324,317,50781,6,0,B|352:356|352:356|260:271|135:240,1,262.499992614984,2|0,0:0|0:0,0:0:0:0:
0,92,51134,6,0,B|-16:87|-13:57|-13:57|-4:82|13:85,1,68.7500022619962,2|0,0:0|0:0,0:0:0:0:
153,173,51310,2,0,B|149:156|176:144|176:144|159:164|165:181,1,68.7500022619962,2|0,1:2|0:0,0:0:0:0:
120,320,51487,6,0,B|73:329|20:207|81:137|81:137|20:159,1,262.499992614984,2|0,0:0|0:0,0:0:0:0:
54,231,51840,6,0,P|65:254|48:236,1,68.7500022619962,2|0,0:0|0:0,0:0:0:0:
0,384,52016,2,0,B|76:408|72:332|130:243|215:287,1,262.499992614984,2|0,1:2|0:0,0:0:0:0:
275,232,52369,5,10,0:0:0:0:
285,141,52546,1,2,0:0:0:0:
209,81,52722,1,2,1:2:0:0:
228,12,52899,1,2,0:0:0:0:
303,0,53075,6,0,B|305:35|290:56|290:56|338:73|389:124|420:194|420:194|416:150|427:127,1,300.000000715255,10|0,0:0|3:0,0:0:0:0:
512,333,53428,6,0,B|507:345|511:376|511:376|507:343|475:296|475:296|362:283|319:215,1,300.000000715255,2|0,1:2|0:0,0:0:0:0:
491,258,53781,6,0,B|448:263|448:263|430:236|371:227,1,100.000000238418,10|0,0:0|0:0,0:0:0:0:
261,183,53957,2,0,B|257:160|234:139|234:139|265:139|280:167,1,100.000000238418
185,351,54134,6,0,B|151:360|126:343|126:343|259:326|346:199,1,300.000000715255,2|0,1:2|0:0,0:0:0:0:
185,252,54487,2,0,B|150:167|133:221|96:129,1,149.999995779991,10|0,0:0|0:0,0:0:0:0:
8,1,54840,6,0,B|45:16|53:41|53:41|164:63|164:63|163:73|163:73|168:65|168:65|297:87,1,300.000000715255,2|0,1:2|0:0,0:0:0:0:
333,16,55193,6,0,L|350:92,1,62.5000001490115,10|0,0:0|0:0,0:0:0:0:
104,203,55369,2,0,L|117:142,1,62.5000001490115
198,0,55546,6,0,B|165:62|165:62|249:203|249:203|207:282,1,300.000000715255,2|0,1:2|0:0,0:0:0:0:
16,349,55899,6,0,P|97:262|90:397,1,299.999991559982,14|0,0:0|1:0,0:0:0:0:
512,56,56604,6,0,P|497:147|430:82,1,224.999993669987,10|0,0:0|0:0,0:0:0:0:
372,29,56957,2,0,P|380:-2|374:30,1,93.7500037997961,2|0,1:2|0:0,0:0:0:0:
353,101,57310,6,0,P|291:109|231:127,1,125.000000298023,10|0,0:0|0:0,0:0:0:0:
130,93,57663,2,0,P|68:101|8:119,1,125.000000298023,2|0,1:2|0:0,0:0:0:0:
118,383,58016,6,0,B|100:360|100:360|124:259|124:259|95:233,1,162.499992948771,10|0,0:0|0:0,0:0:0:0:
0,353,58369,2,0,B|15:326|15:326|240:288,1,250.000000596046,2|10,1:2|0:0,0:0:0:0:
512,163,59075,6,0,B|480:78|480:78|417:153,1,187.500000447035,2|0,1:2|0:0,0:0:0:0:
482,240,59428,2,0,L|444:0,1,243.749989423156,10|0,0:0|0:0,0:0:0:0:
444,0,59781,6,0,B|428:17|430:44|430:44|210:86,1,250.000000596046,2|10,1:2|0:0,0:0:0:0:
213,369,60487,6,0,P|305:360|281:273,1,206.250006785989,2|0,1:2|0:0,0:0:0:0:
214,299,60840,2,0,B|194:187|154:228|132:123,1,168.74999525249,10|0,0:0|0:0,0:0:0:0:
157,77,61193,2,0,B|177:11|141:39|190:-33|195:57|181:9|156:79,1,131.249996307492,2|0,1:2|0:0,0:0:0:0:
43,257,61546,6,0,B|7:308|7:308|143:268,1,187.500000447035,10|0,0:0|0:0,0:0:0:0:
214,299,61899,2,0,B|221:182|275:248|289:129,1,187.500000447035,2|0,1:2|0:0,0:0:0:0:
311,60,62252,5,10,0:0:0:0:
311,60,62428,1,0,0:0:0:0:
35,17,62605,2,0,P|130:55|158:154,1,187.500000447035,2|0,1:2|0:0,0:0:0:0:
47,191,62957,6,0,P|164:150|288:134,1,250.000000596046,10|2,0:0|1:2,0:0:0:0:
489,384,63663,6,0,B|429:362|489:295|421:250|358:265,1,187.500000447035,10|0,0:0|0:0,0:0:0:0:
369,362,64016,2,0,P|458:314|517:237,1,187.500000447035,2|0,1:2|0:0,0:0:0:0:
448,198,64369,6,0,B|411:87|331:60|331:60|381:-16,1,243.749989423156,10|0,0:0|0:0,0:0:0:0:
505,127,64722,2,0,B|511:38|275:133|362:193,1,243.749989423156,2|0,1:2|0:0,0:0:0:0:
356,263,65075,6,0,P|356:291|363:263,1,81.2499964743853,10|0,0:0|0:0,0:0:0:0:
179,177,65252,2,0,P|184:206|169:181,1,81.2499964743853
177,357,65428,6,0,B|169:362|161:383|161:383|148:309|269:251|269:251|261:213,1,243.749989423156,2|0,1:2|0:0,0:0:0:0:
352,174,65781,6,0,P|272:122|277:18,1,187.500000447035,10|0,0:0|0:0,0:0:0:0:
344,37,66134,2,0,B|346:51|368:58|368:58|429:40|427:-1,2,125.000000298023,0|2|8,1:0|0:0|0:0,0:0:0:0:
0,13,66663,5,2,0:0:0:0:
42,0,66840,1,2,1:2:0:0:
112,19,67016,1,2,0:0:0:0:
174,99,67193,6,0,P|166:132|129:156,1,68.7500022619962,14|0,0:0|0:0,0:0:0:0:
133,263,67369,2,0,P|105:170|54:82,1,200.000000476837,2|0,0:0|1:0,0:0:0:0:
0,367,67722,6,0,P|42:374|96:395,1,74.9999978899955,2|0,0:0|0:0,0:0:0:0:
218,279,67899,2,0,P|228:241|243:195,1,74.9999978899955,10|0,0:0|0:0,0:0:0:0:
146,346,68075,6,0,P|218:364|291:384,1,149.999995779991,2|0,0:0|1:0,0:0:0:0:
481,223,68428,6,0,B|495:180|462:192|476:138,1,74.9999978899955,2|0,0:0|0:0,0:0:0:0:
508,86,68604,5,10,0:0:0:0:
437,34,68781,1,2,0:0:0:0:
326,62,68957,1,2,1:2:0:0:
340,224,69134,6,0,B|314:317|314:317|467:240,1,262.499992614984,2|0,0:0|0:0,0:0:0:0:
473,150,69487,6,0,B|414:161|414:161|392:150,1,68.7500022619962,2|0,0:0|0:0,0:0:0:0:
307,85,69663,2,0,B|302:97|302:97|328:146,1,68.7500022619962,2|0,1:2|0:0,0:0:0:0:
441,384,69840,6,0,B|417:369|411:345|411:345|199:293,1,262.499992614984,2|0,0:0|0:0,0:0:0:0:
79,348,70193,6,0,P|68:347|83:352,1,68.7500022619962,2|0,0:0|0:0,0:0:0:0:
207,218,70369,2,0,B|195:205|204:186|204:186|181:207|189:248,1,68.7500022619962,2|0,1:2|0:0,0:0:0:0:
174,384,70546,6,0,B|126:314|30:297|30:297|74:296|135:269,1,262.499992614984,2|0,0:0|0:0,0:0:0:0:
118,101,70899,6,0,B|116:85|130:73|130:73|106:77|104:103,1,68.7500022619962,2|0,0:0|0:0,0:0:0:0:
289,192,71075,2,0,P|304:210|293:189,1,68.7500022619962,2|0,1:2|0:0,0:0:0:0:
57,218,71252,6,0,B|38:187|135:84|273:113,1,262.499992614984,2|0,0:0|0:0,0:0:0:0:
353,2,71604,6,0,B|360:45|325:32|346:91,1,68.7500022619962,2|0,0:0|0:0,0:0:0:0:
403,254,71781,6,0,B|382:200|384:67|324:-16,1,262.499992614984,2|0,1:2|0:0,0:0:0:0:
512,0,72134,5,8,0:0:0:0:
445,68,72310,1,2,0:0:0:0:
252,24,72487,5,2,1:2:0:0:
468,163,72663,1,2,0:0:0:0:
123,184,72840,6,0,B|226:175|166:288|119:416|13:231|126:196,1,300.000000715255,10|0,0:0|0:0,0:0:0:0:
168,381,73193,6,0,B|105:315|148:166|100:93,1,300.000000715255,2|0,1:2|0:0,0:0:0:0:
327,329,73546,6,0,B|276:309|233:293,1,100.000000238418,10|0,0:0|0:0,0:0:0:0:
0,384,73722,2,0,P|10:339|15:255,1,100.000000238418
0,165,73899,6,0,B|51:187|71:234|71:234|135:272|213:232|238:151,1,300.000000715255,2|0,1:2|0:0,1:2:0:0:
295,228,74252,6,0,P|301:265|306:303,1,74.9999978899955,10|0,0:0|0:0,0:0:0:0:
145,121,74428,2,0,P|107:124|71:132,1,74.9999978899955
306,143,74604,6,0,B|300:97|342:53|342:53|269:39|190:96|238:179,1,300.000000715255,2|0,1:2|0:0,0:0:0:0:
322,248,74957,6,0,B|349:322|349:322|326:267|294:228,1,187.500007599592,10|2,0:0|0:0,0:0:0:0:
479,0,75663,6,0,B|524:17|524:17|344:48,1,224.999993669987,14|0,0:1|0:0,0:0:0:0:
335,35,75928,2,0,B|380:52|380:52|200:83,1,224.999993669987,2|0,0:1|0:0,0:0:0:0:
190,69,76193,2,0,B|212:77|212:77|122:93,1,112.499996834993,2|0,0:1|0:0,0:0:0:0:
4,68,76369,6,0,B|89:86|89:86|145:263,3,224.999993669987,10|0|2|2,0:1|0:0|1:1|0:1,0:0:0:0:
36,380,77075,6,0,B|-9:363|-9:363|171:332,1,224.999993669987,14|0,0:1|0:0,0:0:0:0:
180,345,77340,2,0,B|135:328|135:328|315:297,1,224.999993669987,2|0,0:1|0:0,0:0:0:0:
325,311,77605,2,0,B|302:302|302:302|392:287,1,112.499996834993,2|0,0:1|0:0,0:0:0:0:
511,312,77781,6,0,B|426:294|426:294|370:117,3,224.999993669987,10|2|2|2,0:1|0:1|1:1|0:1,0:0:0:0:
244,0,78487,6,0,B|170:14|170:14|110:163,1,224.999993669987,14|0,0:1|0:0,0:0:0:0:
0,86,78752,2,0,B|74:100|74:100|134:249,1,224.999993669987,2|0,0:1|0:0,0:0:0:0:
198,220,79016,2,0,B|161:227|161:227|130:301,1,112.499996834993,2|0,0:1|0:0,0:0:0:0:
2,315,79193,6,0,B|35:354|35:354|244:325,3,224.999993669987,10|0|2|2,0:1|0:0|1:1|0:1,0:0:0:0:
268,0,79899,6,0,B|342:14|342:14|402:163,1,224.999993669987,14|0,0:1|0:0,0:0:0:0:
512,86,80164,2,0,B|438:100|438:100|378:249,1,224.999993669987,2|0,0:1|0:0,0:0:0:0:
314,220,80428,2,0,B|351:227|351:227|381:301,1,112.499996834993,2|0,0:1|0:0,0:0:0:0:
510,315,80605,6,0,B|477:354|477:354|268:325,3,224.999993669987,10|2|2|2,0:1|0:1|1:1|0:1,0:0:0:0:
0,196,81310,6,0,B|55:19|55:19|122:35,1,224.999993669987,14|0,0:1|0:0,0:0:0:0:
114,99,81575,2,0,B|294:58|294:58|314:124,1,224.999993669987,2|0,0:1|0:0,0:0:0:0:
255,149,81840,2,0,B|317:217|317:217|294:242,1,112.499996834993,2|0,0:1|0:0,0:0:0:0:
64,274,82016,6,0,B|122:370|122:370|224:294,3,224.999993669987,10|0|2|2,0:1|0:0|1:1|0:1,0:0:0:0:
512,188,82722,6,0,B|457:365|457:365|390:349,1,224.999993669987,14|0,0:1|0:0,0:0:0:0:
398,285,82987,2,0,B|217:325|217:325|197:259,1,224.999993669987,2|0,0:1|0:0,0:0:0:0:
257,235,83252,2,0,B|194:166|194:166|217:141,1,112.499996834993,2|0,0:1|0:0,0:0:0:0:
307,54,83428,6,0,B|417:9|417:9|467:106,3,224.999993669987,10|2|2|2,0:1|0:1|1:1|0:1,0:0:0:0:
256,192,84134,5,14,0:1:0:0:
256,192,84399,1,2,0:1:0:0:
256,192,84663,5,2,0:1:0:0:
256,112,84840,1,2,0:1:0:0:
256,192,85016,5,2,0:1:0:0:
256,112,85193,1,2,0:1:0:0:
256,32,85369,1,2,0:1:0:0:
256,32,85546,5,10,0:1:0:0:
256,32,85811,1,2,0:1:0:0:
256,32,86075,5,2,0:1:0:0:
256,112,86252,1,2,0:1:0:0:
256,192,86428,1,2,0:1:0:0:
256,272,86604,5,2,0:1:0:0:
256,192,86781,1,2,0:1:0:0:
256,112,86957,1,14,0:1:0:0:
