osu file format v14

[General]
AudioFilename: audio.mp3
AudioLeadIn: 0
PreviewTime:35737
Countdown: 0
SampleSet: None
StackLeniency: 1
Mode: 0
LetterboxInBreaks: 0
WidescreenStoryboard: 1

[Editor]
Bookmarks:23163
DistanceSpacing: 0.9
BeatDivisor: 4
GridSize: 8
TimelineZoom: 2.5

[Metadata]
Title:Kaibutsu (TV Size)
TitleUnicode:怪物 (TV Size)
Artist:YOASOBI
ArtistUnicode:YOASOBI
Creator:Ryuusei Aika
Version:Deca's Extra
Source:BEASTARS
Tags:ビースターズ japanese furry anime op2 pop j-pop jpop opening theme 幾田りら Ikuta Rira Lilas Ayase Monster MoeAsuka Atrue SuperBox Fall Marle Calvaria Mariko Sakuragi Reiji Maigo SB hhjkl [Hatsune Miku] [Hatsune_Miku] Hatsune Miku Remapper _lai Kyrian 09kami Ducky- Acyl Acylica Bellicose wafer iWaifu KAMI NO KOTOBA Addy2607 KaedeharaKazuha Airincat Chompy Yooh Reywateil Amateurre Sparhten Ajisai- HabiHolic newton- Yuuma Ogura Yui fedora- UberFazz xidorn Pata-Mon PataMon Deca Wanpachi cycopton Gibune wiken Fuju Stratos Crystal OneShotFox Elcheer Fieryrage hypercyte hypercute Kittyadventure gokugohan12468 Kyouren Zelq ponbot Yuuma3 Mimari i love ganyu Flake yaspo Regraz Mafumafu bongo Moete Senseabel Senseable Kuse KuBsNia_ZhoYL_ wetdog123 eiri-
BeatmapID:2820219
BeatmapSetID:1335792

[Difficulty]
HPDrainRate:5.7
CircleSize:4
OverallDifficulty:9
ApproachRate:9.2
SliderMultiplier:1.92000000596046
SliderTickRate:1

[Events]
//Background and Video events
0,0,"furry.jpg",0,0
Video,-200,"OP.mp4"
//Break Periods
//Storyboard Layer 0 (Background)
//Storyboard Layer 1 (Fail)
//Storyboard Layer 2 (Pass)
//Storyboard Layer 3 (Foreground)
//Storyboard Layer 4 (Overlay)
//Storyboard Sound Samples

[TimingPoints]
-3395,352.941176470588,4,2,1,40,1,0
1546,-111.111111111111,4,2,1,40,0,0
2252,-111.111111111111,4,2,1,60,0,0
13546,-111.111111111111,4,2,1,70,0,0
24840,-111.111111111111,4,2,1,60,0,0
25369,-142.857142857143,4,2,1,60,0,0
30487,-100,4,2,1,75,0,0
35781,-100,4,2,1,60,0,0
36134,-76.9230769230769,4,2,1,80,0,0
38604,-100,4,2,1,80,0,0
38957,-76.9230769230769,4,2,1,80,0,0
41781,-90.9090909090909,4,2,1,80,0,0
43193,-76.9230769230769,4,2,1,80,0,0
56252,-100,4,2,1,80,0,0
57310,-83.3333333333333,4,2,1,80,0,0
57663,-100,4,2,1,80,0,0
58722,-83.3333333333333,4,2,1,80,0,0
59075,-100,4,2,1,80,0,0
60134,-83.3333333333333,4,2,1,80,0,0
64193,-66.6666666666667,4,2,1,80,0,0
65781,-76.9230769230769,4,2,1,80,0,0
75663,-66.6666666666667,4,2,1,80,0,0
81310,-58.8235294117647,4,2,1,80,0,0
84134,-76.9230769230769,4,2,1,70,0,0
86957,-76.9230769230769,4,2,1,90,0,0

[Colours]
Combo1 : 191,96,0
Combo2 : 143,32,255
Combo3 : 191,0,96
Combo4 : 0,80,159

[HitObjects]
110,205,1546,6,2,B|77:160|42:95|42:95|90:157|136:195,1,259.199992894506,2|0,0:0|0:0,0:1:0:0:
171,64,2252,5,10,0:0:0:0:
196,139,2428,1,0,0:0:0:0:
287,101,2604,5,10,0:0:0:0:
257,199,2781,1,2,0:0:0:0:
361,194,2957,5,10,0:0:0:0:
282,281,3134,1,0,0:0:0:0:
405,305,3310,5,10,0:0:0:0:
283,370,3487,1,2,0:0:0:0:
168,273,3663,6,0,B|76:245|98:322|-8:281,1,172.799995263004,10|8,0:0|0:0,0:0:0:0:
139,181,4193,2,0,B|131:141|131:141|171:94,1,86.399997631502,2|8,0:0|0:0,0:0:0:0:
285,199,4546,2,0,B|293:239|293:239|253:286,1,86.399997631502,2|8,0:0|0:0,0:0:0:0:
410,366,4899,2,0,P|364:345|324:339,1,86.399997631502,2|8,0:0|0:0,0:0:0:0:
328,339,5252,1,2,0:0:0:0:
108,296,5428,5,8,0:0:0:0:
173,251,5604,1,2,0:0:0:0:
140,167,5781,5,10,0:0:0:0:
225,179,5957,1,2,0:0:0:0:
219,75,6134,5,10,0:0:0:0:
304,131,6310,1,2,0:0:0:0:
389,187,6487,1,10,0:0:0:0:
317,315,6663,6,0,P|304:265|283:226,1,86.399997631502,2|8,0:0|0:0,0:0:0:0:
508,96,7016,2,0,P|489:151|485:192,1,86.399997631502,2|10,0:0|0:0,0:0:0:0:
478,357,7369,1,2,0:0:0:0:
413,300,7546,1,10,0:0:0:0:
491,268,7722,1,2,0:0:0:0:
339,171,7899,5,10,0:0:0:0:
311,257,8075,1,0,0:0:0:0:
232,113,8252,5,10,0:0:0:0:
258,189,8428,1,2,0:0:0:0:
103,144,8604,5,10,0:0:0:0:
172,188,8781,1,2,0:0:0:0:
14,255,8957,5,10,0:0:0:0:
96,235,9134,1,2,0:0:0:0:
0,384,9310,5,10,0:0:0:0:
71,320,9487,1,0,0:0:0:0:
268,340,9663,5,10,0:0:0:0:
189,272,9840,2,0,P|177:214|167:166,1,86.399997631502,2|8,0:0|0:0,0:0:0:0:
385,34,10193,6,0,B|428:60|428:60|408:95|407:119,1,86.399997631502,2|8,0:0|0:0,0:0:0:0:
337,124,10546,2,0,P|291:134|239:147,1,86.399997631502,2|8,0:0|0:0,0:0:0:0:
167,82,10899,2,0,P|214:71|264:55,2,86.399997631502,2|10|0,0:0|0:0|0:0,0:0:0:0:
85,37,11428,1,8,0:0:0:0:
82,151,11604,2,0,P|135:165|185:171,2,86.399997631502,2|10|2,0:0|0:0|0:0,0:0:0:0:
85,37,12134,5,10,0:0:0:0:
85,37,12487,1,10,0:0:0:0:
85,37,12840,1,8,0:0:0:0:
85,37,13193,1,2,0:3:0:0:
128,287,13546,5,10,0:0:0:0:
75,186,13722,1,0,0:0:0:0:
180,147,13899,1,2,1:2:0:0:
236,246,14075,1,2,0:0:0:0:
356,349,14252,5,10,0:0:0:0:
444,383,14428,1,2,0:0:0:0:
486,301,14604,1,2,1:2:0:0:
402,270,14781,1,2,0:0:0:0:
264,161,14957,6,0,P|246:109|232:20,1,129.599996447253,10|0,0:0|0:0,0:0:0:0:
233,35,15310,1,0,1:0:0:0:
134,250,15487,2,0,P|156:205|161:150,1,86.399997631502,2|8,0:0|0:0,0:0:0:0:
314,237,15840,2,0,B|279:258|279:258|224:242,1,86.399997631502,2|0,0:0|1:0,0:0:0:0:
350,58,16193,1,2,0:0:0:0:
350,58,16546,1,2,0:0:0:0:
462,87,16722,5,0,1:0:0:0:
400,155,16899,1,2,0:0:0:0:
310,163,17075,5,10,0:0:0:0:
394,241,17252,1,2,0:0:0:0:
290,323,17428,5,2,1:2:0:0:
426,320,17604,1,2,0:0:0:0:
227,228,17781,5,10,0:0:0:0:
227,228,17957,2,0,B|193:222|193:222|180:224|180:224|140:216,1,86.399997631502,2|0,0:0|1:0,0:0:0:0:
89,139,18310,2,0,P|72:108|119:73,1,86.399997631502,2|10,0:0|0:0,0:0:0:0:
226,13,18663,5,2,0:0:0:0:
314,97,18840,1,2,1:2:0:0:
196,140,19016,1,2,0:0:0:0:
401,109,19193,5,10,0:0:0:0:
332,189,19369,1,0,0:0:0:0:
307,277,19546,5,2,1:2:0:0:
428,252,19722,1,0,0:0:0:0:
395,383,19899,5,10,0:0:0:0:
242,343,20075,1,2,0:0:0:0:
89,303,20252,1,2,1:2:0:0:
188,165,20428,6,0,P|210:214|222:256,1,86.399997631502,2|8,0:0|0:0,0:0:0:0:
220,245,20781,1,2,0:0:0:0:
101,160,20957,1,2,1:2:0:0:
290,35,21134,2,0,P|276:86|271:124,1,86.399997631502,2|8,0:0|0:0,0:0:0:0:
336,171,21487,2,0,P|388:180|426:192,1,86.399997631502,2|2,0:0|1:2,0:0:0:0:
220,245,21840,5,2,0:0:0:0:
140,335,22016,2,0,P|123:286|134:245,2,86.399997631502,8|2|2,0:0|0:0|1:2,0:0:0:0:
220,245,22546,1,0,0:0:0:0:
44,251,22722,2,0,P|58:201|90:173,2,86.399997631502,10|2|0,0:0|0:0|1:0,0:0:0:0:
220,245,23252,1,2,0:0:0:0:
62,95,23428,2,0,B|103:74|103:74|127:85|154:90,1,86.399997631502,10|0,0:0|0:0,0:0:0:0:
411,107,23781,2,0,B|334:86|357:151|255:107,1,129.599996447253,2|0,1:2|0:0,0:0:0:0:
271,125,24134,2,0,P|253:81|248:38,1,86.399997631502,10|0,0:0|0:0,0:0:0:0:
163,161,24487,2,0,P|188:205|196:249,1,86.399997631502,2|0,1:2|0:0,0:0:0:0:
180,336,24840,5,10,0:1:0:0:
180,336,25193,1,2,1:2:0:0:
306,227,25369,2,0,L|390:246,1,67.1999981578349,10|2,1:1|0:0,0:0:0:0:
335,150,25722,2,0,L|425:171,1,67.1999981578349,10|0,0:1|1:2,0:0:0:0:
277,20,26075,2,0,P|260:59|236:173,1,134.39999631567,10|2,0:1|0:0,0:0:0:0:
196,361,26604,1,2,1:2:0:0:
127,228,26781,1,2,1:2:0:0:
127,228,27134,2,0,B|41:249,1,67.1999981578349,10|2,0:1|1:2,0:0:0:0:
61,243,27663,6,0,B|143:232|101:287|201:268,1,134.39999631567,10|2,0:1|1:2,0:0:0:0:
220,106,28193,2,0,P|234:157|237:184,1,67.1999981578349,10|2,1:1|0:0,0:0:0:0:
303,81,28546,2,0,P|311:124|322:157,1,67.1999981578349,10|0,0:1|1:2,0:0:0:0:
370,239,28899,2,0,B|421:250|421:250|441:283|441:283|503:297,1,134.39999631567,10|2,0:1|0:0,0:0:0:0:
297,352,29428,1,2,1:2:0:0:
190,185,29604,1,2,1:2:0:0:
155,348,29781,2,0,P|151:294|150:268,1,67.1999981578349,10|2,0:1|0:0,0:0:0:0:
68,288,30134,2,0,P|65:254|63:220,1,67.1999981578349,10|2,0:1|0:0,0:0:0:0:
0,168,30399,5,0,0:0:0:0:
0,168,30487,2,0,B|81:143|65:208|163:153,1,144.000000447034,14|0,0:0|0:0,0:0:0:0:
244,171,30840,1,2,1:2:0:0:
244,171,31016,1,2,1:2:0:0:
303,307,31193,2,0,B|345:284|396:278|396:278|367:233|352:164,1,192.000000596046,10|0,0:0|1:0,0:0:0:0:
267,106,31722,2,0,B|224:126|224:126|234:142|248:184,1,96.000000298023,2|8,0:0|0:0,0:0:0:0:
229,267,32075,1,2,0:0:0:0:
373,93,32252,1,2,1:2:0:0:
373,93,32428,2,0,P|351:48|335:1,1,96.000000298023,2|8,1:2|0:0,0:0:0:0:
148,209,32781,5,2,0:0:0:0:
92,57,32957,1,2,1:2:0:0:
267,106,33134,1,2,0:0:0:0:
83,153,33310,6,0,P|29:180|-10:207,1,96.000000298023,10|0,0:0|0:0,0:0:0:0:
222,263,33663,1,2,1:2:0:0:
222,263,33840,1,0,1:0:0:0:
215,34,34016,2,0,P|178:65|184:114,1,96.000000298023,10|2,0:0|0:0,0:0:0:0:
321,271,34369,2,0,B|330:227|330:227|302:161,1,96.000000298023,0|2,1:0|0:0,0:0:0:0:
222,263,34722,5,8,0:0:0:0:
222,263,35075,1,10,0:0:0:0:
222,263,35428,1,10,0:0:0:0:
222,263,35781,1,2,0:1:0:0:
32,178,36134,6,0,P|73:163|125:161,1,62.3999973372698,14|0,0:0|0:0,0:0:0:0:
255,179,36310,2,0,B|222:173|190:153|190:153|238:242|216:291,1,187.199992011809,2|0,0:0|0:0,0:0:0:0:
209,348,36663,1,2,0:0:0:0:
277,85,36840,1,10,0:0:0:0:
116,250,37016,1,0,0:0:0:0:
380,269,37193,2,0,P|337:251|290:240,1,62.3999973372698,2|0,1:2|0:0,0:0:0:0:
118,17,37369,6,0,P|140:80|160:145,1,124.79999467454,2|8,0:0|0:0,0:0:0:0:
173,179,37634,1,0,0:0:0:0:
173,179,37722,1,2,0:0:0:0:
4,201,37899,1,2,1:2:0:0:
208,361,38075,1,2,0:0:0:0:
335,139,38252,2,0,B|294:92|240:105|240:105|285:143|265:200,1,187.199992011809,10|0,0:0|0:0,0:0:0:0:
148,285,38604,2,0,P|196:271|251:260,1,96.000000298023,2|0,1:2|0:0,0:0:0:0:
509,187,38957,6,0,P|465:177|439:168,1,62.3999973372698,10|0,0:0|0:0,0:0:0:0:
352,379,39134,2,0,B|318:318|318:318|334:292|329:250,1,124.79999467454,2|0,0:0|1:0,0:0:0:0:
242,35,39487,1,2,0:0:0:0:
446,151,39663,2,0,B|350:117|363:210|267:174,1,187.199992011809,10|0,0:0|0:0,0:0:0:0:
252,146,40016,1,2,1:2:0:0:
107,300,40193,2,0,B|84:239|84:239|117:209|127:182,1,124.79999467454,2|8,0:0|0:0,0:0:0:0:
140,45,40546,1,2,0:0:0:0:
195,262,40722,1,2,1:2:0:0:
0,200,40899,1,2,0:0:0:0:
309,49,41075,5,10,0:0:0:0:
50,121,41252,1,2,0:0:0:0:
399,229,41428,5,2,1:2:0:0:
189,132,41604,1,2,0:0:0:0:
441,12,41781,6,0,P|413:86|400:140,1,105.600003550482,10|0,0:0|0:0,0:0:0:0:
314,263,42134,2,0,B|408:243|379:319|491:275,1,158.400005325722,2|0,1:2|0:0,0:0:0:0:
497,261,42487,1,10,0:0:0:0:
253,370,42663,1,0,0:0:0:0:
291,134,42840,2,0,P|277:88|241:4,1,105.600003550482,2|0,1:2|0:0,0:0:0:0:
10,211,43193,6,0,P|33:278|146:267,1,187.199992011809,10|0,0:0|0:0,0:0:0:0:
216,201,43546,2,0,B|161:178|161:178|76:201,1,124.79999467454,2|0,1:2|0:0,0:0:0:0:
236,357,43899,1,10,0:0:0:0:
236,357,43987,1,0,0:0:0:0:
236,357,44075,1,0,0:0:0:0:
402,182,44252,2,0,P|373:116|337:1,1,187.199992011809,2|0,1:2|0:0,0:0:0:0:
493,213,44604,6,0,B|468:246|454:293|454:293|391:276|325:289,1,187.199992011809,10|0,0:0|0:0,0:0:0:0:
189,243,44957,2,0,P|235:222|314:201,1,124.79999467454,2|2,1:2|0:0,0:0:0:0:
299,375,45310,1,10,0:0:0:0:
94,247,45487,1,0,0:0:0:0:
260,51,45663,2,0,P|245:105|242:135,1,62.3999973372698,2|0,1:2|0:0,0:0:0:0:
43,330,45840,6,0,B|22:307|-18:286|-18:286|15:180,1,187.199992011809,2|0,0:0|0:0,0:0:0:0:
196,270,46193,1,2,0:0:0:0:
394,104,46369,1,2,1:2:0:0:
114,11,46546,2,0,P|141:82|157:142,1,124.79999467454,2|10,0:0|0:0,0:0:0:0:
362,314,46899,2,0,P|346:272|335:238,1,62.3999973372698,2|2,1:2|1:2,0:0:0:0:
412,0,47075,1,2,1:2:0:0:
466,27,47163,1,0,1:0:0:0:
496,81,47251,1,2,1:2:0:0:
491,142,47339,1,2,1:2:0:0:
452,189,47428,6,0,P|375:174|221:161,1,187.199992011809,14|0,0:0|0:0,0:0:0:0:
177,159,47781,1,0,1:0:0:0:
106,282,47957,1,2,0:0:0:0:
294,67,48134,2,0,P|258:78|231:84,1,62.3999973372698,10|0,0:0|0:0,0:0:0:0:
14,0,48310,2,0,P|37:72|41:138,1,124.79999467454,2|0,0:0|1:0,0:0:0:0:
404,300,48663,5,2,0:0:0:0:
404,300,48752,1,0,0:0:0:0:
404,300,48840,1,10,0:0:0:0:
177,159,49016,1,2,0:0:0:0:
423,33,49193,2,0,P|410:85|404:120,1,62.3999973372698,2|0,1:2|0:0,0:0:0:0:
228,302,49369,2,0,B|214:266|254:235|254:235|268:236|268:236|335:201|293:131,1,187.199992011809,2|0,0:0|0:0,0:0:0:0:
179,0,49722,5,2,0:0:0:0:
0,156,49899,1,2,1:2:0:0:
179,0,50075,2,0,P|195:55|212:132,1,124.79999467454,2|8,0:0|0:0,0:0:0:0:
305,158,50428,5,2,0:0:0:0:
512,279,50605,1,2,1:2:0:0:
305,158,50781,2,0,P|289:213|272:290,1,124.79999467454,2|8,0:0|0:0,0:0:0:0:
145,360,51134,5,2,0:0:0:0:
394,228,51310,1,2,1:2:0:0:
145,43,51487,2,0,B|118:75|82:97|82:97|146:159|153:224,1,187.199992011809,2|0,0:0|0:0,0:0:0:0:
48,286,51840,2,0,P|74:277|120:272,1,62.3999973372698,2|0,0:0|0:0,0:0:0:0:
425,129,52016,2,0,B|333:103|349:189|243:142,1,187.199992011809,2|0,1:2|0:0,0:0:0:0:
102,379,52369,5,10,0:0:0:0:
325,276,52546,1,2,0:0:0:0:
224,53,52722,1,2,1:2:0:0:
0,155,52899,1,2,0:0:0:0:
244,245,53075,6,0,P|319:252|441:280,1,187.199992011809,10|0,0:0|0:0,0:0:0:0:
506,229,53428,2,0,B|484:194|465:122|465:122|450:175|396:180,1,187.199992011809,2|0,1:2|0:0,0:0:0:0:
260,142,53781,2,0,P|240:117|321:86,1,124.79999467454,10|0,0:0|0:0,0:0:0:0:
377,90,54046,1,0,0:0:0:0:
377,90,54134,2,0,P|357:169|344:301,1,187.199992011809,2|0,1:2|0:0,0:0:0:0:
79,384,54487,5,10,0:0:0:0:
250,246,54663,1,0,0:0:0:0:
51,119,54840,2,0,P|77:182|89:246,1,124.79999467454,2|0,1:2|0:0,0:0:0:0:
79,266,55104,1,0,0:0:0:0:
79,266,55193,1,10,0:0:0:0:
279,378,55369,1,0,0:0:0:0:
316,148,55546,2,0,P|245:136|196:115,1,124.79999467454,2|0,1:2|0:0,0:0:0:0:
444,292,55899,6,0,B|409:247|350:241|350:241|398:225|406:186,1,187.199992011809,14|0,0:0|0:0,0:0:0:0:
263,269,56252,2,0,P|285:326|290:392,1,96.000000298023,0|0,1:0|0:0,0:0:0:0:
128,274,56604,1,10,0:0:0:0:
336,92,56781,1,2,0:0:0:0:
60,42,56957,2,0,P|89:94|102:154,1,96.000000298023,2|0,1:2|0:0,0:0:0:0:
43,211,57222,5,0,0:0:0:0:
43,211,57310,2,0,B|76:246|126:232|126:232|152:184|212:192,1,172.799995263004,10|0,0:0|0:0,0:0:0:0:
270,242,57663,2,0,B|300:199|300:199|265:140,1,96.000000298023,2|0,1:2|0:0,0:0:0:0:
435,11,58016,2,0,P|411:88|403:135,1,96.000000298023,10|0,0:0|0:0,0:0:0:0:
369,346,58369,1,2,1:2:0:0:
512,188,58546,1,0,0:0:0:0:
263,55,58722,6,0,B|201:49|156:115|156:115|203:113|217:150,1,172.799995263004,10|0,0:0|0:0,0:0:0:0:
443,283,59075,2,0,P|424:238|403:172,1,96.000000298023,2|0,1:2|0:0,0:0:0:0:
371,10,59428,1,10,0:0:0:0:
308,241,59604,1,0,0:0:0:0:
154,38,59781,2,0,P|179:87|207:146,1,96.000000298023,2|0,1:2|0:0,0:0:0:0:
221,237,60046,5,0,0:0:0:0:
221,237,60134,2,0,B|174:208|130:231|130:231|113:279|45:277,1,172.799995263004,10|0,0:0|0:0,0:0:0:0:
49,257,60487,1,2,1:2:0:0:
265,335,60663,1,0,0:0:0:0:
283,108,60840,2,0,P|297:61|324:-6,1,115.199996842003,10|0,0:0|0:0,0:0:0:0:
135,194,61193,2,0,P|108:136|75:70,1,115.199996842003,2|0,1:2|0:0,0:0:0:0:
343,205,61546,6,0,B|404:167|459:193|459:193|413:211|407:269,1,172.799995263004,10|0,0:0|0:0,0:0:0:0:
265,335,61899,1,2,1:2:0:0:
487,281,62075,1,0,0:0:0:0:
266,122,62252,2,0,P|251:191|237:252,1,115.199996842003,10|0,0:0|0:0,0:0:0:0:
20,317,62604,2,0,P|64:270|117:290,1,115.199996842003,2|0,1:2|0:0,0:0:0:0:
327,55,62957,6,0,B|316:51|235:8|235:8|207:68|142:66,1,172.799995263004,10|0,0:0|0:0,0:0:0:0:
101,95,63310,2,0,B|78:45|78:45|126:-14,1,115.199996842003,2|2,1:2|0:0,0:0:0:0:
407,80,63663,2,0,P|380:139|312:132,1,115.199996842003,10|0,0:0|0:0,0:0:0:0:
167,314,64016,1,2,1:2:0:0:
167,314,64104,1,0,0:0:0:0:
167,314,64193,2,0,P|183:275|202:215,1,72.0000029700994
246,43,64369,5,10,0:0:0:0:
126,124,64546,1,0,0:0:0:0:
373,217,64722,5,2,1:2:0:0:
222,161,64899,1,0,0:0:0:0:
397,365,65075,5,10,0:0:0:0:
281,262,65252,1,0,0:0:0:0:
430,116,65428,5,2,1:2:0:0:
249,363,65604,1,0,0:0:0:0:
22,160,65781,6,0,B|126:125|103:216|215:159,1,187.199992011809,10|0,0:0|0:0,0:0:0:0:
231,141,66134,1,0,1:0:0:0:
502,290,66310,2,0,B|471:277|440:278|440:278|411:219|411:219|362:217|325:197,1,187.199992011809,2|0,0:0|0:0,0:0:0:0:
160,272,66663,1,2,0:0:0:0:
400,75,66840,1,2,1:2:0:0:
104,19,67016,1,2,0:0:0:0:
354,209,67193,6,0,P|304:226|277:245,1,62.3999973372698,14|0,0:0|0:0,0:0:0:0:
48,324,67369,2,0,P|61:257|91:187,1,124.79999467454,2|0,0:0|1:0,0:0:0:0:
123,124,67634,1,0,0:0:0:0:
123,124,67722,1,2,0:0:0:0:
459,94,67899,2,0,P|413:79|377:65,1,62.3999973372698,10|0,0:0|0:0,0:0:0:0:
193,0,68075,2,0,P|212:66|223:136,1,124.79999467454,2|0,0:0|1:0,0:0:0:0:
220,335,68428,5,2,0:0:0:0:
220,335,68516,1,0,0:0:0:0:
220,335,68604,1,10,0:0:0:0:
462,222,68781,1,2,0:0:0:0:
125,199,68957,2,0,P|168:207|206:222,1,62.3999973372698,2|0,1:2|0:0,0:0:0:0:
412,355,69134,2,0,B|407:312|378:282|378:282|349:285|333:264|333:264|359:235|363:178,1,187.199992011809,2|0,0:0|0:0,0:0:0:0:
396,105,69487,5,2,0:0:0:0:
153,323,69663,1,2,1:2:0:0:
396,105,69840,2,0,P|463:136|537:150,1,124.79999467454,2|8,0:0|0:0,0:0:0:0:
132,20,70193,5,2,0:0:0:0:
357,215,70369,1,2,1:2:0:0:
132,20,70546,2,0,P|65:51|-9:65,1,124.79999467454,2|8,0:0|0:0,0:0:0:0:
325,350,70899,5,2,0:0:0:0:
59,198,71075,1,2,1:2:0:0:
360,5,71252,2,0,P|336:79|319:144,1,124.79999467454,2|8,0:0|0:0,0:0:0:0:
377,207,71516,1,0,0:0:0:0:
377,207,71604,2,0,P|420:220|440:231,1,62.3999973372698,2|0,0:0|0:0,0:0:0:0:
211,269,71781,2,0,B|121:246|133:335|24:289,1,187.199992011809,2|0,1:2|0:0,0:0:0:0:
203,131,72134,5,8,0:0:0:0:
359,344,72310,1,2,0:0:0:0:
493,68,72487,5,2,1:2:0:0:
211,269,72663,1,2,0:0:0:0:
502,374,72840,6,0,P|483:308|453:179,1,187.199992011809,10|0,0:0|0:0,0:0:0:0:
369,61,73193,2,0,B|394:119|394:119|368:143|363:189,1,124.79999467454,2|0,1:2|0:0,0:0:0:0:
326,345,73546,1,10,0:0:0:0:
57,257,73722,1,0,0:0:0:0:
282,103,73899,2,0,P|261:156|256:180,2,62.3999973372698,2|0|0,1:2|0:0|0:0,0:0:0:0:
89,355,74252,6,0,B|143:336|143:336|168:283|168:283|245:257,1,187.199992011809,10|0,0:0|0:0,0:0:0:0:
405,290,74604,2,0,P|383:233|363:163,1,124.79999467454,2|0,1:2|0:0,0:0:0:0:
288,0,74957,1,10,0:0:0:0:
495,169,75134,1,0,0:0:0:0:
301,341,75310,5,2,0:0:0:0:
301,341,75663,2,0,B|273:329|273:329|203:353|203:353|159:330,1,144.000005940199,14|0,0:1|0:0,0:0:0:0:
75,360,75928,2,0,B|68:328|68:328|84:286,1,72.0000029700994,2|0,0:1|1:0,0:0:0:0:
20,219,76104,1,0,0:0:0:0:
20,219,76193,2,0,B|44:197|44:197|89:192,1,72.0000029700994,2|0,0:1|0:0,0:0:0:0:
481,165,76369,5,10,0:1:0:0:
288,99,76546,1,0,0:0:0:0:
248,198,76722,5,2,1:1:0:0:
457,77,76899,1,2,0:1:0:0:
115,14,77075,6,0,B|114:99|183:50|173:163,1,144.000005940199,14|0,0:1|0:0,0:0:0:0:
248,198,77340,2,0,P|223:240|178:237,1,72.0000029700994,2|0,0:1|1:0,0:0:0:0:
205,341,77516,1,0,0:0:0:0:
205,341,77604,2,0,P|156:338|137:297,1,72.0000029700994,2|0,0:1|0:0,0:0:0:0:
36,174,77781,5,10,0:1:0:0:
263,66,77957,1,2,0:1:0:0:
335,153,78134,5,2,1:1:0:0:
509,210,78310,1,2,0:1:0:0:
341,352,78487,6,0,B|432:310|432:310|431:284|452:251,1,144.000005940199,14|0,0:1|0:0,0:0:0:0:
285,233,78752,2,0,B|317:258|317:258|329:251|349:253,1,72.0000029700994,2|0,0:1|1:0,0:0:0:0:
323,88,78928,1,0,0:0:0:0:
323,88,79016,2,0,B|315:128|315:128|327:135|335:154,1,72.0000029700994,2|0,0:1|0:0,0:0:0:0:
475,61,79193,5,10,0:1:0:0:
207,131,79369,1,0,0:0:0:0:
205,281,79546,5,2,1:1:0:0:
45,166,79722,1,2,0:1:0:0:
174,12,79899,6,0,P|222:67|196:141,1,144.000005940199,14|0,0:1|0:0,0:0:0:0:
35,77,80163,2,0,P|85:67|117:96,1,72.0000029700994,2|0,0:1|1:0,0:0:0:0:
0,211,80340,1,0,0:0:0:0:
0,211,80428,2,0,P|11:180|53:168,1,72.0000029700994,2|0,0:1|0:0,0:0:0:0:
192,304,80604,5,10,0:1:0:0:
424,192,80781,1,2,0:1:0:0:
129,207,80957,5,2,1:1:0:0:
416,361,81134,2,0,P|404:332|393:286,1,72.0000029700994,2|0,0:1|0:0,0:0:0:0:
357,37,81310,6,0,B|261:23|261:23|298:71|288:102,1,163.200003619432,14|0,0:1|0:0,0:0:0:0:
275,169,81575,2,0,B|243:213|243:213|276:212|291:227,1,81.6000018097161,2|0,0:1|1:0,0:0:0:0:
354,265,81752,1,0,0:0:0:0:
354,265,81840,2,0,B|378:314|378:314|393:284|413:278,1,81.6000018097161,2|0,0:1|0:0,0:0:0:0:
450,100,82016,5,10,0:1:0:0:
182,189,82193,1,0,0:0:0:0:
150,83,82369,5,2,1:1:0:0:
374,166,82546,1,2,0:1:0:0:
114,291,82722,6,0,B|61:222|61:222|89:187|98:129,1,163.200003619432,14|0,0:1|0:0,0:0:0:0:
248,117,82987,2,0,B|283:162|283:162|269:195|270:222,1,81.6000018097161,2|0,0:1|1:0,0:0:0:0:
208,257,83163,1,0,0:0:0:0:
208,257,83252,2,0,B|173:212|173:212|187:179|186:152,1,81.6000018097161,2|0,0:1|0:0,0:0:0:0:
289,17,83428,5,10,0:1:0:0:
466,174,83604,1,2,0:1:0:0:
311,374,83781,5,2,1:1:0:0:
376,226,83957,1,2,0:1:0:0:
274,185,84134,6,0,B|181:166|181:166|177:169|177:169|66:144,2,187.199992011809,14|2|2,0:1|0:1|0:1,0:0:0:0:
366,146,84840,1,2,0:1:0:0:
359,131,85016,1,2,0:1:0:0:
354,117,85193,1,2,0:1:0:0:
350,102,85369,1,2,0:1:0:0:
332,253,85546,6,0,B|431:215|409:306|514:256,2,187.199992011809,10|2|2,0:1|0:1|0:1,0:0:0:0:
227,324,86252,1,2,0:1:0:0:
220,338,86428,1,2,0:1:0:0:
215,352,86605,1,2,0:1:0:0:
211,367,86781,1,2,0:1:0:0:
229,169,86957,6,0,B|209:118|192:46|192:46|222:118|257:167,1,249.599989349079,14|0,0:1|0:0,0:0:0:0:
