osu file format v14

[General]
AudioFilename: audio.mp3
AudioLeadIn: 0
PreviewTime:35737
Countdown: 0
SampleSet: Soft
StackLeniency: 1
Mode: 0
LetterboxInBreaks: 0
WidescreenStoryboard: 1

[Editor]
DistanceSpacing: 0.2
BeatDivisor: 4
GridSize: 8
TimelineZoom: 2.5

[Metadata]
Title:Kaibutsu (TV Size)
TitleUnicode:怪物 (TV Size)
Artist:YOASOBI
ArtistUnicode:YOASOBI
Creator:Ryuusei Aika
Version:Crystal's Extra
Source:BEASTARS
Tags:ビースターズ japanese furry anime op2 pop j-pop jpop opening theme 幾田りら Ikuta Rira Lilas Ayase Monster MoeAsuka Atrue SuperBox Fall Marle Calvaria Mariko Sakuragi Reiji Maigo SB hhjkl [Hatsune Miku] [Hatsune_Miku] Hatsune Miku Remapper _lai Kyrian 09kami Ducky- Acyl Acylica Bellicose wafer iWaifu KAMI NO KOTOBA Addy2607 KaedeharaKazuha Airincat Chompy Yooh Reywateil Amateurre Sparhten Ajisai- HabiHolic newton- Yuuma Ogura Yui fedora- UberFazz xidorn Pata-Mon PataMon Deca Wanpachi cycopton Gibune wiken Fuju Stratos Crystal OneShotFox Elcheer Fieryrage hypercyte hypercute Kittyadventure gokugohan12468 Kyouren Zelq ponbot Yuuma3 Mimari i love ganyu Flake yaspo Regraz Mafumafu bongo Moete Senseabel Senseable Kuse KuBsNia_ZhoYL_ wetdog123 eiri-
BeatmapID:2820218
BeatmapSetID:1335792

[Difficulty]
HPDrainRate:5.7
CircleSize:4.3
OverallDifficulty:8.3
ApproachRate:9.3
SliderMultiplier:1.80000000596046
SliderTickRate:1

[Events]
//Background and Video events
0,0,"furry.jpg",0,0
Video,-200,"OP.mp4"
//Break Periods
2,58922,66109
//Storyboard Layer 0 (Background)
//Storyboard Layer 1 (Fail)
//Storyboard Layer 2 (Pass)
//Storyboard Layer 3 (Foreground)
//Storyboard Layer 4 (Overlay)
//Storyboard Sound Samples

[TimingPoints]
-3395,352.941176470588,4,2,1,40,1,0
1543,-100,4,2,1,40,0,0
1546,-200,4,2,1,40,0,0
2249,-133.333333333333,4,2,1,40,0,0
2252,-133.333333333333,4,2,1,60,0,0
13193,-100,4,2,1,60,0,0
13543,-100,4,2,1,60,0,0
13546,-111.111111111111,4,2,1,70,0,0
24837,-111.111111111111,4,2,1,70,0,0
24840,-133.333333333333,4,2,1,60,0,0
29604,-133.333333333333,4,2,1,60,0,0
29781,-200,4,2,1,60,0,0
30484,-100,4,2,1,60,0,0
30487,-100,4,2,1,75,0,0
35428,-200,4,2,1,75,0,0
35516,-200,4,2,1,75,0,0
35778,-200,4,2,1,75,0,0
35781,-333.333333333333,4,2,1,60,0,0
36046,-133.333333333333,4,2,1,60,0,0
36131,-133.333333333333,4,2,1,60,0,0
36134,-66.6666666666667,4,2,1,80,0,1
36222,-57.1428571428571,4,2,1,80,0,0
36310,-50,4,2,1,80,0,0
36663,-66.6666666666667,4,2,1,80,0,0
36840,-50,4,2,1,80,0,0
37369,-66.6666666666667,4,2,1,80,0,0
38252,-50,4,2,1,80,0,0
38957,-66.6666666666667,4,2,1,80,0,0
39134,-50,4,2,1,80,0,0
39487,-66.6666666666667,4,2,1,80,0,0
39663,-50,4,2,1,80,0,0
40016,-66.6666666666667,4,2,1,80,0,0
41781,-133.333333333333,4,2,1,80,0,0
42134,-66.6666666666667,4,2,1,80,0,0
42487,-133.333333333333,4,2,1,80,0,0
42840,-66.6666666666667,4,2,1,80,0,0
43193,-133.333333333333,4,2,1,80,0,0
43546,-66.6666666666667,4,2,1,80,0,0
43899,-50,4,2,1,80,0,0
44252,-50,4,2,1,80,0,0
44604,-50,4,2,1,80,0,0
45310,-74.0740740740741,4,2,1,80,0,0
45575,-83.3333333333333,4,2,1,80,0,0
45840,-66.6666666666667,4,2,1,80,0,0
47428,-66.6666666666667,4,2,1,80,0,1
47516,-66.6666666666667,4,2,1,80,0,0
47781,-80,4,2,1,80,0,0
48310,-66.6666666666667,4,2,1,80,0,0
49193,-69.9300699300699,4,2,1,80,0,0
50075,-50,4,2,1,80,0,0
51134,-66.6666666666667,4,2,1,80,0,0
51487,-50,4,2,1,80,0,0
53075,-83.3333333333333,4,2,1,80,0,0
53781,-100,4,2,1,80,0,0
54487,-133.333333333333,4,2,1,80,0,0
55899,-74.0740740740741,4,2,1,80,0,1
55987,-74.0740740740741,4,2,1,80,0,0
56428,-78.7401574803149,4,2,1,80,0,0
57310,-74.0740740740741,4,2,1,80,0,0
58193,-78.7401574803149,4,2,1,80,0,0
58369,-74.0740740740741,4,2,1,80,0,0
58546,-69.9300699300699,4,2,1,80,0,0
58722,-74.0740740740741,4,2,1,80,0,0
59252,-78.7401574803149,4,2,1,80,0,0
60134,-74.0740740740741,4,2,1,80,0,0
60663,-78.7401574803149,4,2,1,80,0,0
61016,-78.7401574803149,4,2,1,80,0,0
61192,-74.0740740740741,4,2,1,80,0,0
61369,-69.9300699300699,4,2,1,80,0,0
61546,-74.0740740740741,4,2,1,80,0,0
62075,-78.7401574803149,4,2,1,80,0,0
62957,-74.0740740740741,4,2,1,80,0,0
63486,-78.7401574803149,4,2,1,80,0,0
63840,-74.0740740740741,4,2,1,80,0,0
64722,-69.9300699300699,4,2,1,80,0,0
65075,-66.6666666666667,4,2,1,80,0,0
65428,-63.6942675159236,4,2,1,80,0,0
65781,-60.6060606060606,4,2,1,80,0,0
66663,-69.9300699300699,4,2,1,80,0,0
67193,-66.6666666666667,4,2,1,80,0,0
67722,-66.6666666666667,4,2,1,80,0,0
69134,-100,4,2,1,80,0,0
69487,-69.9300699300699,4,2,1,80,0,0
69840,-80,4,2,1,80,0,0
70546,-66.6666666666667,4,2,1,80,0,0
71252,-50,4,2,1,80,0,0
72310,-74.0740740740741,4,2,1,80,0,0
72487,-78.7401574803149,4,2,1,80,0,0
72663,-83.3333333333333,4,2,1,80,0,0
72840,-66.6666666666667,4,2,1,80,0,0
73546,-100,4,2,1,80,0,0
74252,-133.333333333333,4,2,1,80,0,0
74957,-666.666666666667,4,2,1,80,0,0
75310,-303.030303030303,4,2,1,80,0,0
75663,-50,4,2,1,80,0,1
84130,-50,4,2,1,80,0,1
84134,-66.6666666666667,4,2,1,70,0,0
86957,-50,4,2,1,90,0,0

[Colours]
Combo1 : 191,96,0
Combo2 : 143,32,255
Combo3 : 191,0,96
Combo4 : 0,80,159

[HitObjects]
47,96,1546,6,2,B|142:90|143:34|96:39|102:105,1,135.000000447034,2|0,0:0|0:0,0:1:0:0:
201,111,2252,6,0,P|247:93|275:95,1,67.500002798438,10|0,0:0|0:0,0:0:0:0:
345,65,2604,2,0,P|393:72|417:88,1,67.500002798438,10|2,0:0|0:0,0:0:0:0:
261,80,2957,6,0,P|227:76|195:86,1,67.500002798438,10|0,0:0|0:0,0:0:0:0:
422,75,3310,2,0,P|394:55|361:47,1,67.500002798438,10|2,0:0|0:0,0:0:0:0:
423,196,3663,6,0,P|471:206|428:181,1,135.000005596876,10|8,0:0|0:0,0:0:0:0:
319,264,4193,2,0,P|336:286|326:258,1,67.500002798438,2|8,0:0|0:0,0:0:0:0:
194,291,4546,2,0,P|197:318|203:289,1,67.500002798438,2|8,0:0|0:0,0:0:0:0:
114,332,4899,6,0,P|156:308|145:208,1,135.000005596876,2|2,0:0|0:0,0:0:0:0:
87,102,5428,2,0,P|71:147|96:179,1,67.500002798438,8|2,0:0|0:0,0:0:0:0:
70,174,5781,6,0,P|50:147|54:114,1,67.500002798438,10|2,0:0|0:0,0:0:0:0:
187,106,6134,2,0,P|183:73|203:46,1,67.500002798438,10|2,0:0|0:0,0:0:0:0:
422,119,6487,1,10,0:0:0:0:
422,119,6663,2,0,B|334:107|378:162|276:145,1,135.000005596876,2|2,0:0|0:0,0:0:0:0:
294,147,7193,6,0,P|322:125|374:138,1,67.500002798438,10|2,0:0|0:0,0:0:0:0:
220,233,7546,1,10,0:0:0:0:
259,40,7722,1,2,0:0:0:0:
475,216,7899,6,0,L|399:207,1,67.500002798438,10|0,0:0|0:0,0:0:0:0:
394,319,8252,2,0,L|317:326,1,67.500002798438,10|2,0:0|0:0,0:0:0:0:
414,199,8604,6,0,L|481:206,1,67.500002798438,10|2,0:0|0:0,0:0:0:0:
329,339,8957,2,0,L|396:332,1,67.500002798438,10|2,0:0|0:0,0:0:0:0:
193,255,9310,5,10,0:0:0:0:
298,234,9487,1,0,0:0:0:0:
278,127,9663,1,10,0:0:0:0:
172,149,9840,6,0,L|87:144,1,67.500002798438,2|8,0:0|0:0,0:0:0:0:
167,157,10193,6,0,L|83:152,2,67.500002798438,2|8|2,0:0|0:0|0:0,0:0:0:0:
11,175,10722,1,8,0:0:0:0:
94,160,10899,6,0,L|162:165,2,67.500002798438,2|10|0,0:0|0:0|0:0,0:0:0:0:
250,177,11604,2,0,L|317:172,2,67.500002798438,2|10|2,0:0|0:0|0:0,0:0:0:0:
402,202,12134,5,10,0:0:0:0:
402,202,12487,1,10,0:0:0:0:
402,202,12840,1,8,0:0:0:0:
402,202,13193,6,0,L|398:164,1,22.5000000745057,2|0,0:3|0:0,0:0:0:0:
399,179,13546,6,0,L|392:289,1,80.9999977962969,10|0,0:0|0:0,0:0:0:0:
249,156,13899,1,2,1:2:0:0:
267,283,14075,1,2,0:0:0:0:
419,173,14252,6,0,L|413:271,1,80.9999977962969,10|2,0:0|0:0,0:0:0:0:
236,145,14605,1,2,1:2:0:0:
258,299,14781,1,2,0:0:0:0:
14,220,14957,6,0,B|114:193|81:264|181:235,1,161.999995592594,10|0,0:0|1:0,0:0:0:0:
235,55,15487,2,0,P|209:97|219:130,1,80.9999977962969,2|8,0:0|0:0,0:0:0:0:
364,298,15840,2,0,P|360:248|332:227,1,80.9999977962969,2|0,0:0|1:0,0:0:0:0:
255,205,16193,5,2,0:0:0:0:
255,205,16546,1,2,0:0:0:0:
415,185,16722,1,0,1:0:0:0:
337,222,16899,1,2,0:0:0:0:
246,212,17075,5,10,0:0:0:0:
149,186,17252,2,0,P|137:160|157:183,1,80.9999977962969,2|2,0:0|1:2,0:0:0:0:
81,249,17604,1,2,0:0:0:0:
195,96,17781,5,10,0:0:0:0:
195,96,17957,2,0,P|171:167|176:259,1,161.999995592594,2|2,0:0|0:0,0:0:0:0:
453,367,18487,2,0,P|465:321|451:282,1,80.9999977962969,10|2,0:0|0:0,0:0:0:0:
302,201,18840,1,2,1:2:0:0:
314,330,19016,1,2,0:0:0:0:
66,288,19193,6,0,P|121:249|219:270,2,161.999995592594,10|2|10,0:0|1:2|0:0,0:0:0:0:
157,209,20075,1,2,0:0:0:0:
157,209,20252,1,2,1:2:0:0:
261,338,20428,2,0,P|316:315|371:328,1,80.9999977962969,2|8,0:0|0:0,0:0:0:0:
481,352,20781,5,2,0:0:0:0:
463,202,20957,1,2,1:2:0:0:
354,327,21134,1,2,0:0:0:0:
69,71,21487,6,0,L|159:60,1,80.9999977962969,2|2,0:0|1:2,0:0:0:0:
220,124,21840,2,0,B|318:91|297:170|400:128,1,161.999995592594,2|2,0:0|0:0,0:0:0:0:
472,108,22369,2,0,P|476:152|457:190,1,80.9999977962969,2|0,1:2|0:0,0:0:0:0:
472,190,22899,6,0,P|494:156|497:116,2,80.9999977962969,2|0|2,0:0|1:0|0:0,0:0:0:0:
392,244,23428,1,10,0:0:0:0:
150,143,23781,1,2,1:2:0:0:
467,108,24134,5,10,0:0:0:0:
39,258,24487,1,2,1:2:0:0:
256,192,24840,6,0,L|252:165,1,16.8750006996095,10|0,0:1|0:0,0:0:0:0:
299,95,25193,6,0,L|304:66,1,16.8750006996095,2|0,1:2|0:0,0:0:0:0:
389,82,25369,1,10,1:1:0:0:
73,155,25722,5,10,0:1:0:0:
161,171,25899,2,0,L|158:140,1,16.8750006996095,0|0,1:2|0:0,0:0:0:0:
161,171,26075,1,10,0:1:0:0:
380,270,26604,6,0,L|384:243,1,16.8750006996095,2|0,1:2|0:0,0:0:0:0:
470,258,26781,2,0,L|474:231,1,16.8750006996095,2|0,1:2|0:0,0:0:0:0:
469,269,27134,5,10,0:1:0:0:
248,242,27310,2,0,L|246:219,1,16.8750006996095,2|0,1:2|0:0,0:0:0:0:
61,353,27663,5,10,0:1:0:0:
141,55,28016,6,0,L|115:57,1,16.8750006996095,2|0,1:2|0:0,0:0:0:0:
126,139,28193,1,10,1:1:0:0:
397,157,28546,5,10,0:1:0:0:
406,244,28722,2,0,L|434:241,1,16.8750006996095,0|0,1:2|0:0,0:0:0:0:
406,244,28899,1,10,0:1:0:0:
163,295,29428,6,0,L|192:296,1,16.8750006996095,2|0,1:2|0:0,0:0:0:0:
151,381,29604,2,0,L|180:382,1,16.8750006996095,2|0,1:2|0:0,0:0:0:0:
84,325,29781,6,0,L|36:340,1,45.0000001490115,10|2,0:1|0:0,0:0:0:0:
180,215,30134,2,0,L|191:157,1,45.0000001490115,10|2,0:1|0:0,0:0:0:0:
171,98,30399,1,0,0:0:0:0:
156,88,30487,6,0,P|209:38|287:53,1,135.000000447034,14|0,0:0|0:0,0:0:0:0:
364,85,30840,2,0,P|342:105|358:75,1,90.000000298023,2|2,1:2|1:2,0:0:0:0:
489,57,31193,1,10,0:0:0:0:
448,205,31369,1,2,0:0:0:0:
448,205,31457,2,0,P|445:172|444:148,1,45.0000001490115,0|0,0:0|1:0,0:0:0:0:
326,285,31722,2,0,P|335:214|337:173,1,90.000000298023,2|8,0:0|0:0,0:0:0:0:
72,212,32075,5,2,0:0:0:0:
131,138,32252,1,2,1:2:0:0:
165,226,32428,1,2,1:2:0:0:
72,212,32604,6,0,P|156:178|257:178,1,180.000000596046,8|2,0:0|1:2,0:0:0:0:
419,99,33134,1,2,0:0:0:0:
481,328,33310,6,0,L|382:324,1,90.000000298023,10|0,0:0|0:0,0:0:0:0:
345,187,33663,1,2,1:2:0:0:
345,187,33840,1,0,1:0:0:0:
290,352,34016,1,10,0:0:0:0:
195,309,34193,6,0,B|143:278|98:284|76:299|76:299|89:335|85:368,1,180.000000596046,2|2,0:0|0:0,0:0:0:0:
6,219,34722,5,8,0:0:0:0:
6,219,35075,5,10,0:0:0:0:
6,219,35428,5,10,0:0:0:0:
6,219,35781,6,0,L|2:170,1,47.2499987145065,2|0,0:1|0:0,0:0:0:0:
2,171,36134,6,0,B|25:144|25:144|22:169|30:187,1,67.500002798438,14|0,0:0|0:0,0:0:0:0:
95,230,36310,2,0,B|142:243|172:207|172:207|196:267|282:255,1,180.000000596046,2|0,0:0|1:0,0:0:0:0:
298,65,36663,6,0,B|334:61|334:61|342:64|342:64|367:61,1,67.500002798438,2|0,0:0|0:0,0:0:0:0:
443,10,36840,2,0,B|467:1|467:1|495:37|493:82|456:120|456:120|429:89,1,180.000000596046,10|0,0:0|0:0,0:0:0:0:
359,309,37193,5,2,1:2:0:0:
180,276,37369,2,0,P|276:255|359:309,1,202.500008395314,2|0,0:0|0:0,0:0:0:0:
433,355,37722,2,0,P|470:363|510:340,1,67.500002798438,2|0,0:0|0:0,0:0:0:0:
493,253,37899,2,0,L|420:258,1,67.500002798438,2|0,1:2|0:0,0:0:0:0:
426,160,38075,2,0,P|463:152|503:175,1,67.500002798438,2|0,0:0|0:0,0:0:0:0:
416,266,38252,6,0,L|224:260,1,180.000000596046,10|0,0:0|0:0,0:0:0:0:
206,187,38516,1,0,0:0:0:0:
220,273,38604,2,0,L|21:282,1,180.000000596046,2|0,1:2|0:0,0:0:0:0:
438,52,38957,6,0,P|469:46|462:67,1,67.500002798438,10|0,0:0|0:0,0:0:0:0:
444,142,39134,2,0,P|375:174|375:98,1,180.000000596046,2|0,0:0|1:0,0:0:0:0:
39,130,39487,6,0,B|74:124|74:124|94:138|121:137,1,67.500002798438,2|0,0:0|0:0,0:0:0:0:
239,239,39663,2,0,B|195:189|187:127|187:127|191:160|162:202,1,180.000000596046,10|0,0:0|0:0,0:0:0:0:
239,239,40016,5,2,1:2:0:0:
75,41,40193,2,0,P|166:75|265:21,1,202.500008395314,2|0,0:0|0:0,0:0:0:0:
256,32,40546,1,2,0:0:0:0:
443,86,40722,2,0,L|364:81,1,67.500002798438,2|0,1:2|0:0,0:0:0:0:
438,162,40899,2,0,L|359:157,1,67.500002798438,2|0,0:0|0:0,0:0:0:0:
256,32,41075,1,10,0:0:0:0:
110,144,41252,2,0,P|145:166|159:207,1,67.500002798438,2|0,0:0|0:0,0:0:0:0:
100,244,41428,2,0,P|65:222|51:181,1,67.500002798438,2|0,1:2|0:0,0:0:0:0:
256,32,41604,1,2,0:0:0:0:
354,191,41781,6,0,P|389:157|438:161,1,101.250004197657,10|0,0:0|0:0,0:0:0:0:
438,161,42134,2,0,P|402:172|338:93,1,135.000005596876,2|0,1:2|0:0,0:0:0:0:
154,290,42487,6,0,L|41:279,1,101.250004197657,10|0,0:0|0:0,0:0:0:0:
53,280,42840,2,0,B|123:275|123:275|128:278|128:278|186:276,1,135.000005596876,2|0,1:2|0:0,0:0:0:0:
447,266,43193,6,0,B|493:284|493:284|443:295,1,101.250004197657,10|0,0:0|0:0,0:0:0:0:
299,298,43546,2,0,B|275:324|275:324|293:191|293:191|309:219,1,202.500008395314,2|0,1:2|0:0,0:0:0:0:
371,276,43899,6,0,B|244:257|244:257|228:260|228:260|104:236,1,270.000000894069,10|0,0:0|0:0,0:0:0:0:
35,154,44252,2,0,P|64:97|49:157,1,180.000000596046,2|0,1:2|0:0,0:0:0:0:
431,34,44604,6,0,P|386:125|149:71,2,360.000001192092,10|2|10,0:0|1:2|0:0,0:0:0:0:
424,26,45663,5,2,1:2:0:0:
500,223,45840,2,0,P|448:210|368:244,1,135.000005596876,2|8,0:0|0:0,0:0:0:0:
424,26,46193,5,2,0:0:0:0:
374,238,46369,2,0,P|416:241|441:226,1,67.500002798438,2|0,1:2|0:0,0:0:0:0:
424,148,46546,2,0,P|382:145|357:160,1,67.500002798438,2|0,0:0|0:0,0:0:0:0:
487,318,46722,5,10,0:0:0:0:
424,26,46899,1,2,1:2:0:0:
77,149,47075,1,2,1:2:0:0:
129,159,47163,1,0,1:0:0:0:
181,146,47251,1,2,1:2:0:0:
221,111,47339,1,2,1:2:0:0:
217,104,47428,6,0,B|204:186|204:186|215:219|215:219|201:309,1,202.500008395314,14|0,0:0|0:0,0:0:0:0:
116,346,47781,2,0,B|60:337|60:337|118:302,1,112.500000372529,0|2,1:0|0:0,0:0:0:0:
320,296,48134,5,10,0:0:0:0:
105,353,48310,2,0,B|39:342|39:342|107:301,1,135.000005596876,2|0,0:0|1:0,0:0:0:0:
207,320,48664,5,2,0:0:0:0:
402,357,48840,1,10,0:0:0:0:
441,156,49017,1,2,0:0:0:0:
242,117,49193,1,2,1:2:0:0:
402,357,49369,1,2,0:0:0:0:
242,117,49546,1,8,0:0:0:0:
242,117,49634,1,0,0:0:0:0:
242,117,49722,6,0,P|182:153|111:124,1,128.700002193598,2|2,0:0|1:2,0:0:0:0:
376,135,50075,2,0,P|278:93|127:140,1,270.000000894069,2|0,0:0|0:0,0:0:0:0:
71,203,50428,5,2,0:0:0:0:
203,54,50604,1,2,1:2:0:0:
476,104,50781,2,0,P|395:174|237:176,1,270.000000894069,2|0,0:0|0:0,0:0:0:0:
178,126,51134,5,2,0:0:0:0:
335,227,51310,1,2,1:2:0:0:
20,248,51487,2,0,P|125:168|257:175,1,270.000000894069,2|0,0:0|0:0,0:0:0:0:
352,211,51840,2,0,P|360:246|344:212,1,90.000000298023,2|0,0:0|0:0,0:0:0:0:
510,59,52016,5,2,1:2:0:0:
467,167,52369,5,10,0:0:0:0:
326,132,52546,1,2,0:0:0:0:
240,295,52722,5,2,1:2:0:0:
133,317,52899,1,2,0:0:0:0:
22,190,53075,6,0,B|73:160|98:172|98:172|120:212|185:202,1,161.999995592594,10|0,0:0|0:0,0:0:0:0:
242,183,53428,2,0,P|297:187|343:143,1,107.999997061729,2|0,1:2|0:0,0:0:0:0:
493,31,53781,6,0,B|490:74|478:94|478:94|483:106|483:106|471:132|470:175,1,135.000000447034,10|0,0:0|0:0,0:0:0:0:
419,222,54134,2,0,P|452:269|438:305,1,90.000000298023,2|0,1:2|0:0,0:0:0:0:
73,291,54487,6,0,L|180:281,1,101.250004197657,10|0,0:0|0:0,0:0:0:0:
236,337,54840,2,0,P|263:318|305:313,1,67.500002798438,2|0,1:2|0:0,0:0:0:0:
443,235,55193,6,0,P|480:275|452:349,2,135.000005596876,10|2|14,0:0|1:2|0:0,0:0:0:0:
256,192,55987,12,10,58722,0:0:0:0:
116,57,66663,5,2,0:0:0:0:
273,257,66840,1,2,1:2:0:0:
295,79,67016,1,2,0:0:0:0:
95,236,67192,1,14,0:0:0:0:
198,160,67369,6,0,P|278:118|391:139,1,202.500008395314,2|0,0:0|0:0,0:0:0:0:
448,189,67722,1,2,0:0:0:0:
295,79,67899,1,10,0:0:0:0:
62,187,68075,2,0,P|143:211|199:174,1,135.000005596876,2|0,0:0|1:0,0:0:0:0:
227,112,68428,5,2,0:0:0:0:
205,284,68604,1,10,0:0:0:0:
386,73,68781,1,2,0:0:0:0:
394,349,68957,1,2,1:2:0:0:
355,197,69134,2,0,P|305:193|354:212,1,135.000000447034,2|0,0:0|0:0,0:0:0:0:
464,222,69487,5,2,0:0:0:0:
98,173,69663,1,2,1:2:0:0:
361,197,69840,2,0,P|303:191|360:212,1,168.750000558793,2|0,0:0|0:0,0:0:0:0:
481,230,70193,5,2,0:0:0:0:
80,184,70369,1,2,1:2:0:0:
366,194,70546,2,0,P|297:186|365:209,1,202.500008395314,2|0,0:0|0:0,0:0:0:0:
499,246,70899,5,2,0:0:0:0:
63,192,71075,1,2,1:2:0:0:
374,192,71252,2,0,P|282:178|373:207,1,270.000000894069,2|0,0:0|0:0,0:0:0:0:
327,197,71604,6,0,B|284:192|284:192|274:196|274:196|238:192,1,90.000000298023,2|0,0:0|0:0,0:0:0:0:
74,25,71781,1,2,1:2:0:0:
66,350,72134,5,8,0:0:0:0:
200,333,72310,1,2,0:0:0:0:
291,62,72487,5,2,1:2:0:0:
396,76,72663,1,2,0:0:0:0:
483,268,72840,6,0,B|446:222|392:200|348:224|348:224|366:258|345:289,1,202.500008395314,10|0,0:0|0:0,0:0:0:0:
287,333,73193,2,0,P|213:305|215:230,1,135.000005596876,2|0,1:2|0:0,0:0:0:0:
28,87,73546,6,0,B|82:73|101:102|101:102|125:78|177:83,1,135.000000447034,10|0,0:0|0:0,0:0:0:0:
215,152,73899,2,0,P|261:122|306:121,1,90.000000298023,2|0,1:2|0:0,0:0:0:0:
494,32,74252,6,0,L|486:140,1,101.250004197657,10|0,0:0|0:0,0:0:0:0:
421,182,74604,2,0,P|440:220|435:268,1,67.500002798438,2|0,1:2|0:0,0:0:0:0:
95,327,74957,6,0,B|95:314|95:314|101:316|101:316|95:327,1,26.9999992654323,10|2,0:0|0:0,0:0:0:0:
51,78,75663,6,0,B|134:57|134:57|164:78|164:78|236:85,1,180.000000596046,14|0,0:1|0:0,0:0:0:0:
297,144,75928,1,2,0:1:0:0:
297,144,76016,2,0,L|393:138,1,90.000000298023,0|0,1:0|0:0,0:0:0:0:
485,32,76193,1,2,0:1:0:0:
423,261,76369,6,0,B|468:266|468:266|425:305,1,90.000000298023,10|0,0:1|0:0,0:0:0:0:
434,296,76546,2,0,B|389:291|389:291|432:252,1,90.000000298023
262,301,76722,6,0,B|307:306|307:306|264:345,1,90.000000298023,2|0,1:1|0:0,0:0:0:0:
273,336,76899,2,0,B|228:331|228:331|271:292,1,90.000000298023,2|0,0:1|0:0,0:0:0:0:
132,195,77075,6,0,B|94:169|94:169|77:67|77:67|61:42,1,180.000000596046,14|0,0:1|0:0,0:0:0:0:
183,12,77340,1,2,0:1:0:0:
183,12,77428,2,0,L|174:107,1,90.000000298023,0|0,1:0|0:0,0:0:0:0:
28,246,77604,1,2,0:1:0:0:
291,54,77781,6,0,B|337:46|337:46|365:78,1,90.000000298023,10|0,0:1|0:0,0:0:0:0:
365,78,77957,2,0,B|411:86|411:86|439:54,1,90.000000298023,2|0,0:1|0:0,0:0:0:0:
288,172,78134,6,0,B|334:164|334:164|362:196,1,90.000000298023,2|0,1:1|0:0,0:0:0:0:
362,196,78310,2,0,B|408:204|408:204|436:172,1,90.000000298023,2|0,0:1|0:0,0:0:0:0:
251,331,78487,6,0,B|152:318|152:318|124:297|124:297|79:337,1,180.000000596046,14|0,0:1|0:0,0:0:0:0:
37,218,78752,1,2,0:1:0:0:
37,218,78840,2,0,B|87:214|87:214|100:162,1,90.000000298023,0|0,1:0|0:0,0:0:0:0:
147,7,79016,1,2,0:1:0:0:
487,85,79193,6,0,L|393:77,1,90.000000298023,10|0,0:1|0:0,0:0:0:0:
397,77,79369,2,0,L|303:69,1,90.000000298023
204,113,79546,6,0,L|110:105,1,90.000000298023,2|0,1:1|0:0,0:0:0:0:
114,105,79722,2,0,L|20:97,1,90.000000298023,2|0,0:1|0:0,0:0:0:0:
366,337,79899,6,0,B|422:301|422:301|413:218|413:218|394:253,1,180.000000596046,14|0,0:1|0:0,0:0:0:0:
286,203,80163,1,2,0:1:0:0:
286,203,80252,2,0,B|255:237|255:237|302:253,1,90.000000298023,0|0,1:0|0:0,0:0:0:0:
512,226,80428,1,2,0:1:0:0:
63,332,80604,6,0,L|82:241,1,90.000000298023,10|0,0:1|0:0,0:0:0:0:
81,140,80781,2,0,L|63:52,1,90.000000298023,2|0,0:1|0:0,0:0:0:0:
214,366,80957,6,0,L|216:264,1,90.000000298023,2|0,1:1|0:0,0:0:0:0:
215,107,81134,2,0,L|214:18,1,90.000000298023,2|0,0:1|0:0,0:0:0:0:
360,164,81310,6,0,B|392:164|392:164|413:115|413:115|460:141|460:141|491:195,1,180.000000596046,14|0,0:1|0:0,0:0:0:0:
298,240,81575,1,2,0:1:0:0:
298,240,81663,2,0,L|198:230,1,90.000000298023,0|0,1:0|0:0,0:0:0:0:
35,169,81840,1,2,0:1:0:0:
360,164,82016,6,0,L|456:151,1,90.000000298023,10|0,0:1|0:0,0:0:0:0:
470,336,82193,2,0,L|380:348,1,90.000000298023
412,59,82369,6,0,L|501:71,1,90.000000298023,2|0,1:1|0:0,0:0:0:0:
480,255,82546,2,0,L|390:242,1,90.000000298023,2|0,0:1|0:0,0:0:0:0:
109,29,82722,6,0,B|86:88|86:88|125:131|125:131|116:225,1,180.000000596046,14|0,0:1|0:0,0:0:0:0:
38,346,82987,1,2,0:1:0:0:
38,346,83075,2,0,B|75:315|75:315|114:356,1,90.000000298023,0|0,1:0|0:0,0:0:0:0:
323,246,83252,1,2,0:1:0:0:
153,271,83428,6,0,L|256:280,1,90.000000298023,10|0,0:1|0:0,0:0:0:0:
412,108,83604,2,0,L|309:117,1,90.000000298023,2|0,0:1|0:0,0:0:0:0:
8,24,83781,6,0,L|111:33,1,90.000000298023,2|0,1:1|0:0,0:0:0:0:
504,352,83957,2,0,L|401:361,1,90.000000298023,2|0,0:1|0:0,0:0:0:0:
256,192,84134,5,14,0:1:0:0:
256,192,84399,1,2,0:1:0:0:
256,192,84663,1,2,0:1:0:0:
256,192,84840,5,2,0:1:0:0:
344,176,85016,1,2,0:1:0:0:
424,224,85193,1,2,0:1:0:0:
512,208,85369,1,2,0:1:0:0:
296,64,85546,5,10,0:1:0:0:
296,64,85810,1,2,0:1:0:0:
296,64,86075,1,2,0:1:0:0:
296,64,86252,5,2,0:1:0:0:
148,112,86428,1,2,0:1:0:0:
296,316,86604,1,2,0:1:0:0:
148,268,86781,1,2,0:1:0:0:
387,190,86957,5,14,0:1:0:0:
