osu file format v14

[General]
AudioFilename: audio.mp3
AudioLeadIn: 0
PreviewTime:35737
Countdown: 0
SampleSet: Soft
StackLeniency: 0.5
Mode: 0
LetterboxInBreaks: 0
WidescreenStoryboard: 1

[Editor]
Bookmarks: 1543,2249,7896,13543,19190,24837,30484,36131,47072,47425,55896,61543,67190,75660,79896,84131,86954
DistanceSpacing: 1.2
BeatDivisor: 4
GridSize: 4
TimelineZoom: 2.1

[Metadata]
Title:Kaibutsu (TV Size)
TitleUnicode:怪物 (TV Size)
Artist:YOASOBI
ArtistUnicode:YOASOBI
Creator:Ryuusei Aika
Version:Atrue's Hyper
Source:BEASTARS
Tags:ビースターズ japanese furry anime op2 pop j-pop jpop opening theme 幾田りら Ikuta Rira Lilas Ayase Monster MoeAsuka Atrue SuperBox Fall Marle Calvaria Mariko Sakuragi Reiji Maigo SB hhjkl [Hatsune Miku] [Hatsune_Miku] Hatsune Miku Remapper _lai Kyrian 09kami Ducky- Acyl Acylica Bellicose wafer iWaifu KAMI NO KOTOBA Addy2607 KaedeharaKazuha Airincat Chompy Yooh Reywateil Amateurre Sparhten Ajisai- HabiHolic newton- Yuuma Ogura Yui fedora- UberFazz xidorn Pata-Mon PataMon Deca Wanpachi cycopton Gibune wiken Fuju Stratos Crystal OneShotFox Elcheer Fieryrage hypercyte hypercute Kittyadventure gokugohan12468 Kyouren Zelq ponbot Yuuma3 Mimari i love ganyu Flake yaspo Regraz Mafumafu bongo Moete Senseabel Senseable Kuse KuBsNia_ZhoYL_ wetdog123 eiri-
BeatmapID:2820213
BeatmapSetID:1335792

[Difficulty]
HPDrainRate:5
CircleSize:4
OverallDifficulty:5
ApproachRate:7.5
SliderMultiplier:1.4
SliderTickRate:1

[Events]
//Background and Video events
0,0,"furry.jpg",0,0
Video,-200,"OP.mp4"
//Break Periods
//Storyboard Layer 0 (Background)
//Storyboard Layer 1 (Fail)
//Storyboard Layer 2 (Pass)
//Storyboard Layer 3 (Foreground)
//Storyboard Layer 4 (Overlay)
//Storyboard Sound Samples

[TimingPoints]
-3395,352.941176470588,4,2,1,40,1,0
1546,-133.333333333333,4,2,1,40,0,0
2075,-100,4,2,1,40,0,0
2252,-100,4,2,1,60,0,0
13193,-100,4,2,1,60,0,0
13546,-100,4,2,1,70,0,0
24840,-100,4,2,1,60,0,0
30487,-100,4,2,1,75,0,0
35781,-133.333333333333,4,2,1,60,0,0
36134,-83.3333333333333,4,2,1,80,0,1
42046,-83.3333333333333,4,2,1,5,0,1
42134,-83.3333333333333,4,2,1,80,0,1
42399,-83.3333333333333,4,2,1,5,0,1
42487,-83.3333333333333,4,2,1,80,0,1
43104,-83.3333333333333,4,2,1,5,0,1
43192,-83.3333333333333,4,2,1,80,0,1
43457,-83.3333333333333,4,2,1,5,0,1
43545,-83.3333333333333,4,2,1,80,0,1
43810,-83.3333333333333,4,2,1,5,0,1
43898,-83.3333333333333,4,2,1,80,0,1
44516,-83.3333333333333,4,2,1,5,0,1
44604,-83.3333333333333,4,2,1,80,0,1
44869,-83.3333333333333,4,2,1,5,0,1
44957,-83.3333333333333,4,2,1,80,0,1
45222,-83.3333333333333,4,2,1,5,0,1
45310,-83.3333333333333,4,2,1,80,0,1
47075,-100,4,2,1,80,0,0
47428,-83.3333333333333,4,2,1,80,0,1
55899,-100,4,2,1,80,0,0
67193,-83.3333333333333,4,2,1,80,0,1
75663,-100,4,2,1,80,0,0
84133,-100,4,2,1,70,0,0
86957,-100,4,2,1,90,0,0

[Colours]
Combo1 : 191,96,0
Combo2 : 143,32,255
Combo3 : 191,0,96
Combo4 : 0,80,159

[HitObjects]
71,114,1546,6,2,P|54:194|94:202,1,131.25000500679,2|0,0:0|0:0,0:1:0:0:
101,208,2075,6,0,P|98:247|76:281,1,70,0|10,0:0|0:0,0:0:0:0:
49,350,2428,1,0,0:0:0:0:
132,340,2604,2,0,L|214:330,1,70,10|2,0:0|0:0,0:0:0:0:
269,380,2957,2,0,P|284:348|287:314,1,70,10|0,0:0|0:0,0:0:0:0:
348,256,3310,2,0,P|318:237|284:232,1,70,10|2,0:0|0:0,0:0:0:0:
176,109,3663,6,0,B|181:183|181:183|203:255,1,140,10|8,0:0|0:0,0:0:0:0:
284,232,4193,2,0,P|284:195|301:163,1,70,2|8,0:0|0:0,0:0:0:0:
253,94,4546,2,0,P|285:81|325:87,1,70,2|8,0:0|0:0,0:0:0:0:
512,113,4899,6,0,B|441:130|441:130|366:140,1,140,2|2,0:0|0:0,0:0:0:0:
419,211,5428,2,0,P|410:236|407:288,1,70,8|2,0:0|0:0,0:0:0:0:
488,259,5781,2,0,P|501:222|499:170,1,70,10|2,0:0|0:0,0:0:0:0:
512,113,6134,1,10,0:0:0:0:
512,113,6310,1,2,0:0:0:0:
486,283,6487,6,0,L|394:305,1,70,10|2,0:0|0:0,0:0:0:0:
418,300,7016,2,0,L|326:322,1,70,2|10,0:0|0:0,0:0:0:0:
298,383,7369,1,2,0:0:0:0:
274,303,7546,2,0,L|342:286,1,70,10|2,0:0|0:0,0:0:0:0:
159,209,7899,6,0,P|133:246|132:294,1,70,10|0,0:0|0:0,0:0:0:0:
213,272,8251,2,0,P|250:298|298:299,1,70,10|2,0:0|0:0,0:0:0:0:
280,218,8604,2,0,P|306:181|307:133,1,70,10|2,0:0|0:0,0:0:0:0:
226,155,8956,2,0,P|189:129|141:128,1,70,10|2,0:0|0:0,0:0:0:0:
87,91,9310,6,0,L|8:111,2,70,10|0|10,0:0|0:0|0:0,0:0:0:0:
157,43,9840,1,2,0:0:0:0:
157,43,10193,6,0,L|249:21,1,70,2|8,0:0|0:0,0:0:0:0:
292,76,10546,2,0,L|368:54,1,70,2|8,0:0|0:0,0:0:0:0:
379,50,10810,1,0,0:0:0:0:
399,45,10899,2,0,P|417:89|421:117,1,70,2|10,0:0|0:0,0:0:0:0:
420,110,11428,6,0,P|424:147|413:186,2,70,8|2|10,0:0|0:0|0:0,0:0:0:0:
503,117,11957,5,2,0:0:0:0:
509,33,12134,1,10,0:0:0:0:
425,25,12310,1,2,0:0:0:0:
420,110,12487,1,10,0:0:0:0:
340,136,12663,2,0,B|268:158|268:158|206:205,1,140,2|2,0:0|0:0,0:0:0:0:
50,89,13369,6,0,L|65:170,1,70,0|14,0:0|0:0,0:0:0:0:
146,149,13722,2,0,L|133:226,1,70,0|2,0:0|1:2,0:0:0:0:
216,197,14075,1,2,0:0:0:0:
192,277,14251,2,0,P|145:298|96:292,1,70,10|2,0:0|0:0,0:0:0:0:
72,363,14604,2,0,P|119:384|168:378,1,70,2|2,1:2|0:0,0:0:0:0:
26,291,14957,6,0,B|34:223|34:223|64:154,1,140,10|0,0:0|1:0,0:0:0:0:
63,72,15487,2,0,L|136:56,1,70,2|8,0:0|0:0,0:0:0:0:
171,131,15840,2,0,L|248:112,1,70,2|0,0:0|1:0,0:0:0:0:
404,76,16193,5,2,0:0:0:0:
404,76,16546,1,2,0:0:0:0:
427,156,16722,2,0,L|346:176,1,70,0|2,1:0|0:0,0:0:0:0:
355,256,17075,2,0,P|298:229|287:199,1,70,10|2,0:0|0:0,0:0:0:0:
218,259,17428,2,0,P|211:216|235:169,1,70,2|2,1:2|0:0,0:0:0:0:
275,33,17781,5,10,0:0:0:0:
335,90,17957,2,0,L|410:74,1,70,2|0,0:0|1:0,0:0:0:0:
442,0,18310,1,2,0:0:0:0:
495,65,18487,2,0,L|511:140,1,70,10|2,0:0|0:0,0:0:0:0:
427,156,18840,2,0,L|443:231,1,70,2|2,1:2|0:0,0:0:0:0:
502,283,19193,6,0,P|452:313|406:298,1,105,10|0,0:0|0:0,0:0:0:0:
390,293,19546,2,0,P|340:282|297:311,1,105,2|0,1:2|0:0,0:0:0:0:
284,326,19899,1,10,0:0:0:0:
218,379,20076,1,2,0:0:0:0:
205,296,20251,1,2,1:2:0:0:
41,255,20428,6,0,B|109:272|109:272|167:216,1,140,2|2,0:0|0:0,0:0:0:0:
86,183,20957,1,2,1:2:0:0:
41,255,21134,1,2,0:0:0:0:
41,255,21487,6,0,P|11:225|3:178,1,70,2|2,0:0|1:2,0:0:0:0:
86,183,21840,2,0,B|135:134|135:134|204:152,1,140,2|2,0:0|0:0,0:0:0:0:
284,178,22369,1,2,1:2:0:0:
284,178,22722,6,0,L|374:200,1,70,10|2,0:0|0:0,0:0:0:0:
431,222,23075,1,0,1:0:0:0:
503,180,23251,1,2,0:0:0:0:
478,13,23428,6,0,B|395:-9|395:-9|398:19,1,105,10|0,0:0|0:0,0:0:0:0:
401,29,23781,2,0,L|416:120,1,70,2|0,1:2|0:0,0:0:0:0:
244,84,24134,6,0,B|326:106|326:106|324:78,1,105,10|0,0:0|0:0,0:0:0:0:
321,68,24487,2,0,L|306:-23,1,70,2|0,1:2|0:0,0:0:0:0:
153,61,24840,5,10,0:1:0:0:
31,281,25369,5,10,1:1:0:0:
110,307,25546,1,2,0:0:0:0:
158,238,25722,1,10,0:1:0:0:
249,97,26075,5,10,0:1:0:0:
299,163,26251,1,2,0:0:0:0:
351,229,26428,1,2,0:0:0:0:
431,207,26604,1,2,1:2:0:0:
512,186,26781,1,2,1:2:0:0:
363,106,27134,5,10,0:1:0:0:
283,131,27310,1,2,1:2:0:0:
224,70,27487,1,2,0:0:0:0:
144,96,27663,1,10,0:1:0:0:
159,263,28016,6,0,L|246:233,1,70,2|10,1:2|1:1,0:0:0:0:
290,293,28369,1,2,0:0:0:0:
370,267,28545,1,10,0:1:0:0:
296,116,28899,5,10,0:1:0:0:
212,114,29075,1,2,0:0:0:0:
257,44,29251,1,2,0:0:0:0:
341,46,29428,5,2,1:2:0:0:
173,43,29604,1,2,1:2:0:0:
49,156,29957,5,2,0:0:0:0:
32,238,30134,1,10,0:1:0:0:
111,212,30310,1,2,0:0:0:0:
105,296,30487,6,0,L|198:290,1,70,14|0,0:0|0:0,0:0:0:0:
243,340,30840,2,0,L|330:335,1,70,2|2,1:2|1:2,0:0:0:0:
397,334,31193,1,10,0:0:0:0:
464,383,31369,2,0,P|481:336|458:272,1,105,2|0,0:0|0:0,0:0:0:0:
448,275,31722,6,0,L|377:249,1,70,2|8,0:0|0:0,0:0:0:0:
304,219,32075,1,2,0:0:0:0:
369,167,32251,1,2,1:2:0:0:
449,191,32428,2,0,P|476:152|478:121,1,70,2|8,1:2|0:0,0:0:0:0:
464,47,32781,5,2,0:0:0:0:
399,2,32957,1,2,1:2:0:0:
345,67,33134,1,2,0:0:0:0:
271,26,33310,2,0,B|234:35|234:35|212:54|212:54|155:72,1,105,10|0,0:0|0:0,0:0:0:0:
157,55,33663,2,0,B|120:64|120:64|98:83|98:83|41:101,1,105,2|0,1:2|0:0,0:0:0:0:
41,101,34016,1,10,0:0:0:0:
0,26,34193,2,0,L|71:5,1,70,2|0,0:0|1:0,0:0:0:0:
155,149,34546,5,2,0:0:0:0:
155,149,34899,1,2,0:0:0:0:
75,174,35075,1,10,0:0:0:0:
102,254,35251,1,2,0:0:0:0:
181,227,35428,1,10,0:0:0:0:
181,227,35781,6,0,L|213:317,1,78.7500030040742,2|0,0:1|0:0,0:0:0:0:
219,328,36134,5,14,0:0:0:0:
294,261,36310,2,0,L|324:343,1,83.9999974365235,2|0,0:0|1:0,0:0:0:0:
228,304,36663,1,2,0:0:0:0:
303,237,36839,2,0,L|333:319,1,83.9999974365235,10|0,0:0|0:0,0:0:0:0:
239,281,37193,1,2,1:2:0:0:
313,213,37369,6,0,P|275:186|217:183,1,83.9999974365235,2|8,0:0|0:0,0:0:0:0:
137,178,37722,1,2,0:0:0:0:
174,84,37899,1,2,1:2:0:0:
274,88,38075,1,2,0:0:0:0:
365,129,38251,2,0,L|448:100,1,83.9999974365235,10|0,0:0|0:0,0:0:0:0:
487,10,38604,1,2,1:2:0:0:
274,88,38957,5,10,0:0:0:0:
386,14,39134,2,0,L|377:102,1,83.9999974365235,2|0,0:0|1:0,0:0:0:0:
274,88,39487,1,2,0:0:0:0:
377,97,39664,2,0,L|386:185,1,83.9999974365235,10|0,0:0|0:0,0:0:0:0:
485,173,40016,1,2,1:2:0:0:
385,180,40193,2,0,L|376:268,1,83.9999974365235,2|8,0:0|0:0,0:0:0:0:
275,269,40546,5,2,0:0:0:0:
280,369,40722,1,2,1:2:0:0:
185,333,40899,1,2,0:0:0:0:
87,355,41075,2,0,L|-3:376,2,83.9999974365235,10|2|2,0:0|0:0|1:2,0:0:0:0:
121,260,41604,1,2,0:0:0:0:
42,198,41781,6,0,P|78:164|160:168,1,125.999996154785,10|0,0:0|0:0,0:0:0:0:
174,174,42134,2,0,L|306:155,1,125.999996154785,2|0,1:2|0:0,0:0:0:0:
322,163,42487,2,0,P|349:204|393:221,1,83.9999974365235,10|0,0:0|0:0,0:0:0:0:
395,119,42840,6,0,P|359:85|277:89,1,125.999996154785,2|0,1:2|0:0,0:0:0:0:
263,95,43193,2,0,L|286:225,1,125.999996154785,10|0,0:0|0:0,0:0:0:0:
287,244,43546,2,0,P|260:285|183:301,1,125.999996154785,2|0,1:2|0:0,0:0:0:0:
164,293,43899,2,0,L|76:270,1,83.9999974365235,10|0,0:0|0:0,0:0:0:0:
9,202,44251,6,0,P|58:174|135:188,1,125.999996154785,2|0,1:2|0:0,0:0:0:0:
145,196,44604,2,0,L|121:64,1,125.999996154785,10|0,0:0|0:0,0:0:0:0:
120,46,44957,2,0,P|186:43|239:83,1,125.999996154785,2|0,1:2|0:0,0:0:0:0:
248,96,45310,2,0,L|336:78,1,83.9999974365235,10|0,0:0|0:0,0:0:0:0:
428,55,45663,1,2,1:2:0:0:
477,142,45840,6,0,L|467:243,1,83.9999974365235,2|8,0:0|0:0,0:0:0:0:
450,324,46193,1,2,0:0:0:0:
350,309,46369,1,2,1:2:0:0:
363,208,46546,2,0,P|313:210|271:234,1,83.9999974365235,2|10,0:0|0:0,0:0:0:0:
194,273,46899,2,0,L|136:296,1,41.9999987182618,2|2,1:2|1:2,0:0:0:0:
135,295,47075,2,0,L|92:281,3,35,2|0|2|2,1:2|1:0|1:2|1:2,0:0:0:0:
78,274,47428,6,0,P|62:207|83:173,1,83.9999974365235,14|0,0:0|0:0,0:0:0:0:
156,149,47781,1,0,1:0:0:0:
66,195,47957,6,0,P|50:128|71:94,1,83.9999974365235,2|10,0:0|0:0,0:0:0:0:
144,70,48310,1,2,0:0:0:0:
159,169,48487,1,0,1:0:0:0:
79,108,48663,5,2,0:0:0:0:
162,50,48840,1,10,0:0:0:0:
228,125,49016,1,2,0:0:0:0:
329,124,49193,5,2,1:2:0:0:
423,163,49369,2,0,L|517:137,1,83.9999974365235,2|8,0:0|0:0,0:0:0:0:
404,156,49722,5,2,0:0:0:0:
408,257,49899,1,2,1:2:0:0:
405,357,50075,2,0,L|311:331,1,83.9999974365235,2|8,0:0|0:0,0:0:0:0:
277,244,50428,5,2,0:0:0:0:
177,259,50604,1,2,1:2:0:0:
229,345,50780,2,0,L|136:374,1,83.9999974365235,2|8,0:0|0:0,0:0:0:0:
79,295,51134,5,2,0:0:0:0:
91,195,51310,1,2,1:2:0:0:
161,122,51487,2,0,P|121:100|55:105,1,83.9999974365235,2|8,0:0|0:0,0:0:0:0:
0,156,51840,1,2,0:0:0:0:
91,195,52016,2,0,P|148:224|192:217,1,83.9999974365235,2|0,1:2|0:0,0:0:0:0:
248,163,52369,5,10,0:0:0:0:
248,163,52546,1,2,0:0:0:0:
266,67,52722,1,2,1:2:0:0:
266,67,52899,1,2,0:0:0:0:
340,135,53075,6,0,P|380:158|460:146,1,125.999996154785,10|0,0:0|0:0,0:0:0:0:
481,147,53428,2,0,L|466:254,1,83.9999974365235,2|0,1:2|0:0,0:0:0:0:
401,304,53781,2,0,P|361:281|281:293,1,125.999996154785,10|0,0:0|0:0,0:0:0:0:
260,292,54134,2,0,L|275:185,1,83.9999974365235,2|0,1:2|0:0,0:0:0:0:
177,172,54487,6,0,P|121:179|84:172,1,83.9999974365235,10|0,0:0|0:0,0:0:0:0:
135,82,54840,2,0,P|128:26|135:-11,1,83.9999974365235,2|0,1:2|0:0,0:0:0:0:
225,37,55193,2,0,P|281:30|318:37,1,83.9999974365235,10|0,0:0|0:0,0:0:0:0:
270,128,55546,2,0,P|277:184|270:221,1,83.9999974365235,2|0,1:2|0:0,0:0:0:0:
260,292,55899,5,14,0:0:0:0:
93,316,56604,1,10,0:0:0:0:
77,149,57310,6,0,L|162:133,1,70,10|0,0:0|0:0,0:0:0:0:
184,61,57663,2,0,L|266:47,1,70,2|0,1:2|0:0,0:0:0:0:
310,110,58016,2,0,L|395:94,1,70,10|0,0:0|0:0,0:0:0:0:
417,22,58369,2,0,L|499:8,1,70,2|0,1:2|0:0,0:0:0:0:
481,94,58722,6,0,P|461:125|472:180,1,70,10|0,0:0|0:0,0:0:0:0:
487,237,59075,2,0,L|465:309,1,70,2|0,1:2|0:0,0:0:0:0:
384,286,59428,2,0,L|407:214,1,70,10|0,0:0|0:0,0:0:0:0:
326,190,59781,2,0,P|293:214|251:223,1,70,2|0,1:2|0:0,0:0:0:0:
203,164,60134,6,0,P|181:199|182:250,1,70,10|0,0:0|0:0,0:0:0:0:
164,310,60487,2,0,L|86:297,1,70,2|0,1:2|0:0,0:0:0:0:
23,342,60840,2,0,L|-3:271,1,70,10|0,0:0|0:0,0:0:0:0:
71,232,61193,2,0,L|95:299,1,70,2|0,1:2|0:0,0:0:0:0:
163,346,61546,6,0,L|235:337,1,70,10|0,0:0|0:0,0:0:0:0:
260,257,61899,2,0,L|344:245,1,70,2|0,1:2|0:0,0:0:0:0:
328,163,62251,2,0,L|256:154,1,70,10|0,0:0|0:0,0:0:0:0:
231,74,62604,2,0,L|147:62,1,70,2|0,1:2|0:0,0:0:0:0:
88,22,62957,2,0,P|72:69|132:145,1,140,10|2,0:0|1:2,0:0:0:0:
269,65,63663,6,0,L|249:136,1,70,10|0,0:0|0:0,0:0:0:0:
332,152,64016,2,0,L|354:72,1,70,2|0,1:2|0:0,0:0:0:0:
381,6,64369,6,0,P|424:35|437:67,1,70,10|0,0:0|0:0,0:0:0:0:
433,134,64722,2,0,P|474:131|497:108,1,70,2|0,1:2|0:0,0:0:0:0:
411,215,65075,2,0,P|368:244|355:276,1,70,10|0,0:0|0:0,0:0:0:0:
359,343,65428,2,0,P|318:340|295:317,1,70,2|0,1:2|0:0,0:0:0:0:
215,341,65781,6,0,P|219:277|284:236,1,140,10|0,0:0|1:0,0:0:0:0:
231,166,66310,2,0,L|101:206,1,105,2|0,0:0|0:0,0:0:0:0:
111,206,66663,2,0,L|84:278,2,70,2|2|2,0:0|1:2|0:0,0:0:0:0:
55,121,67193,2,0,L|48:22,1,83.9999974365235,14|2,0:0|0:0,0:0:0:0:
150,40,67546,1,0,1:0:0:0:
240,83,67722,6,0,L|245:-18,1,83.9999974365235,2|10,0:0|0:0,0:0:0:0:
340,31,68075,1,2,0:0:0:0:
355,130,68252,1,0,1:0:0:0:
266,176,68428,5,2,0:0:0:0:
240,83,68605,1,10,0:0:0:0:
161,145,68781,1,2,0:0:0:0:
120,54,68958,5,2,1:2:0:0:
20,57,69134,2,0,L|46:151,1,83.9999974365235,2|8,0:0|0:0,0:0:0:0:
143,130,69487,5,2,0:0:0:0:
239,159,69664,1,2,1:2:0:0:
143,130,69840,2,0,L|169:224,1,83.9999974365235,2|8,0:0|0:0,0:0:0:0:
93,281,70193,5,2,0:0:0:0:
189,310,70370,1,2,1:2:0:0:
93,281,70546,2,0,L|119:375,1,83.9999974365235,2|8,0:0|0:0,0:0:0:0:
214,383,70899,5,2,0:0:0:0:
275,303,71075,1,2,1:2:0:0:
350,370,71252,2,0,P|372:330|367:264,1,83.9999974365235,2|8,0:0|0:0,0:0:0:0:
322,206,71605,1,2,0:0:0:0:
393,135,71781,2,0,P|336:106|292:113,1,83.9999974365235,2|0,1:2|0:0,0:0:0:0:
234,161,72134,5,8,0:0:0:0:
234,161,72311,1,2,0:0:0:0:
177,84,72487,1,2,1:2:0:0:
177,84,72664,1,2,0:0:0:0:
100,149,72840,6,0,P|77:189|89:269,1,125.999996154785,10|0,0:0|0:0,0:0:0:0:
104,284,73193,2,0,L|187:295,1,83.9999974365235,2|0,1:2|0:0,0:0:0:0:
262,228,73546,2,0,P|285:268|273:348,1,125.999996154785,10|0,0:0|0:0,0:0:0:0:
258,363,73899,2,0,L|174:374,1,83.9999974365235,2|0,1:2|0:0,0:0:0:0:
180,273,74252,6,0,P|173:217|190:179,1,83.9999974365235,10|0,0:0|0:0,0:0:0:0:
86,158,74604,2,0,P|142:151|180:168,1,83.9999974365235,2|0,1:2|0:0,0:0:0:0:
200,64,74957,2,0,P|207:120|190:158,1,83.9999974365235,10|0,0:0|0:0,0:0:0:0:
294,179,75309,2,0,P|238:186|200:169,1,83.9999974365235,2|0,0:0|0:0,0:0:0:0:
200,64,75663,6,0,L|294:52,1,70,14|0,0:1|0:0,0:0:0:0:
287,65,75928,2,0,L|375:55,1,70,2|0,0:1|0:0,0:0:0:0:
375,65,76193,1,2,0:1:0:0:
396,145,76369,2,0,L|381:222,1,70,10|0,0:1|0:0,0:0:0:0:
466,204,76722,2,0,L|448:286,1,70,2|2,1:1|0:1,0:0:0:0:
370,297,77075,6,0,L|276:309,1,70,14|0,0:1|0:0,0:0:0:0:
283,296,77340,2,0,L|195:306,1,70,2|0,0:1|0:0,0:0:0:0:
195,296,77605,1,2,0:1:0:0:
174,216,77781,2,0,L|189:139,1,70,10|2,0:1|0:1,0:0:0:0:
125,90,78134,2,0,L|109:158,1,70,2|2,1:1|0:1,0:0:0:0:
30,131,78487,6,0,P|25:168|42:216,1,70,14|0,0:1|0:0,0:0:0:0:
46,215,78751,2,0,P|57:271|48:299,1,70,2|0,0:1|0:0,0:0:0:0:
43,300,79016,1,2,0:1:0:0:
125,318,79193,1,10,0:1:0:0:
204,291,79369,1,0,0:0:0:0:
280,326,79546,1,2,1:1:0:0:
360,302,79722,1,2,0:1:0:0:
436,266,79899,6,0,P|441:229|424:181,1,70,14|0,0:1|0:0,0:0:0:0:
420,182,80163,2,0,P|409:126|418:98,1,70,2|0,0:1|0:0,0:0:0:0:
423,97,80428,1,2,0:1:0:0:
341,79,80605,1,10,0:1:0:0:
262,106,80781,1,2,0:1:0:0:
185,70,80957,2,0,L|93:96,1,70,2|2,1:1|0:1,0:0:0:0:
120,173,81310,6,0,L|192:222,1,70,14|0,0:1|0:0,0:0:0:0:
193,226,81575,2,0,L|237:306,1,70,2|0,0:1|0:0,0:0:0:0:
237,305,81840,1,2,0:1:0:0:
314,336,82016,2,0,L|391:316,2,70,10|0|2,0:1|0:0|1:1,0:0:0:0:
305,251,82546,1,2,0:1:0:0:
266,173,82722,6,0,L|193:222,1,70,14|0,0:1|0:0,0:0:0:0:
193,226,82987,2,0,L|149:306,1,70,2|0,0:1|0:0,0:0:0:0:
149,305,83252,1,2,0:1:0:0:
72,336,83428,2,0,L|-5:316,2,70,10|2|2,0:1|0:1|1:1,0:0:0:0:
81,251,83958,1,2,0:1:0:0:
34,181,84134,5,14,0:1:0:0:
103,75,84399,1,2,0:1:0:0:
222,115,84663,1,2,0:1:0:0:
303,135,84840,2,0,L|397:121,1,70,2|2,0:1|0:1,0:0:0:0:
384,208,85193,2,0,L|474:196,1,70,2|2,0:1|0:1,0:0:0:0:
510,261,85546,5,10,0:1:0:0:
441,367,85811,1,2,0:1:0:0:
322,327,86075,1,2,0:1:0:0:
323,243,86251,5,2,0:1:0:0:
250,285,86428,1,2,0:1:0:0:
177,326,86604,1,2,0:1:0:0:
176,243,86781,1,2,0:1:0:0:
251,368,86957,1,14,0:1:0:0:
