osu file format v14

[General]
AudioFilename: audio.mp3
AudioLeadIn: 0
PreviewTime:35737
Countdown: 0
SampleSet: Soft
StackLeniency: 0.7
Mode: 0
LetterboxInBreaks: 0
WidescreenStoryboard: 1

[Editor]
DistanceSpacing: 0.9
BeatDivisor: 4
GridSize: 32
TimelineZoom: 1

[Metadata]
Title:Kaibutsu (TV Size)
TitleUnicode:怪物 (TV Size)
Artist:YOASOBI
ArtistUnicode:YOASOBI
Creator:Ryuusei Aika
Version:Amateurre's Insane
Source:BEASTARS
Tags:ビースターズ japanese furry anime op2 pop j-pop jpop opening theme 幾田りら Ikuta Rira Lilas Ayase Monster MoeAsuka Atrue SuperBox Fall Marle Calvaria Mariko Sakuragi Reiji Maigo SB hhjkl [Hatsune Miku] [Hatsune_Miku] Hatsune Miku Remapper _lai Kyrian 09kami Ducky- Acyl Acylica Bellicose wafer iWaifu KAMI NO KOTOBA Addy2607 KaedeharaKazuha Airincat Chompy Yooh Reywateil Amateurre Sparhten Ajisai- HabiHolic newton- Yuuma Ogura Yui fedora- UberFazz xidorn Pata-Mon PataMon Deca Wanpachi cycopton Gibune wiken Fuju Stratos Crystal OneShotFox Elcheer Fieryrage hypercyte hypercute Kittyadventure gokugohan12468 Kyouren Zelq ponbot Yuuma3 Mimari i love ganyu Flake yaspo Regraz Mafumafu bongo Moete Senseabel Senseable Kuse KuBsNia_ZhoYL_ wetdog123 eiri-
BeatmapID:2820212
BeatmapSetID:1335792

[Difficulty]
HPDrainRate:4.5
CircleSize:4
OverallDifficulty:8
ApproachRate:8.8
SliderMultiplier:1.8
SliderTickRate:1

[Events]
//Background and Video events
0,0,"furry.jpg",0,0
Video,-200,"OP.mp4"
//Break Periods
//Storyboard Layer 0 (Background)
//Storyboard Layer 1 (Fail)
//Storyboard Layer 2 (Pass)
//Storyboard Layer 3 (Foreground)
//Storyboard Layer 4 (Overlay)
//Storyboard Sound Samples

[TimingPoints]
-3395,352.941176470588,4,2,0,70,1,0
1546,-100,4,2,1,40,0,0
2252,-125,4,2,1,60,0,0
13546,-125,4,2,1,70,0,0
24840,-125,4,2,1,60,0,0
30487,-125,4,2,1,75,0,0
35781,-125,4,2,1,60,0,0
36046,-125,4,2,1,5,0,0
36134,-100,4,2,1,80,0,0
55899,-111.111111111111,4,2,1,80,0,0
84134,-142.857142857143,4,2,1,70,0,0
86957,-142.857142857143,4,2,1,90,0,0

[Colours]
Combo1 : 237,45,151
Combo2 : 142,97,255
Combo3 : 255,110,82
Combo4 : 0,0,223

[HitObjects]
23,333,2252,6,0,P|50:310|84:303,1,72,10|0,0:0|0:0,0:0:0:0:
146,237,2604,2,0,P|180:244|207:267,1,72,10|2,0:0|0:0,0:0:0:0:
378,344,2957,5,10,0:0:0:0:
249,381,3134,1,0,0:0:0:0:
291,218,3310,2,0,L|306:316,1,72,10|2,0:0|0:0,0:0:0:0:
454,302,3663,6,0,L|465:374,2,72,10|0|8,0:0|0:0|0:0,0:0:0:0:
291,218,4193,2,0,P|333:235|381:226,1,72,2|8,0:0|0:0,0:0:0:0:
472,147,4546,2,0,P|436:147|403:162,1,72,2|8,0:0|0:0,0:0:0:0:
223,276,4899,6,0,B|143:282|184:213|61:226,1,144,2|2,0:0|0:0,0:0:0:0:
20,312,5428,2,0,L|116:299,1,72,8|2,0:0|0:0,0:0:0:0:
223,276,5781,2,0,L|216:368,1,72,10|2,0:0|0:0,0:0:0:0:
94,224,6134,2,0,L|86:127,1,72,10|2,0:0|0:0,0:0:0:0:
20,92,6487,5,10,0:0:0:0:
163,129,6663,2,0,L|239:113,1,72,2|8,0:0|0:0,0:0:0:0:
402,34,7016,2,0,L|398:115,2,72,2|10|2,0:0|0:0|0:0,0:0:0:0:
315,221,7546,2,0,B|303:182|303:182|326:137,1,72,10|2,0:0|0:0,0:0:0:0:
473,203,7899,6,0,L|373:184,1,72,10|0,0:0|0:0,0:0:0:0:
335,310,8252,2,0,L|235:291,1,72,10|2,0:0|0:0,0:0:0:0:
100,166,8604,2,0,P|66:196|78:244,1,72,10|2,0:0|0:0,0:0:0:0:
241,211,8957,2,0,P|234:176|205:156,1,72,10|2,0:0|0:0,0:0:0:0:
48,310,9310,5,10,0:0:0:0:
182,368,9487,1,0,0:0:0:0:
162,228,9663,1,10,0:0:0:0:
48,310,9840,6,0,L|140:304,1,72,2|8,0:0|0:0,0:0:0:0:
241,211,10193,2,0,L|333:229,1,72,2|8,0:0|0:0,0:0:0:0:
471,271,10546,6,0,L|461:181,2,72,2|8|2,0:0|0:0|0:0,0:0:0:0:
367,160,11075,1,10,0:0:0:0:
444,108,11252,2,0,L|538:137,1,72,0|8,0:0|0:0,0:0:0:0:
353,171,11604,2,0,L|279:152,1,72,2|10,0:0|0:0,0:0:0:0:
144,177,11957,5,2,0:0:0:0:
144,177,12046,1,0,0:0:0:0:
144,177,12134,2,0,L|141:103,2,72,10|2|10,0:0|0:0|0:0,0:0:0:0:
218,226,12663,6,0,B|256:224|256:224|216:200,1,72,2|8,0:0|0:0,0:0:0:0:
86,236,13016,2,0,B|52:254|52:254|98:257,1,72,2|2,0:0|0:3,0:0:0:0:
218,315,13369,5,0,0:0:0:0:
218,315,13457,1,0,0:0:0:0:
218,315,13546,2,0,L|300:302,1,72,10|0,0:0|0:0,0:0:0:0:
446,212,13899,2,0,L|346:196,1,72,2|2,1:2|0:0,0:0:0:0:
381,363,14252,2,0,B|395:328|395:328|378:277,1,72,10|2,0:0|0:0,0:0:0:0:
263,201,14604,2,0,L|276:100,1,72,2|2,1:2|0:0,0:0:0:0:
466,19,14957,5,10,0:0:0:0:
498,165,15134,1,0,0:0:0:0:
357,123,15310,1,0,1:0:0:0:
466,19,15487,2,0,L|442:98,1,72,2|8,0:0|0:0,0:0:0:0:
377,191,15840,2,0,L|353:112,1,72,2|0,0:0|1:0,0:0:0:0:
192,31,16193,6,0,B|105:29|145:89|55:92,1,144,2|2,0:0|0:0,0:0:0:0:
184,173,16722,2,0,B|199:135|199:135|182:100,1,72,0|2,1:0|0:0,0:0:0:0:
1,59,17075,2,0,B|-14:97|-14:97|3:132,1,72,10|2,0:0|0:0,0:0:0:0:
146,253,17428,1,2,1:2:0:0:
82,174,17604,1,2,0:0:0:0:
18,285,17781,5,10,0:0:0:0:
164,250,17957,2,0,L|241:272,1,72,2|0,0:0|1:0,0:0:0:0:
427,222,18310,1,2,0:0:0:0:
293,185,18487,1,10,0:0:0:0:
356,337,18663,2,0,L|350:251,1,72,2|2,0:0|1:2,0:0:0:0:
415,129,19016,1,2,0:0:0:0:
510,259,19193,6,0,L|431:237,1,72,10|0,0:0|0:0,0:0:0:0:
348,351,19546,2,0,L|269:373,1,72,2|0,1:2|0:0,0:0:0:0:
132,230,19899,1,10,0:0:0:0:
248,286,20075,1,2,0:0:0:0:
140,366,20252,1,2,1:2:0:0:
132,230,20428,6,0,P|183:285|275:271,1,144,2|2,0:0|0:0,0:0:0:0:
407,212,20957,1,2,1:2:0:0:
300,139,21134,2,0,L|318:228,1,72,2|8,0:0|0:0,0:0:0:0:
452,340,21487,2,0,L|470:251,1,72,2|2,0:0|1:2,0:0:0:0:
319,293,21840,6,0,L|222:283,1,72,2|8,0:0|0:0,0:0:0:0:
161,220,22193,1,2,0:0:0:0:
89,298,22369,1,2,1:2:0:0:
173,363,22546,2,0,L|161:220,1,144,0|2,0:0|0:0,0:0:0:0:
132,107,23075,1,0,1:0:0:0:
47,187,23252,5,2,0:0:0:0:
161,220,23428,2,0,L|245:201,1,72,10|0,0:0|0:0,0:0:0:0:
336,134,23781,2,0,L|252:115,1,72,2|0,1:2|0:0,0:0:0:0:
151,232,24134,5,10,0:0:0:0:
352,126,24487,1,2,1:2:0:0:
383,343,24840,5,10,0:1:0:0:
505,280,25193,1,2,1:2:0:0:
510,296,25369,1,10,1:1:0:0:
461,167,25722,1,10,0:1:0:0:
337,206,26075,1,10,0:1:0:0:
178,316,26604,5,2,1:2:0:0:
173,332,26780,1,2,1:2:0:0:
28,247,27134,1,10,0:1:0:0:
33,263,27310,1,2,1:2:0:0:
164,179,27663,5,10,0:1:0:0:
118,42,28016,1,2,1:2:0:0:
113,58,28192,1,10,1:1:0:0:
243,8,28546,1,10,0:1:0:0:
290,140,28899,1,10,0:1:0:0:
438,52,29428,5,2,1:2:0:0:
443,68,29604,1,2,1:2:0:0:
389,124,29781,1,10,0:1:0:0:
512,19,30134,1,10,0:1:0:0:
508,167,30310,5,2,0:0:0:0:
508,167,30399,1,2,0:0:0:0:
508,167,30487,2,0,P|476:127|368:139,1,144,14|2,0:0|1:2,0:0:0:0:
223,179,31016,1,2,1:2:0:0:
341,59,31193,1,10,0:0:0:0:
312,218,31369,2,0,L|299:121,1,72,2|0,0:0|1:0,0:0:0:0:
180,35,31722,5,2,0:0:0:0:
180,35,31810,1,2,0:0:0:0:
180,35,31899,2,0,L|170:106,1,72,8|2,0:0|0:0,0:0:0:0:
35,183,32252,1,2,1:2:0:0:
150,315,32428,2,0,P|166:257|117:186,1,144,2|2,1:2|0:0,0:0:0:0:
12,282,32957,2,0,L|92:262,1,72,2|2,1:2|0:0,0:0:0:0:
238,324,33310,6,0,B|319:315|298:378|385:362,1,144,10|2,0:0|1:2,0:0:0:0:
486,274,33840,1,0,1:0:0:0:
347,218,34016,1,10,0:0:0:0:
371,363,34193,2,0,P|395:324|394:282,1,72,2|0,0:0|1:0,0:0:0:0:
274,160,34546,1,2,0:0:0:0:
225,221,34722,5,8,0:0:0:0:
225,221,35075,5,10,0:0:0:0:
225,221,35428,5,10,0:0:0:0:
225,221,35781,6,0,B|181:186|181:186|103:203,1,108,2|0,0:1|0:0,0:0:0:0:
130,197,36134,5,14,0:0:0:0:
273,54,36310,2,0,L|262:148,1,90,2|0,0:0|1:0,0:0:0:0:
321,289,36663,1,2,0:0:0:0:
460,219,36840,2,0,B|417:193|417:193|345:206,1,90,10|0,0:0|0:0,0:0:0:0:
223,304,37193,1,2,1:2:0:0:
129,196,37369,5,2,0:0:0:0:
129,196,37457,1,2,0:0:0:0:
129,196,37546,2,0,L|140:107,1,90,8|2,0:0|0:0,0:0:0:0:
220,10,37899,1,2,1:2:0:0:
52,69,38075,1,2,0:0:0:0:
214,157,38252,2,0,L|314:141,1,90,10|0,0:0|0:0,0:0:0:0:
470,55,38604,2,0,P|397:27|362:44,1,90,2|0,1:2|0:0,0:0:0:0:
215,158,38957,5,10,0:0:0:0:
405,111,39134,2,0,L|390:210,1,90,2|0,0:0|1:0,0:0:0:0:
420,353,39487,1,2,0:0:0:0:
240,292,39663,2,0,L|358:279,1,90,10|0,0:0|0:0,0:0:0:0:
509,379,40016,5,2,1:2:0:0:
480,211,40193,2,0,L|391:200,1,90,2|8,0:0|0:0,0:0:0:0:
208,120,40546,1,2,0:0:0:0:
312,17,40722,2,0,P|328:58|299:118,1,90,2|2,1:2|0:0,0:0:0:0:
137,165,41075,2,0,P|164:130|230:125,1,90,10|2,0:0|0:0,0:0:0:0:
353,243,41428,2,0,P|309:236|272:181,1,90,2|2,1:2|0:0,0:0:0:0:
99,71,41781,6,0,L|109:254,2,180,10|2|10,0:0|1:2|0:0,0:0:0:0:
108,250,42663,1,0,0:0:0:0:
277,203,42840,2,0,L|187:189,1,90,2|0,1:2|0:0,0:0:0:0:
48,350,43193,6,0,P|88:294|197:318,1,180,10|2,0:0|1:2,0:0:0:0:
314,213,43722,1,0,0:0:0:0:
182,99,43899,2,0,L|191:221,1,90,10|0,0:0|0:0,0:0:0:0:
307,302,44252,2,0,L|316:180,1,90,2|0,1:2|0:0,0:0:0:0:
380,50,44604,6,0,P|440:83|403:199,2,180,10|2|10,0:0|1:2|0:0,0:0:0:0:
313,212,45487,1,0,0:0:0:0:
276,114,45663,1,2,1:2:0:0:
276,114,45752,1,2,0:0:0:0:
276,114,45840,2,0,L|382:134,1,90,2|8,0:0|0:0,0:0:0:0:
512,275,46193,5,2,0:0:0:0:
344,344,46369,1,2,1:2:0:0:
429,182,46546,2,0,L|420:295,1,90,2|10,0:0|0:0,0:0:0:0:
276,212,46899,1,2,1:2:0:0:
184,340,47075,1,10,1:2:0:0:
346,270,47252,2,0,L|349:225,1,45,8|8,1:2|1:2,0:0:0:0:
330,150,47428,6,0,P|243:133|197:229,1,180,14|0,0:0|1:0,0:0:0:0:
46,145,47957,1,2,0:0:0:0:
194,198,48134,1,10,0:0:0:0:
94,314,48310,2,0,L|111:206,1,90,2|0,0:0|1:0,0:0:0:0:
65,61,48663,5,2,0:0:0:0:
46,145,48840,1,10,0:0:0:0:
160,103,49016,5,2,0:0:0:0:
179,19,49193,1,2,1:2:0:0:
224,203,49369,6,0,L|332:192,1,90,2|8,0:0|0:0,0:0:0:0:
512,122,49722,1,2,0:0:0:0:
336,84,49899,1,2,1:2:0:0:
386,259,50075,2,0,P|411:211|398:159,1,90,2|8,0:0|0:0,0:0:0:0:
392,28,50428,5,2,0:0:0:0:
313,193,50604,1,2,1:2:0:0:
512,122,50781,2,0,P|464:97|412:110,1,90,2|8,0:0|0:0,0:0:0:0:
220,211,51134,5,2,0:0:0:0:
327,106,51310,1,2,1:2:0:0:
386,259,51487,2,0,L|484:252,1,90,2|8,0:0|0:0,0:0:0:0:
313,193,51840,1,2,0:0:0:0:
236,301,52016,2,0,L|144:282,1,90,2|0,1:2|0:0,0:0:0:0:
15,113,52369,5,10,0:0:0:0:
191,185,52546,1,2,0:0:0:0:
42,233,52722,1,2,1:2:0:0:
168,75,52899,1,2,0:0:0:0:
252,122,53075,6,0,B|347:105|326:193|428:172,2,180,10|2|10,0:0|1:2|0:0,0:0:0:0:
408,89,53957,1,0,0:0:0:0:
333,265,54134,2,0,L|323:159,1,90,2|0,1:2|0:0,0:0:0:0:
168,75,54487,6,0,B|110:83|110:83|86:125|86:125|-5:138,1,180,10|2,0:0|1:2,0:0:0:0:
182,164,55016,1,0,0:0:0:0:
66,292,55193,2,0,L|82:196,1,90,10|0,0:0|0:0,0:0:0:0:
168,75,55546,2,0,L|182:163,1,90,2|0,1:2|0:0,0:0:0:0:
321,260,55899,6,0,B|415:251|379:316|484:305,1,161.999995056153,14|0,0:0|1:0,0:0:0:0:
325,170,56428,1,0,0:0:0:0:
434,89,56604,2,0,L|408:268,1,161.999995056153,10|2,0:0|1:2,0:0:0:0:
289,349,57134,5,0,0:0:0:0:
488,271,57310,2,0,P|456:261|396:246,1,80.9999975280763,10|0,0:0|0:0,0:0:0:0:
289,349,57663,2,0,P|328:339|366:327,1,80.9999975280763,2|0,1:2|0:0,0:0:0:0:
451,183,58016,2,0,P|419:173|359:158,1,80.9999975280763,10|0,0:0|0:0,0:0:0:0:
252,261,58369,2,0,P|291:251|329:239,1,80.9999975280763,2|0,1:2|0:0,0:0:0:0:
427,88,58722,5,10,0:0:0:0:
427,88,59075,2,0,P|380:54|288:106,2,161.999995056153,2|10|2,1:2|0:0|1:2,0:0:0:0:
293,93,59957,1,0,0:0:0:0:
206,55,60134,5,10,0:0:0:0:
206,55,60487,2,0,P|142:65|128:90,1,80.9999975280763,2|0,1:2|0:0,0:0:0:0:
56,170,60840,2,0,L|44:74,1,80.9999975280763,10|0,0:0|0:0,0:0:0:0:
189,136,61193,2,0,L|199:216,1,80.9999975280763,2|0,1:2|0:0,0:0:0:0:
100,376,61546,6,0,P|40:316|89:236,2,161.999995056153,10|2|10,0:0|1:2|0:0,0:0:0:0:
264,274,62428,1,0,0:0:0:0:
200,317,62604,2,0,L|119:301,1,80.9999975280763,2|0,1:2|0:0,0:0:0:0:
331,224,62957,6,0,B|424:217|386:276|486:278,1,161.999995056153,10|2,0:0|1:2,0:0:0:0:
478,277,63487,1,2,0:0:0:0:
420,125,63663,2,0,L|426:226,1,80.9999975280763,10|0,0:0|0:0,0:0:0:0:
340,298,64016,2,0,P|322:256|335:217,1,80.9999975280763,2|0,1:2|0:0,0:0:0:0:
494,80,64369,6,0,B|435:82|435:82|413:110|413:110|331:114,2,161.999995056153,10|2|10,0:0|1:2|0:0,0:0:0:0:
357,36,65252,1,0,0:0:0:0:
480,159,65428,2,0,L|495:72,1,80.9999975280763,2|0,1:2|0:0,0:0:0:0:
280,62,65781,6,0,L|94:80,1,161.999995056153,10|0,0:0|1:0,0:0:0:0:
20,109,66310,2,0,L|31:28,1,80.9999975280763,2|8,0:0|0:0,0:0:0:0:
196,102,66663,5,2,0:0:0:0:
209,180,66840,1,2,1:2:0:0:
142,234,67016,5,2,0:0:0:0:
273,128,67193,1,14,0:0:0:0:
301,288,67369,2,0,L|208:263,1,80.9999975280763,2|0,0:0|1:0,0:0:0:0:
0,206,67722,5,2,0:0:0:0:
131,312,67899,1,10,0:0:0:0:
164,139,68075,2,0,L|71:164,1,80.9999975280763,2|0,0:0|1:0,0:0:0:0:
49,352,68428,5,2,0:0:0:0:
222,266,68604,1,10,0:0:0:0:
189,384,68781,1,2,0:0:0:0:
79,234,68957,1,2,1:2:0:0:
222,266,69134,2,0,L|306:253,1,80.9999975280763,2|8,0:0|0:0,0:0:0:0:
504,270,69487,5,2,0:0:0:0:
378,361,69663,1,2,1:2:0:0:
388,191,69840,2,0,P|415:236|402:292,1,80.9999975280763,2|8,0:0|0:0,0:0:0:0:
192,358,70193,5,2,0:0:0:0:
246,171,70369,1,2,1:2:0:0:
337,285,70546,2,0,L|252:269,1,80.9999975280763,2|8,0:0|0:0,0:0:0:0:
39,208,70899,5,2,0:0:0:0:
162,142,71075,1,2,1:2:0:0:
131,302,71252,2,0,L|118:203,1,80.9999975280763,2|8,0:0|0:0,0:0:0:0:
160,22,71604,1,2,0:0:0:0:
5,124,71781,2,0,L|96:102,1,80.9999975280763,2|0,1:2|0:0,0:0:0:0:
325,35,72134,5,8,0:0:0:0:
222,152,72310,1,2,0:0:0:0:
340,145,72487,1,2,1:2:0:0:
212,39,72663,1,2,0:0:0:0:
400,82,72840,6,0,L|383:257,2,161.999995056153,10|2|10,0:0|1:2|0:0,0:0:0:0:
302,241,73722,1,0,0:0:0:0:
433,313,73899,2,0,L|521:295,1,80.9999975280763,2|0,1:2|0:0,0:0:0:0:
297,227,74252,2,0,L|217:210,1,80.9999975280763,10|0,0:0|0:0,0:0:0:0:
57,279,74604,2,0,L|44:192,1,80.9999975280763,2|0,1:2|0:0,0:0:0:0:
153,76,74957,2,0,L|136:186,1,80.9999975280763,10|0,0:0|0:0,0:0:0:0:
202,298,75310,1,2,0:0:0:0:
202,298,75663,6,0,P|258:259|324:283,2,121.499996292114,14|2|2,0:1|0:1|0:1,0:0:0:0:
373,381,76369,2,0,L|384:283,1,80.9999975280763,10|0,0:1|0:0,0:0:0:0:
245,228,76722,2,0,L|256:130,1,80.9999975280763,2|2,1:1|0:1,0:0:0:0:
368,37,77075,6,0,L|351:185,2,121.499996292114,14|2|2,0:1|0:1|0:1,0:0:0:0:
512,191,77781,1,10,0:1:0:0:
351,233,77957,1,2,0:1:0:0:
445,85,78134,2,0,L|433:187,1,80.9999975280763,2|2,1:1|0:1,0:0:0:0:
506,331,78487,6,0,P|450:292|384:316,2,121.499996292114,14|2|2,0:1|0:1|0:1,0:0:0:0:
347,363,79193,2,0,L|256:348,1,80.9999975280763,10|0,0:1|0:0,0:0:0:0:
185,246,79546,2,0,L|264:232,1,80.9999975280763,2|2,1:1|0:1,0:0:0:0:
111,360,79899,6,0,L|91:222,2,121.499996292114,14|2|2,0:1|0:1|0:1,0:0:0:0:
161,192,80604,1,10,0:1:0:0:
19,291,80781,1,2,0:1:0:0:
188,370,80957,2,0,L|203:270,1,80.9999975280763,2|2,1:1|0:1,0:0:0:0:
278,131,81310,6,0,P|343:111|368:135,1,80.9999975280763,14|0,0:1|0:0,0:0:0:0:
371,136,81575,1,2,0:1:0:0:
371,136,81663,2,0,L|456:128,1,80.9999975280763,0|2,1:0|0:1,0:0:0:0:
300,279,82016,2,0,L|319:191,1,80.9999975280763,10|0,0:1|0:0,0:0:0:0:
451,128,82369,2,0,L|433:207,1,80.9999975280763,2|2,1:1|0:1,0:0:0:0:
208,209,82722,6,0,B|162:218|162:218|142:241|142:241|67:252,2,121.499996292114,14|2|2,0:1|0:1|0:1,0:0:0:0:
318,107,83428,1,10,0:1:0:0:
173,44,83604,1,2,0:1:0:0:
208,209,83781,2,0,L|227:113,1,80.9999975280763,2|2,1:1|0:1,0:0:0:0:
362,37,84134,5,14,0:1:0:0:
436,28,84399,1,2,0:1:0:0:
510,19,84663,1,2,0:1:0:0:
482,97,84840,6,0,L|471:165,1,62.9999980773926,2|2,0:1|0:1,0:0:0:0:
389,233,85193,2,0,L|378:170,1,62.9999980773926,2|2,0:1|0:1,0:0:0:0:
262,133,85546,5,10,0:1:0:0:
188,124,85811,1,2,0:1:0:0:
114,115,86075,1,2,0:1:0:0:
156,48,86252,6,0,L|175:-21,1,62.9999980773926,2|2,0:1|0:1,0:0:0:0:
32,116,86604,2,0,L|51:185,1,62.9999980773926,2|2,0:1|0:1,0:0:0:0:
188,124,86957,1,14,0:1:0:0:
