osu file format v14

[General]
AudioFilename: audio.mp3
AudioLeadIn: 0
PreviewTime:35737
Countdown: 0
SampleSet: None
StackLeniency: 1
Mode: 0
LetterboxInBreaks: 0
WidescreenStoryboard: 1

[Editor]
DistanceSpacing: 0.9
BeatDivisor: 4
GridSize: 4
TimelineZoom: 2.5

[Metadata]
Title:Kaibutsu (TV Size)
TitleUnicode:怪物 (TV Size)
Artist:YOASOBI
ArtistUnicode:YOASOBI
Creator:Ryuusei Aika
Version:Airin's Insane
Source:BEASTARS
Tags:ビースターズ japanese furry anime op2 pop j-pop jpop opening theme 幾田りら Ikuta Rira Lilas Ayase Monster MoeAsuka Atrue SuperBox Fall Marle Calvaria Mariko Sakuragi Reiji Maigo SB hhjkl [Hatsune Miku] [Hatsune_Miku] Hatsune Miku Remapper _lai Kyrian 09kami Ducky- Acyl Acylica Bellicose wafer iWaifu KAMI NO KOTOBA Addy2607 KaedeharaKazuha Airincat Chompy Yooh Reywateil Amateurre Sparhten Ajisai- HabiHolic newton- Yuuma Ogura Yui fedora- UberFazz xidorn Pata-Mon PataMon Deca Wanpachi cycopton Gibune wiken Fuju Stratos Crystal OneShotFox Elcheer Fieryrage hypercyte hypercute Kittyadventure gokugohan12468 Kyouren Zelq ponbot Yuuma3 Mimari i love ganyu Flake yaspo Regraz Mafumafu bongo Moete Senseabel Senseable Kuse KuBsNia_ZhoYL_ wetdog123 eiri-
BeatmapID:2820210
BeatmapSetID:1335792

[Difficulty]
HPDrainRate:5
CircleSize:4
OverallDifficulty:7.6
ApproachRate:9
SliderMultiplier:1.70000000596046
SliderTickRate:1

[Events]
//Background and Video events
0,0,"furry.jpg",0,0
Video,-200,"OP.mp4"
//Break Periods
//Storyboard Layer 0 (Background)
//Storyboard Layer 1 (Fail)
//Storyboard Layer 2 (Pass)
//Storyboard Layer 3 (Foreground)
//Storyboard Layer 4 (Overlay)
//Storyboard Sound Samples

[TimingPoints]
-3395,352.941176470588,4,2,0,5,1,0
1543,-100,4,2,1,40,0,0
1546,-222.222222222222,4,2,1,40,0,0
2249,-133.333333333333,4,2,1,60,0,0
13543,-100,4,2,1,70,0,0
13546,-99.9999999999999,4,2,1,70,0,0
24837,-111.111111111111,4,2,1,60,0,0
24840,-142.857142857143,4,2,1,60,0,0
29604,-142.857142857142,4,2,1,60,0,0
30484,-111.111111111111,4,2,1,75,0,0
30487,-111.111111111111,4,2,1,75,0,0
35428,-200,4,2,1,75,0,0
35516,-200,4,2,1,75,0,0
35778,-200,4,2,1,60,0,0
35781,-142.857142857143,4,2,1,60,0,0
36131,-142.857142857143,4,2,1,80,0,0
36134,-90.9090909090909,4,2,1,80,0,1
36222,-90.9090909090909,4,2,1,80,0,0
42840,-86.9565217391304,4,2,1,80,0,0
43193,-90.9090909090909,4,2,1,80,0,0
47428,-90.9090909090909,4,2,1,80,0,1
49193,-90.9090909090909,4,2,1,80,0,0
53075,-90.9090909090909,4,2,1,80,0,0
54134,-90.9090909090909,4,2,1,80,0,0
55899,-90.9090909090909,4,2,1,80,0,1
56428,-100,4,2,1,80,0,0
61546,-142.857142857143,4,2,1,80,0,0
61899,-100,4,2,1,80,0,0
62252,-83.3333333333333,4,2,1,80,0,0
62604,-71.4285714285714,4,2,1,80,0,0
62957,-100,4,2,1,80,0,0
74252,-86.9565217391304,4,2,1,80,0,0
74604,-80,4,2,1,80,0,0
74957,-74.0740740740741,4,2,1,80,0,0
75310,-303.030303030303,4,2,1,80,0,0
75663,-90.9090909090909,4,2,1,80,0,1
76193,-90.9090909090909,4,2,1,80,0,1
76369,-90.9090909090909,4,2,1,80,0,1
77075,-90.9090909090909,4,2,1,80,0,1
77781,-90.9090909090909,4,2,1,80,0,1
78487,-90.9090909090909,4,2,1,80,0,1
79193,-90.9090909090909,4,2,1,80,0,1
79899,-90.9090909090909,4,2,1,80,0,1
80605,-90.9090909090909,4,2,1,80,0,1
80781,-90.9090909090909,4,2,1,80,0,1
80957,-90.9090909090909,4,2,1,80,0,1
81134,-90.9090909090909,4,2,1,80,0,1
81310,-90.9090909090909,4,2,1,80,0,1
81575,-90.9090909090909,4,2,1,80,0,1
82016,-90.9090909090909,4,2,1,80,0,1
82722,-90.9090909090909,4,2,1,80,0,1
83428,-90.9090909090909,4,2,1,80,0,1
84130,-90.9090909090909,4,2,1,70,0,1
84134,-166.666666666667,4,2,1,70,0,0
86954,-166.666666666667,4,2,1,90,0,0
86957,-50,4,2,1,90,0,0

[Colours]
Combo1 : 191,96,0
Combo2 : 143,32,255
Combo3 : 191,0,96
Combo4 : 0,80,159

[HitObjects]
53,271,1546,6,2,B|90:284|90:284|107:325|79:355,1,114.749996900439,2|0,0:0|0:0,0:1:0:0:
53,256,2252,6,0,L|125:275,1,63.7500026553869,10|0,0:0|0:0,0:0:0:0:
206,230,2604,2,0,P|217:196|227:169,1,63.7500026553869,10|2,0:0|0:0,0:0:0:0:
160,95,2957,1,10,0:0:0:0:
154,101,3134,1,0,0:0:0:0:
237,40,3310,2,0,P|267:49|314:59,1,63.7500026553869,10|2,0:0|0:0,0:0:0:0:
453,57,3663,6,0,P|390:70|378:129,1,127.500005310774,10|8,0:0|0:0,0:0:0:0:
481,212,4193,2,0,P|490:173|497:147,1,63.7500026553869,2|8,0:0|0:0,0:0:0:0:
379,278,4546,2,0,P|369:239|361:212,1,63.7500026553869,2|8,0:0|0:0,0:0:0:0:
498,323,4899,1,2,0:0:0:0:
498,323,5252,5,2,0:0:0:0:
405,370,5428,2,0,L|330:358,1,63.7500026553869,8|2,0:0|0:0,0:0:0:0:
246,306,5781,1,10,0:0:0:0:
248,298,5957,1,2,0:0:0:0:
170,372,6134,2,0,P|148:349|146:318,1,63.7500026553869,10|2,0:0|0:0,0:0:0:0:
171,211,6487,5,10,0:0:0:0:
23,228,6663,2,0,P|55:234|85:241,1,63.7500026553869,2|8,0:0|0:0,0:0:0:0:
112,150,7016,2,0,P|82:145|48:137,1,63.7500026553869,2|10,0:0|0:0,0:0:0:0:
49,137,7369,1,2,0:0:0:0:
182,96,7546,2,0,P|188:64|196:34,1,63.7500026553869,10|2,0:0|0:0,0:0:0:0:
270,172,7899,5,10,0:0:0:0:
269,180,8075,1,0,0:0:0:0:
358,215,8252,2,0,P|388:207|419:199,1,63.7500026553869,10|2,0:0|0:0,0:0:0:0:
496,272,8604,1,10,0:0:0:0:
438,360,8781,1,2,0:0:0:0:
344,316,8957,1,10,0:0:0:0:
352,308,9134,1,2,0:0:0:0:
232,360,9310,6,0,P|203:352|170:345,1,63.7500026553869,10|0,0:0|0:0,0:0:0:0:
97,271,9663,1,10,0:0:0:0:
194,218,9840,1,2,0:0:0:0:
193,218,10193,2,0,P|206:189|199:158,1,63.7500026553869,2|8,0:0|0:0,0:0:0:0:
89,84,10546,6,0,L|28:104,1,63.7500026553869,2|8,0:0|0:0,0:0:0:0:
150,14,10899,1,2,0:0:0:0:
221,74,11075,2,0,B|261:86|261:86|283:125|283:125|323:136,1,127.500005310774,10|8,0:0|0:0,0:0:0:0:
416,34,11604,1,2,0:0:0:0:
416,34,11693,1,2,0:0:0:0:
416,34,11781,2,0,L|345:50,1,63.7500026553869,10|2,0:0|0:0,0:0:0:0:
497,138,12134,5,10,0:0:0:0:
497,138,12487,1,10,0:0:0:0:
497,138,12840,1,8,0:0:0:0:
497,138,13193,2,0,L|488:103,2,31.8750013276934,2|0|0,0:3|0:0|0:0,0:0:0:0:
331,319,13546,6,0,P|292:334|253:314,1,85.000000298023,10|0,0:0|0:0,0:0:0:0:
262,205,13899,2,0,P|300:189|339:209,1,85.000000298023,2|2,1:2|0:0,0:0:0:0:
436,289,14252,1,10,0:0:0:0:
494,146,14428,1,2,0:0:0:0:
494,146,14604,2,0,P|503:186|512:228,1,85.000000298023,2|2,1:2|0:0,0:0:0:0:
381,138,14957,6,0,P|460:130|476:53,1,170.000000596046,10|0,0:0|1:0,0:0:0:0:
363,5,15487,2,0,P|324:15|270:28,1,85.000000298023,2|8,0:0|0:0,0:0:0:0:
173,93,15840,2,0,P|143:56|155:17,1,85.000000298023,2|0,0:0|1:0,0:0:0:0:
281,133,16193,1,2,0:0:0:0:
281,133,16546,5,2,0:0:0:0:
112,185,16722,2,0,P|158:191|212:207,1,85.000000298023,0|2,1:0|0:0,0:0:0:0:
82,96,17075,1,10,0:0:0:0:
0,160,17252,1,2,0:0:0:0:
36,249,17428,1,2,1:2:0:0:
31,255,17604,1,2,0:0:0:0:
224,293,17781,5,10,0:0:0:0:
143,354,17957,2,0,P|118:314|132:276,1,85.000000298023,2|0,0:0|1:0,0:0:0:0:
226,199,18310,2,0,P|270:214|315:226,1,85.000000298023,2|10,0:0|0:0,0:0:0:0:
434,186,18663,1,2,0:0:0:0:
434,186,18752,1,2,0:0:0:0:
434,186,18840,1,2,1:2:0:0:
409,295,19016,1,2,0:0:0:0:
337,136,19193,6,0,P|374:66|345:24,1,127.500000447035,10|0,0:0|0:0,0:0:0:0:
353,30,19546,2,0,P|336:67|358:102,1,85.000000298023,2|0,1:2|0:0,0:0:0:0:
507,30,19899,1,10,0:0:0:0:
503,37,20075,1,2,0:0:0:0:
505,149,20252,1,2,1:2:0:0:
344,182,20428,6,0,B|297:194|259:134|295:136|273:85|218:94,1,170.000000596046,2|2,0:0|0:0,0:0:0:0:
101,196,20957,1,2,1:2:0:0:
184,267,21134,1,2,0:0:0:0:
184,267,21487,2,0,P|192:226|207:178,1,85.000000298023,2|2,0:0|1:2,0:0:0:0:
28,131,21840,6,0,P|19:169|4:220,1,85.000000298023,2|8,0:0|0:0,0:0:0:0:
72,321,22193,1,2,0:0:0:0:
184,267,22369,2,0,B|224:276|224:276|277:338|277:338|337:352,1,170.000000596046,2|10,1:2|0:0,0:0:0:0:
418,293,22899,1,2,0:0:0:0:
418,293,22987,1,2,0:0:0:0:
418,293,23075,2,0,B|453:318|453:318|426:363,1,85.000000298023,0|2,1:0|0:0,0:0:0:0:
296,202,23428,5,10,0:0:0:0:
296,202,23781,2,0,P|347:212|392:146,1,127.500000447035,2|0,1:2|0:0,0:0:0:0:
392,159,24134,2,0,B|372:150|372:150|373:120,3,42.5000001490115,10|0|0|0,0:0|0:0|0:0|0:0,0:0:0:0:
461,86,24487,2,0,B|481:95|481:95|480:125,3,42.5000001490115,2|2|2|0,1:2|0:0|0:0|0:0,0:0:0:0:
356,9,24840,5,10,0:1:0:0:
356,9,25193,1,2,1:2:0:0:
236,77,25369,2,0,P|215:71|236:72,1,59.4999983928203,10|2,1:1|0:0,0:0:0:0:
354,151,25722,2,0,P|374:144|353:145,1,59.4999983928203,10|0,0:1|1:2,0:0:0:0:
249,229,26075,1,10,0:1:0:0:
249,229,26604,1,2,1:2:0:0:
367,291,26781,1,2,1:2:0:0:
367,291,27134,2,0,P|368:269|358:288,1,59.4999983928203,10|2,0:1|1:2,0:0:0:0:
367,291,27663,6,0,P|368:269|358:288,1,59.4999983928203,10|0,0:1|0:0,0:0:0:0:
272,381,28016,1,2,1:2:0:0:
186,288,28193,2,0,P|192:267|192:288,1,59.4999983928203,10|2,1:1|0:0,0:0:0:0:
73,352,28546,2,0,P|73:373|79:352,1,59.4999983928203,10|0,0:1|1:2,0:0:0:0:
13,244,28899,1,10,0:1:0:0:
13,244,29428,1,2,1:2:0:0:
114,174,29604,1,2,1:2:0:0:
0,78,29781,6,0,P|6:107|12:141,1,59.4999983928203,10|2,0:1|0:0,0:0:0:0:
192,102,30134,2,0,P|182:68|176:33,1,59.4999983928203,10|2,0:1|0:0,0:0:0:0:
178,44,30399,1,2,0:0:0:0:
178,44,30487,6,0,P|258:11|308:64,1,152.999995867252,14|2,0:0|1:2,0:0:0:0:
364,138,31016,1,2,1:2:0:0:
478,32,31193,1,10,0:0:0:0:
478,32,31369,2,0,P|437:21|404:11,1,76.499997933626,2|0,0:0|1:0,0:0:0:0:
302,48,31722,1,2,0:0:0:0:
443,201,31899,6,0,P|467:175|464:135,1,76.499997933626,8|2,0:0|0:0,0:0:0:0:
304,185,32252,1,2,1:2:0:0:
418,303,32428,2,0,P|381:291|342:280,1,76.499997933626,2|8,1:2|0:0,0:0:0:0:
250,365,32781,1,2,0:0:0:0:
176,258,32957,1,2,1:2:0:0:
179,250,33134,1,2,0:0:0:0:
77,368,33310,6,0,P|31:327|55:262,1,114.749996900439,10|0,0:0|0:0,0:0:0:0:
38,279,33663,1,2,1:2:0:0:
146,167,33840,1,0,1:0:0:0:
15,110,34016,1,10,0:0:0:0:
15,110,34193,2,0,P|27:141|47:194,1,76.499997933626,2|0,0:0|1:0,0:0:0:0:
155,58,34546,1,2,0:0:0:0:
52,15,34722,5,8,0:0:0:0:
52,15,35075,1,10,0:0:0:0:
52,15,35428,1,10,0:0:0:0:
345,20,35781,6,0,P|389:9|432:0,1,89.2499975892304,2|0,0:1|0:0,0:0:0:0:
340,35,36134,5,14,0:0:0:0:
427,193,36310,2,0,P|458:151|442:111,1,93.500003181219,2|0,0:0|1:0,0:0:0:0:
227,147,36663,1,2,0:0:0:0:
227,147,36752,1,2,0:0:0:0:
227,147,36840,2,0,P|313:157|325:243,1,187.000006362438,10|2,0:0|1:2,0:0:0:0:
256,359,37369,1,2,0:0:0:0:
116,276,37546,6,0,P|160:265|217:249,1,93.500003181219,8|2,0:0|0:0,0:0:0:0:
387,352,37899,1,2,1:2:0:0:
325,243,38075,1,2,0:0:0:0:
464,156,38252,2,0,P|450:196|441:252,1,93.500003181219,10|0,0:0|0:0,0:0:0:0:
273,116,38604,1,2,1:2:0:0:
273,116,38957,5,10,0:0:0:0:
439,57,39134,2,0,P|392:49|339:31,1,93.500003181219,2|0,0:0|1:0,0:0:0:0:
339,208,39487,1,2,0:0:0:0:
182,138,39663,2,0,P|228:130|272:115,1,93.500003181219,10|0,0:0|0:0,0:0:0:0:
194,257,40016,1,2,1:2:0:0:
95,217,40193,2,0,P|63:184|70:140,1,93.500003181219,2|8,0:0|0:0,0:0:0:0:
182,139,40546,5,2,0:0:0:0:
114,331,40722,1,2,1:2:0:0:
12,267,40899,1,2,0:0:0:0:
194,257,41075,1,10,0:0:0:0:
261,333,41252,1,2,0:0:0:0:
360,305,41428,2,0,P|369:254|382:215,1,93.500003181219,2|2,1:2|0:0,0:0:0:0:
293,65,41781,6,0,B|249:63|225:88|245:99|217:130|173:120,1,140.250004771828,10|0,0:0|0:0,0:0:0:0:
174,120,42134,2,0,P|139:91|148:48,1,93.500003181219,2|0,1:2|0:0,0:0:0:0:
307,143,42487,2,0,P|298:184|288:242,1,93.500003181219,10|0,0:0|0:0,0:0:0:0:
473,356,42840,2,0,B|531:328|519:271|478:247|438:268|460:300,1,146.62500331074,2|0,1:2|0:0,0:0:0:0:
454,282,43193,6,0,P|391:307|316:330,1,140.250004771828,10|0,0:0|0:0,0:0:0:0:
321,328,43546,2,0,P|286:289|302:245,1,93.500003181219,2|0,1:2|0:0,0:0:0:0:
446,89,43899,1,10,0:0:0:0:
487,175,44075,1,0,0:0:0:0:
306,143,44252,2,0,P|350:156|395:168,1,93.500003181219,2|0,1:2|0:0,0:0:0:0:
250,8,44604,6,0,P|227:93|154:103,1,140.250004771828,10|0,0:0|0:0,0:0:0:0:
184,108,44957,2,0,P|140:97|120:56,1,93.500003181219,2|2,1:2|0:0,0:0:0:0:
18,196,45310,2,0,P|36:154|15:113,1,93.500003181219,10|0,0:0|0:0,0:0:0:0:
158,212,45663,1,2,1:2:0:0:
59,298,45840,1,2,0:0:0:0:
148,342,46016,6,0,P|191:327|249:317,1,93.500003181219,8|2,0:0|0:0,0:0:0:0:
335,220,46369,1,2,1:2:0:0:
447,356,46546,2,0,P|476:323|458:283,1,93.500003181219,2|10,0:0|0:0,0:0:0:0:
340,321,46899,1,2,1:2:0:0:
340,321,46987,1,2,1:2:0:0:
340,321,47075,1,2,1:2:0:0:
448,186,47252,5,2,1:2:0:0:
448,186,47340,1,2,1:2:0:0:
448,186,47428,2,0,B|416:138|361:158|361:158|342:206|294:206,1,187.000006362438,14|0,0:0|1:0,0:0:0:0:
188,161,47957,1,2,0:0:0:0:
351,51,48134,1,10,0:0:0:0:
241,29,48310,2,0,P|254:73|270:123,1,93.500003181219,2|0,0:0|1:0,0:0:0:0:
217,245,48663,1,2,0:0:0:0:
14,159,48840,6,0,P|59:147|103:131,1,93.500003181219,10|2,0:0|0:0,0:0:0:0:
22,314,49193,1,2,1:2:0:0:
126,346,49369,2,0,P|140:302|118:263,1,93.500003181219,2|8,0:0|0:0,0:0:0:0:
19,163,49722,5,2,0:0:0:0:
186,68,49899,1,2,1:2:0:0:
19,163,50075,2,0,P|10:113|1:70,1,93.500003181219,2|8,0:0|0:0,0:0:0:0:
268,186,50428,5,2,0:0:0:0:
101,91,50605,1,2,1:2:0:0:
268,186,50781,2,0,P|277:136|286:93,1,93.500003181219,2|8,0:0|0:0,0:0:0:0:
88,212,51134,5,2,0:0:0:0:
188,304,51310,1,2,1:2:0:0:
94,384,51487,2,0,P|62:352|70:307,1,93.500003181219,2|8,0:0|0:0,0:0:0:0:
184,211,51840,1,2,0:0:0:0:
289,346,52016,2,0,P|334:333|387:322,1,93.500003181219,2|0,1:2|0:0,0:0:0:0:
466,126,52369,5,10,0:0:0:0:
369,218,52546,1,2,0:0:0:0:
499,301,52722,1,2,1:2:0:0:
469,213,52899,1,2,0:0:0:0:
295,256,53075,6,0,P|222:245|208:176,1,140.250004771828,10|0,0:0|0:0,0:0:0:0:
204,188,53428,2,0,P|165:165|123:182,1,93.500003181219,2|0,1:2|0:0,0:0:0:0:
318,60,53781,2,0,P|305:114|300:154,1,93.500003181219,10|0,0:0|0:0,0:0:0:0:
97,264,54134,2,0,P|86:194|68:126,1,140.250004771828,2|0,1:2|0:0,0:0:0:0:
68,126,54487,6,0,P|20:80|50:22,1,140.250004771828,10|0,0:0|0:0,0:0:0:0:
49,22,54840,2,0,P|92:37|133:18,1,93.500003181219,2|0,1:2|0:0,0:0:0:0:
349,80,55193,2,0,P|306:64|265:83,1,93.500003181219,10|0,0:0|0:0,0:0:0:0:
105,248,55546,2,0,P|166:216|151:146,1,140.250004771828,2|0,1:2|0:0,0:0:0:0:
158,153,55899,6,0,B|191:133|229:157|237:186|216:177|228:218|266:242|304:220,1,187.000006362438,14|0,0:0|1:0,0:0:0:0:
400,167,56428,1,0,0:0:0:0:
493,308,56604,2,0,P|500:266|515:220,1,85.000000298023,10|2,0:0|0:0,0:0:0:0:
377,374,56957,1,2,1:2:0:0:
377,373,57310,6,0,P|317:357|300:298,1,127.500000447035,10|0,0:0|0:0,0:0:0:0:
300,298,57663,2,0,P|261:282|223:299,1,85.000000298023,2|0,1:2|0:0,0:0:0:0:
35,356,58016,2,0,P|66:330|71:289,1,85.000000298023,10|0,0:0|0:0,0:0:0:0:
138,110,58369,6,0,P|107:181|171:236,2,170.000000596046,2|10|2,1:2|0:0|1:2,0:0:0:0:
138,110,59428,2,0,P|97:98|47:83,1,85.000000298023,10|0,0:0|0:0,0:0:0:0:
219,20,59781,2,0,P|270:93|231:164,2,170.000000596046,2|10|2,1:2|0:0|1:2,0:0:0:0:
219,20,60840,2,0,P|263:9|303:-1,1,85.000000298023,10|0,0:0|0:0,0:0:0:0:
446,10,61193,2,0,B|485:31|485:31|467:78,1,85.000000298023,2|0,1:2|0:0,0:0:0:0:
364,279,61546,6,0,P|359:226|347:186,1,89.2499975892304,10|0,0:0|0:0,0:0:0:0:
349,191,61899,2,0,P|391:144|456:177,1,127.500000447035,2|0,1:2|0:0,0:0:0:0:
446,161,62252,2,0,P|366:122|380:55,1,152.999995867252,10|0,0:0|0:0,0:0:0:0:
370,68,62604,2,0,P|271:92|185:101,1,178.499995178461,2|0,1:2|0:0,0:0:0:0:
193,99,62957,6,0,B|132:43|132:43|71:121,1,170.000000596046,10|2,0:0|1:2,0:0:0:0:
146,221,63487,1,2,0:0:0:0:
65,270,63663,2,0,B|36:241|36:241|61:205,1,85.000000298023,10|0,0:0|0:0,0:0:0:0:
230,183,64016,2,0,B|259:212|259:212|235:249,1,85.000000298023,2|0,1:2|0:0,0:0:0:0:
157,368,64369,6,0,P|209:352|295:341,1,127.500000447035,10|0,0:0|0:0,0:0:0:0:
281,341,64722,2,0,P|317:352|369:365,1,85.000000298023,2|0,1:2|0:0,0:0:0:0:
489,296,65075,2,0,P|515:264|502:225,1,85.000000298023,10|0,0:0|0:0,0:0:0:0:
404,210,65428,2,0,P|377:241|390:280,1,85.000000298023,2|0,1:2|0:0,0:0:0:0:
467,136,65781,6,0,B|418:166|418:166|344:160|350:88,1,170.000000596046,10|0,0:0|1:0,0:0:0:0:
187,27,66310,2,0,B|222:17|222:17|227:18|227:18|271:4,1,85.000000298023,2|8,0:0|0:0,0:0:0:0:
224,160,66663,1,2,0:0:0:0:
90,94,66840,1,2,1:2:0:0:
95,87,67016,1,2,0:0:0:0:
127,286,67193,5,14,0:0:0:0:
6,189,67369,2,0,L|27:276,1,85.000000298023,2|0,0:0|1:0,0:0:0:0:
119,194,67722,1,2,0:0:0:0:
210,338,67899,1,10,0:0:0:0:
334,247,68075,2,0,P|325:289|315:330,1,85.000000298023,2|0,0:0|1:0,0:0:0:0:
233,233,68428,1,2,0:0:0:0:
316,160,68604,5,10,0:0:0:0:
437,269,68781,1,2,0:0:0:0:
499,122,68957,1,2,1:2:0:0:
336,58,69134,2,0,P|293:68|241:84,1,85.000000298023,2|8,0:0|0:0,0:0:0:0:
83,270,69487,5,2,0:0:0:0:
196,317,69663,1,2,1:2:0:0:
52,110,69840,2,0,P|43:149|32:192,1,85.000000298023,2|8,0:0|0:0,0:0:0:0:
272,172,70193,5,2,0:0:0:0:
161,225,70369,1,2,1:2:0:0:
216,53,70546,2,0,P|259:71|304:89,1,85.000000298023,2|8,0:0|0:0,0:0:0:0:
327,349,70899,5,2,0:0:0:0:
243,258,71075,1,2,1:2:0:0:
455,337,71252,2,0,P|470:291|483:255,1,85.000000298023,2|8,0:0|0:0,0:0:0:0:
437,82,71604,1,2,0:0:0:0:
336,202,71781,1,2,1:2:0:0:
336,202,72134,5,8,0:0:0:0:
494,173,72310,1,2,0:0:0:0:
330,108,72487,1,2,1:2:0:0:
239,212,72663,1,2,0:0:0:0:
117,148,72840,6,0,P|101:68|80:6,1,127.500000447035,10|0,0:0|0:0,0:0:0:0:
87,24,73193,2,0,P|46:52|14:45,1,85.000000298023,2|0,1:2|0:0,0:0:0:0:
88,239,73546,2,0,P|113:190|186:194,1,127.500000447035,10|0,0:0|0:0,0:0:0:0:
180,189,73899,2,0,P|170:227|164:278,1,85.000000298023,2|0,1:2|0:0,0:0:0:0:
353,381,74252,6,0,B|390:386|421:349|388:333|435:300|468:311,1,146.62500331074,10|0,0:0|0:0,0:0:0:0:
467,310,74604,2,0,B|426:315|391:274|428:256|376:219|344:230,1,159.375000558793,2|0,1:2|0:0,0:0:0:0:
344,229,74957,2,0,B|388:235|426:189|386:169|444:128|475:139,1,172.125001260101,10|0,0:0|0:0,0:0:0:0:
474,139,75310,6,0,L|423:128,1,42.0750000191187,2|0,0:0|0:0,0:0:0:0:
349,93,75663,6,0,B|319:57|319:57|350:22,1,93.500003181219,14|0,0:1|0:0,0:0:0:0:
361,15,75928,2,0,L|310:4,1,46.7500015906095,2|0,0:1|1:0,0:0:0:0:
127,40,76193,2,0,L|183:54,1,46.7500015906095,2|0,0:1|0:0,0:0:0:0:
185,46,76369,2,0,L|162:141,1,93.500003181219,10|0,0:1|0:0,0:0:0:0:
35,192,76722,1,2,1:1:0:0:
127,244,76899,1,2,0:1:0:0:
229,305,77075,6,0,B|265:271|265:271|300:296,1,93.500003181219,14|0,0:1|0:0,0:0:0:0:
311,301,77340,2,0,L|302:354,1,46.7500015906095,2|0,0:1|1:0,0:0:0:0:
470,358,77604,2,0,L|479:305,1,46.7500015906095,2|0,0:1|0:0,0:0:0:0:
486,299,77781,2,0,B|449:265|449:265|413:289,1,93.500003181219,10|2,0:1|0:1,0:0:0:0:
337,186,78134,1,2,1:1:0:0:
336,175,78310,1,2,0:1:0:0:
442,59,78487,6,0,B|339:40,1,93.500003181219,14|0,0:1|0:0,0:0:0:0:
345,55,78752,2,0,L|393:64,1,46.7500015906095,2|0,0:1|1:0,0:0:0:0:
233,127,79016,2,0,L|181:116,1,46.7500015906095,2|0,0:1|0:0,0:0:0:0:
171,119,79193,2,0,P|185:67|194:23,1,93.500003181219,10|0,0:1|0:0,0:0:0:0:
24,47,79546,1,2,1:1:0:0:
62,141,79722,1,2,0:1:0:0:
124,240,79899,6,0,B|93:275|93:275|53:250,1,93.500003181219,14|0,0:1|0:0,0:0:0:0:
44,249,80163,2,0,L|34:300,1,46.7500015906095,2|0,0:1|1:0,0:0:0:0:
195,358,80428,2,0,L|204:307,1,46.7500015906095,2|0,0:1|0:0,0:0:0:0:
198,301,80604,2,0,B|238:276|238:276|271:308,1,93.500003181219,10|2,0:1|0:1,0:0:0:0:
379,219,80957,1,2,1:1:0:0:
371,211,81134,1,2,0:1:0:0:
455,360,81310,6,0,B|487:325|487:325|454:277,1,93.500003181219,14|0,0:1|0:0,0:0:0:0:
448,279,81575,2,0,L|493:268,1,46.7500015906095,2|0,0:1|1:0,0:0:0:0:
282,208,81840,2,0,L|236:218,1,46.7500015906095,2|0,0:1|0:0,0:0:0:0:
223,225,82016,2,0,B|189:194|189:194|205:149,1,93.500003181219,10|0,0:1|0:0,0:0:0:0:
189,15,82369,1,2,1:1:0:0:
287,61,82546,1,2,0:1:0:0:
390,117,82722,6,0,L|494:95,1,93.500003181219,14|0,0:1|0:0,0:0:0:0:
488,111,82987,2,0,L|435:124,1,46.7500015906095,2|0,0:1|1:0,0:0:0:0:
328,288,83252,2,0,L|381:275,1,46.7500015906095,2|0,0:1|0:0,0:0:0:0:
382,279,83428,2,0,B|398:236|398:236|358:209,1,93.500003181219,10|2,0:1|0:1,0:0:0:0:
237,158,83781,1,2,1:1:0:0:
242,148,83957,1,2,0:1:0:0:
138,258,84134,6,0,B|108:264|108:264|100:268|100:268|64:276,2,76.499997933626,14|2|2,0:1|0:1|0:1,0:0:0:0:
216,311,84840,1,2,0:1:0:0:
209,319,85016,1,2,0:1:0:0:
314,324,85193,1,2,0:1:0:0:
316,333,85369,1,2,0:1:0:0:
378,245,85546,6,0,B|412:253|412:253|418:256|418:256|452:265,2,76.499997933626,10|2|2,0:1|0:1|0:1,0:0:0:0:
330,166,86252,1,2,0:1:0:0:
385,88,86428,1,2,0:1:0:0:
303,23,86604,1,2,0:1:0:0:
237,101,86781,1,2,0:1:0:0:
425,175,86957,5,14,0:1:0:0:
