osu file format v14

[General]
AudioFilename: audio.mp3
AudioLeadIn: 0
PreviewTime:35737
Countdown: 0
SampleSet: None
StackLeniency: 0.2
Mode: 0
LetterboxInBreaks: 0
WidescreenStoryboard: 0

[Editor]
DistanceSpacing: 0.6
BeatDivisor: 4
GridSize: 32
TimelineZoom: 1

[Metadata]
Title:Kaibutsu (TV Size)
TitleUnicode:怪物 (TV Size)
Artist:YOASOBI
ArtistUnicode:YOASOBI
Creator:Ryuusei Aika
Version:Addy's Insane
Source:BEASTARS
Tags:ビースターズ japanese furry anime op2 pop j-pop jpop opening theme 幾田りら Ikuta Rira Lilas Ayase Monster MoeAsuka Atrue SuperBox Fall Marle Calvaria Mariko Sakuragi Reiji Maigo SB hhjkl [Hatsune Miku] [Hatsune_Miku] Hatsune Miku Remapper _lai Kyrian 09kami Ducky- Acyl Acylica Bellicose wafer iWaifu KAMI NO KOTOBA Addy2607 KaedeharaKazuha Airincat Chompy Yooh Reywateil Amateurre Sparhten Ajisai- HabiHolic newton- Yuuma Ogura Yui fedora- UberFazz xidorn Pata-Mon PataMon Deca Wanpachi cycopton Gibune wiken Fuju Stratos Crystal OneShotFox Elcheer Fieryrage hypercyte hypercute Kittyadventure gokugohan12468 Kyouren Zelq ponbot Yuuma3 Mimari i love ganyu Flake yaspo Regraz Mafumafu bongo Moete Senseabel Senseable Kuse KuBsNia_ZhoYL_ wetdog123 eiri-
BeatmapID:2767393
BeatmapSetID:1335792

[Difficulty]
HPDrainRate:6
CircleSize:3.8
OverallDifficulty:7
ApproachRate:9
SliderMultiplier:1.6
SliderTickRate:1

[Events]
//Background and Video events
0,0,"furry.jpg",0,0
Video,-200,"OP.mp4"
//Break Periods
//Storyboard Layer 0 (Background)
//Storyboard Layer 1 (Fail)
//Storyboard Layer 2 (Pass)
//Storyboard Layer 3 (Foreground)
//Storyboard Layer 4 (Overlay)
//Storyboard Sound Samples

[TimingPoints]
-3395,352.941176470588,4,2,0,50,1,0
1543,-100,4,2,1,40,0,0
1546,-200,4,2,1,40,0,0
2249,-200,4,2,1,60,0,0
2252,-133.333333333333,4,2,1,60,0,0
13543,-133.333333333333,4,2,1,70,0,0
13546,-111.111111111111,4,2,1,70,0,0
24837,-111.111111111111,4,2,1,60,0,0
24840,-125,4,2,1,60,0,0
30484,-125,4,2,1,75,0,0
30487,-100,4,2,1,75,0,0
35778,-100,4,2,1,60,0,0
35781,-181.818181818182,4,2,1,60,0,0
36046,-181.818181818182,4,2,1,60,0,0
36131,-181.818181818182,4,2,1,80,0,0
36134,-86.9565217391304,4,2,1,80,0,1
47428,-83.3333333333333,4,2,1,80,0,1
53075,-90.9090909090909,4,2,1,80,0,1
55899,-100,4,2,1,80,0,0
67193,-83.3333333333333,4,2,1,80,0,1
72840,-90.9090909090909,4,2,1,80,0,1
74252,-83.3333333333333,4,2,1,80,0,1
75663,-90.9090909090909,4,2,1,80,0,0
84130,-90.9090909090909,4,2,1,70,0,0
84134,-125,4,2,1,70,0,0
86954,-125,4,2,1,90,0,0

[Colours]
Combo1 : 191,96,0
Combo2 : 143,32,255
Combo3 : 191,0,96
Combo4 : 0,80,159

[HitObjects]
45,11,1546,6,2,B|19:40|19:40|38:131,1,120,2|0,0:0|0:0,0:1:0:0:
35,119,2252,6,0,L|32:185,1,60.0000022888184,10|0,0:0|0:0,0:0:0:0:
108,214,2604,2,0,L|111:148,1,60.0000022888184,10|2,0:0|0:0,0:0:0:0:
24,127,2957,2,0,L|20:192,1,60.0000022888184,10|0,0:0|0:0,0:0:0:0:
96,221,3310,2,0,L|99:155,1,60.0000022888184,10|2,0:0|0:0,0:0:0:0:
113,46,3663,6,0,P|157:22|227:53,1,120.000004577637,10|8,0:0|0:0,0:0:0:0:
221,150,4193,2,0,P|197:106|228:36,1,120.000004577637,2|2,0:0|0:0,0:0:0:0:
280,95,4722,1,8,0:0:0:0:
347,2,4899,6,0,L|469:3,1,120.000004577637,2|2,0:0|0:0,0:0:0:0:
512,91,5428,2,0,L|511:152,1,60.0000022888184,8|2,0:0|0:0,0:0:0:0:
433,180,5781,2,0,L|433:118,1,60.0000022888184,10|2,0:0|0:0,0:0:0:0:
356,90,6134,2,0,L|356:152,1,60.0000022888184,10|2,0:0|0:0,0:0:0:0:
432,264,6487,5,10,0:0:0:0:
284,264,6663,2,0,L|345:264,1,60.0000022888184,2|8,0:0|0:0,0:0:0:0:
373,343,7016,2,0,L|248:341,1,120.000004577637,2|2,0:0|0:0,0:0:0:0:
186,268,7546,1,10,0:0:0:0:
186,268,7722,1,2,0:0:0:0:
29,358,7899,6,0,P|22:324|37:290,1,60.0000022888184,10|0,0:0|0:0,0:0:0:0:
113,302,8252,2,0,P|120:336|105:370,1,60.0000022888184,10|2,0:0|0:0,0:0:0:0:
18,366,8604,2,0,P|11:332|26:298,1,60.0000022888184,10|2,0:0|0:0,0:0:0:0:
102,310,8957,2,0,P|109:344|94:378,1,60.0000022888184,10|2,0:0|0:0,0:0:0:0:
59,233,9310,6,0,L|-14:230,2,60.0000022888184,10|0|10,0:0|0:0|0:0,0:0:0:0:
113,169,9840,2,0,L|186:166,1,60.0000022888184,2|8,0:0|0:0,0:0:0:0:
60,105,10193,2,0,L|-13:102,2,60.0000022888184,2|8|2,0:0|0:0|0:0,0:0:0:0:
137,20,10722,6,0,B|186:18|186:18|209:34|209:34|257:31,1,120.000004577637,8|10,0:0|0:0,0:0:0:0:
317,84,11252,1,0,0:0:0:0:
380,8,11428,2,0,L|451:7,1,60.0000022888184,8|2,0:0|0:0,0:0:0:0:
474,83,11781,2,0,L|403:84,1,60.0000022888184,10|2,0:0|0:0,0:0:0:0:
317,84,12134,5,10,0:0:0:0:
317,84,12487,1,10,0:0:0:0:
317,84,12840,1,8,0:0:0:0:
317,84,13193,1,2,0:3:0:0:
317,84,13546,6,0,L|317:172,1,71.9999978027344,10|0,0:0|0:0,0:0:0:0:
224,189,13899,2,0,L|224:101,1,71.9999978027344,2|2,1:2|0:0,0:0:0:0:
305,74,14252,2,0,L|305:162,1,71.9999978027344,10|2,0:0|0:0,0:0:0:0:
212,179,14605,2,0,L|212:91,1,71.9999978027344,2|2,1:2|0:0,0:0:0:0:
336,241,14957,6,0,B|286:238|286:238|260:265|260:265|188:262,1,143.999995605469,10|0,0:0|1:0,0:0:0:0:
73,330,15487,2,0,P|104:341|148:321,1,71.9999978027344,2|8,0:0|0:0,0:0:0:0:
139,199,15840,2,0,P|113:220|109:268,1,71.9999978027344,2|0,0:0|1:0,0:0:0:0:
233,360,16193,6,0,L|382:355,1,143.999995605469,2|2,0:0|0:0,0:0:0:0:
475,352,16722,2,0,L|472:277,1,71.9999978027344,0|2,1:0|0:0,0:0:0:0:
374,283,17075,2,0,L|376:357,1,71.9999978027344,10|2,0:0|0:0,0:0:0:0:
498,201,17428,2,0,L|423:203,1,71.9999978027344,2|2,1:2|0:0,0:0:0:0:
342,127,17781,5,10,0:0:0:0:
273,198,17957,2,0,L|275:272,1,71.9999978027344,2|0,0:0|1:0,0:0:0:0:
233,360,18310,2,0,P|177:314|107:329,1,143.999995605469,2|2,0:0|0:0,0:0:0:0:
31,384,18840,1,2,1:2:0:0:
31,384,19016,1,2,0:0:0:0:
0,273,19193,6,0,L|4:185,1,71.9999978027344,10|0,0:0|0:0,0:0:0:0:
94,159,19546,2,0,L|90:247,1,71.9999978027344,2|0,1:2|0:0,0:0:0:0:
10,283,19899,2,0,L|14:195,2,71.9999978027344,10|2|2,0:0|0:0|1:2,0:0:0:0:
23,108,20428,6,0,P|80:72|155:100,1,143.999995605469,2|2,0:0|0:0,0:0:0:0:
209,172,20957,1,2,1:2:0:0:
258,86,21134,2,0,L|263:241,1,143.999995605469,2|2,0:0|0:0,0:0:0:0:
195,302,21663,1,2,1:2:0:0:
293,362,21840,6,0,L|448:357,1,143.999995605469,2|2,0:0|0:0,0:0:0:0:
507,287,22369,2,0,L|504:209,1,71.9999978027344,2|0,1:2|0:0,0:0:0:0:
409,190,22722,2,0,L|411:267,1,71.9999978027344,10|2,0:0|0:0,0:0:0:0:
500,115,23075,1,0,1:0:0:0:
500,115,23252,1,2,0:0:0:0:
401,10,23428,6,0,L|321:11,1,71.9999978027344,10|0,0:0|0:0,0:0:0:0:
298,107,23781,2,0,L|377:105,1,71.9999978027344,2|0,1:2|0:0,0:0:0:0:
245,35,24134,2,0,L|165:36,1,71.9999978027344,10|0,0:0|0:0,0:0:0:0:
142,132,24487,2,0,L|221:130,1,71.9999978027344,2|0,1:2|0:0,0:0:0:0:
27,42,24840,5,10,0:1:0:0:
27,42,25193,1,2,1:2:0:0:
33,141,25369,1,10,1:1:0:0:
39,240,25546,1,2,0:0:0:0:
45,339,25722,1,10,0:1:0:0:
45,339,26075,1,10,0:1:0:0:
39,240,26252,6,0,L|111:236,2,64,2|2|2,0:0|0:0|1:2,0:0:0:0:
45,339,26781,1,2,1:2:0:0:
45,339,27134,1,10,0:1:0:0:
144,333,27310,1,2,1:2:0:0:
243,327,27487,1,2,0:0:0:0:
237,228,27663,5,10,0:1:0:0:
237,228,28016,1,2,1:2:0:0:
231,129,28193,1,10,1:1:0:0:
225,30,28369,1,2,0:0:0:0:
324,24,28546,1,10,0:1:0:0:
324,24,28899,1,10,0:1:0:0:
225,30,29075,6,0,L|153:34,2,64,2|2|2,0:0|0:0|1:2,0:0:0:0:
330,123,29604,2,0,L|402:119,1,64,2|10,1:2|0:1,0:0:0:0:
324,24,29957,1,2,0:0:0:0:
231,129,30134,1,10,0:1:0:0:
336,222,30310,1,2,0:0:0:0:
336,222,30399,1,0,0:0:0:0:
336,222,30487,6,0,B|396:219|396:219|425:255|425:255|500:252,1,160,14|2,0:0|1:2,0:0:0:0:
470,154,31016,1,2,1:2:0:0:
350,318,31193,2,0,B|270:309|289:382|199:364,1,160,10|0,0:0|1:0,0:0:0:0:
125,306,31722,1,2,0:0:0:0:
217,202,31899,6,0,L|220:302,2,80,8|2|2,0:0|0:0|1:2,0:0:0:0:
0,166,32428,2,0,B|-7:204|27:217|27:217|138:213,1,160,2|2,1:2|0:0,0:0:0:0:
219,281,32957,2,0,L|217:202,1,80,2|2,1:2|0:0,0:0:0:0:
72,60,33310,6,0,P|59:95|77:138,1,80,10|0,0:0|0:0,0:0:0:0:
170,128,33663,2,0,P|182:90|169:54,1,80,2|0,1:2|1:0,0:0:0:0:
122,213,34016,1,10,0:0:0:0:
72,60,34193,2,0,P|59:95|77:138,1,80,2|0,0:0|1:0,0:0:0:0:
122,213,34546,1,2,0:0:0:0:
271,106,34722,5,8,0:0:0:0:
271,106,35075,1,10,0:0:0:0:
271,106,35428,1,10,0:0:0:0:
271,106,35781,2,0,L|351:102,1,66.0000020141602,2|0,0:1|0:0,0:0:0:0:
394,42,36134,5,14,0:0:0:0:
496,222,36310,2,0,L|491:126,1,92.0000017547608,2|0,0:0|1:0,0:0:0:0:
394,42,36663,1,2,0:0:0:0:
406,263,36840,2,0,L|401:167,1,92.0000017547608,10|0,0:0|0:0,0:0:0:0:
394,42,37193,1,2,1:2:0:0:
303,215,37369,6,0,B|233:217|233:217|208:256|208:256|118:258,1,184.000003509522,2|2,0:0|0:0,0:0:0:0:
0,210,37899,1,2,1:2:0:0:
120,334,38075,1,2,0:0:0:0:
160,169,38252,2,0,L|156:66,1,92.0000017547608,10|0,0:0|0:0,0:0:0:0:
62,48,38604,2,0,L|66:151,1,92.0000017547608,2|0,1:2|0:0,0:0:0:0:
140,257,38957,5,10,0:0:0:0:
248,73,39134,2,0,L|157:77,1,92.0000017547608,2|0,0:0|1:0,0:0:0:0:
140,257,39487,1,2,0:0:0:0:
295,161,39663,2,0,L|203:164,1,92.0000017547608,10|0,0:0|0:0,0:0:0:0:
140,257,40016,1,2,1:2:0:0:
267,362,40193,6,0,L|461:353,1,184.000003509522,2|2,0:0|0:0,0:0:0:0:
394,180,40722,2,0,L|398:283,1,92.0000017547608,2|2,1:2|0:0,0:0:0:0:
510,290,41075,2,0,L|506:187,1,92.0000017547608,10|2,0:0|0:0,0:0:0:0:
456,80,41428,1,2,1:2:0:0:
394,180,41604,1,2,0:0:0:0:
230,11,41781,6,0,P|215:51|237:107,1,92.0000017547608,10|0,0:0|0:0,0:0:0:0:
375,100,42134,2,0,P|347:67|288:58,1,92.0000017547608,2|0,1:2|0:0,0:0:0:0:
227,183,42487,2,0,P|269:175|306:128,1,92.0000017547608,10|0,0:0|0:0,0:0:0:0:
149,14,42840,2,0,P|102:0|49:25,1,92.0000017547608,2|0,1:2|0:0,0:0:0:0:
4,117,43193,6,0,L|4:213,1,92.0000017547608,10|0,0:0|0:0,0:0:0:0:
135,276,43546,2,0,L|134:179,1,92.0000017547608,2|0,1:2|0:0,0:0:0:0:
12,359,43899,2,0,L|108:358,1,92.0000017547608,10|0,0:0|0:0,0:0:0:0:
227,183,44252,2,0,L|130:183,1,92.0000017547608,2|0,1:2|0:0,0:0:0:0:
253,358,44604,6,0,P|298:376|342:352,1,92.0000017547608,10|0,0:0|0:0,0:0:0:0:
338,211,44957,2,0,P|299:240|298:291,1,92.0000017547608,2|2,1:2|0:0,0:0:0:0:
422,357,45310,2,0,P|415:309|372:282,1,92.0000017547608,10|0,0:0|0:0,0:0:0:0:
253,358,45663,1,2,1:2:0:0:
505,370,45840,6,0,P|494:285|410:208,1,184.000003509522,2|2,0:0|0:0,0:0:0:0:
335,359,46369,1,2,1:2:0:0:
189,262,46546,2,0,B|119:259|119:259|90:293|90:293|-3:290,1,184.000003509522,2|2,0:0|1:2,0:0:0:0:
164,358,47075,1,2,1:2:0:0:
16,205,47252,1,2,1:2:0:0:
16,205,47340,1,2,1:2:0:0:
16,205,47428,6,0,B|5:63|5:63|10:91|38:115,1,191.999994140625,14|0,0:0|1:0,0:0:0:0:
193,164,47957,1,2,0:0:0:0:
87,44,48133,1,10,0:0:0:0:
303,5,48310,2,0,B|256:42|256:42|276:182,1,191.999994140625,2|2,0:0|0:0,0:0:0:0:
461,91,48840,5,10,0:0:0:0:
353,92,49016,1,2,0:0:0:0:
501,2,49193,1,2,1:2:0:0:
507,187,49369,2,0,L|510:309,1,95.9999970703126,2|8,0:0|0:0,0:0:0:0:
416,356,49722,1,2,0:0:0:0:
416,226,49899,1,2,1:2:0:0:
319,375,50075,6,0,L|316:253,1,95.9999970703126,2|8,0:0|0:0,0:0:0:0:
230,202,50428,1,2,0:0:0:0:
230,332,50605,1,2,1:2:0:0:
134,183,50781,2,0,L|137:305,1,95.9999970703126,2|8,0:0|0:0,0:0:0:0:
35,382,51134,1,2,0:0:0:0:
231,332,51310,1,2,1:2:0:0:
15,266,51487,6,0,L|12:144,1,95.9999970703126,2|8,0:0|0:0,0:0:0:0:
71,88,51840,1,2,0:0:0:0:
137,278,52016,2,0,L|135:183,1,95.9999970703126,2|0,1:2|0:0,0:0:0:0:
123,23,52369,1,10,0:0:0:0:
208,122,52546,1,2,0:0:0:0:
277,50,52722,1,2,1:2:0:0:
339,106,52899,1,2,0:0:0:0:
500,48,53075,6,0,P|463:32|413:55,1,88.000002685547,10|0,0:0|0:0,0:0:0:0:
421,153,53428,2,0,P|458:169|508:146,1,88.000002685547,2|0,1:2|0:0,0:0:0:0:
277,50,53781,2,0,L|283:150,1,88.000002685547,10|0,0:0|0:0,0:0:0:0:
367,216,54134,2,0,L|361:316,1,88.000002685547,2|0,1:2|0:0,0:0:0:0:
242,359,54487,6,0,P|205:375|155:352,1,88.000002685547,10|0,0:0|0:0,0:0:0:0:
163,254,54840,2,0,P|200:238|250:261,1,88.000002685547,2|0,1:2|0:0,0:0:0:0:
19,357,55193,2,0,L|25:257,1,88.000002685547,10|0,0:0|0:0,0:0:0:0:
98,202,55546,2,0,L|92:102,1,88.000002685547,2|0,1:2|0:0,0:0:0:0:
4,1,55899,6,0,B|26:41|26:41|157:33,1,160,14|0,0:0|1:0,0:0:0:0:
203,110,56428,1,0,0:0:0:0:
331,8,56604,2,0,P|293:55|318:150,1,160,10|2,0:0|1:2,0:0:0:0:
388,83,57134,1,0,0:0:0:0:
491,216,57310,6,0,P|458:203|407:222,1,80,10|0,0:0|0:0,0:0:0:0:
416,314,57663,2,0,P|449:327|500:308,1,80,2|0,1:2|0:0,0:0:0:0:
327,173,58016,2,0,P|294:160|243:179,1,80,10|0,0:0|0:0,0:0:0:0:
251,359,58369,2,0,P|284:372|335:353,1,80,2|0,1:2|0:0,0:0:0:0:
156,233,58722,5,10,0:0:0:0:
156,233,59075,2,0,L|153:327,1,80,2|0,1:2|0:0,0:0:0:0:
18,367,59428,2,0,L|21:273,1,80,10|0,0:0|0:0,0:0:0:0:
175,241,59781,2,0,L|172:335,1,80,2|0,1:2|0:0,0:0:0:0:
27,176,60134,5,10,0:0:0:0:
27,176,60487,2,0,P|64:186|110:160,1,80,2|0,1:2|0:0,0:0:0:0:
89,26,60840,2,0,P|61:53|61:105,1,80,10|0,0:0|0:0,0:0:0:0:
192,152,61193,2,0,P|182:114|136:88,1,80,2|0,1:2|0:0,0:0:0:0:
175,241,61546,6,0,L|273:237,1,80,10|0,0:0|0:0,0:0:0:0:
343,89,61899,2,0,L|245:93,1,80,2|0,1:2|0:0,0:0:0:0:
353,278,62252,2,0,L|349:180,1,80,10|0,0:0|0:0,0:0:0:0:
460,129,62604,2,0,L|464:227,1,80,2|0,1:2|0:0,0:0:0:0:
491,353,62957,6,0,B|433:346|433:346|407:373|407:373|340:366,1,160,10|2,0:0|1:2,0:0:0:0:
262,285,63487,1,2,0:0:0:0:
138,354,63663,2,0,L|138:268,1,80,10|0,0:0|0:0,0:0:0:0:
17,228,64016,2,0,L|17:314,1,80,2|0,1:2|0:0,0:0:0:0:
172,197,64369,6,0,P|125:189|88:209,1,80,10|0,0:0|0:0,0:0:0:0:
0,102,64722,2,0,P|47:94|84:114,1,80,2|0,1:2|0:0,0:0:0:0:
247,229,65075,2,0,P|256:191|242:154,1,80,10|0,0:0|0:0,0:0:0:0:
162,22,65428,2,0,P|152:60|166:97,1,80,2|0,1:2|0:0,0:0:0:0:
282,48,65781,6,0,B|369:30|347:110|435:78,1,160,10|0,0:0|1:0,0:0:0:0:
505,23,66310,2,0,B|471:2|471:2|483:126,1,160,2|2,0:0|0:0,0:0:0:0:
365,178,66840,2,0,L|358:86,1,80,2|2,1:2|0:0,0:0:0:0:
497,238,67193,5,14,0:0:0:0:
277,221,67369,2,0,L|269:118,1,95.9999970703126,2|0,0:0|1:0,0:0:0:0:
261,26,67722,1,2,0:0:0:0:
365,178,67899,1,10,0:0:0:0:
162,84,68075,2,0,L|169:186,1,95.9999970703126,2|0,0:0|1:0,0:0:0:0:
178,279,68428,1,2,0:0:0:0:
269,125,68604,5,10,0:0:0:0:
344,292,68781,1,2,0:0:0:0:
168,179,68957,1,2,1:2:0:0:
133,356,69134,2,0,P|178:370|233:342,1,95.9999970703126,2|8,0:0|0:0,0:0:0:0:
361,198,69487,1,2,0:0:0:0:
324,373,69663,1,2,1:2:0:0:
495,238,69840,6,0,L|504:341,1,95.9999970703126,2|8,0:0|0:0,0:0:0:0:
341,188,70193,1,2,0:0:0:0:
304,363,70369,1,2,1:2:0:0:
475,228,70546,2,0,L|484:331,1,95.9999970703126,2|8,0:0|0:0,0:0:0:0:
321,181,70899,1,2,0:0:0:0:
284,356,71075,1,2,1:2:0:0:
512,149,71252,6,0,P|457:140|422:159,1,95.9999970703126,2|8,0:0|0:0,0:0:0:0:
392,268,71604,1,2,0:0:0:0:
287,83,71781,2,0,P|342:74|377:93,1,95.9999970703126,2|0,1:2|0:0,0:0:0:0:
239,252,72134,1,8,0:0:0:0:
197,66,72310,1,2,0:0:0:0:
146,253,72487,1,2,1:2:0:0:
118,126,72663,1,2,0:0:0:0:
33,236,72840,6,0,L|39:324,1,88.000002685547,10|0,0:0|0:0,0:0:0:0:
151,340,73193,2,0,L|145:252,1,88.000002685547,2|0,1:2|0:0,0:0:0:0:
118,126,73546,2,0,P|57:118|28:144,1,88.000002685547,10|0,0:0|0:0,0:0:0:0:
145,252,73899,2,0,P|206:260|235:234,1,88.000002685547,2|0,1:2|0:0,0:0:0:0:
295,71,74252,6,0,L|295:177,1,95.9999970703126,10|0,0:0|0:0,0:0:0:0:
408,229,74604,2,0,L|408:123,1,95.9999970703126,2|0,1:2|0:0,0:0:0:0:
411,0,74957,1,10,0:0:0:0:
295,167,75134,1,0,0:0:0:0:
502,189,75310,1,2,0:0:0:0:
223,14,75663,6,0,L|132:14,1,88.000002685547,14|0,0:1|0:0,0:0:0:0:
214,32,75928,2,0,L|126:32,1,88.000002685547,2|0,0:1|0:0,0:0:0:0:
7,1,76193,1,2,0:1:0:0:
12,186,76369,2,0,L|10:88,1,88.000002685547,10|0,0:1|0:0,0:0:0:0:
130,131,76722,2,0,L|132:229,1,88.000002685547,2|2,1:1|0:1,0:0:0:0:
8,319,77075,6,0,P|56:303|98:324,1,88.000002685547,14|0,0:1|0:0,0:0:0:0:
8,302,77340,2,0,P|56:286|98:307,1,88.000002685547,2|0,0:1|0:0,0:0:0:0:
152,376,77604,1,2,0:1:0:0:
244,285,77781,2,0,L|242:187,1,88.000002685547,10|2,0:1|0:1,0:0:0:0:
130,131,78134,2,0,L|132:229,1,88.000002685547,2|2,1:1|0:1,0:0:0:0:
299,62,78487,6,0,P|338:48|390:68,1,88.000002685547,14|0,0:1|0:0,0:0:0:0:
301,42,78752,2,0,P|340:28|392:48,1,88.000002685547,2|0,0:1|0:0,0:0:0:0:
437,124,79016,1,2,0:1:0:0:
340,230,79193,2,0,L|340:129,1,88.000002685547,10|0,0:1|0:0,0:0:0:0:
464,108,79546,2,0,L|464:209,1,88.000002685547,2|2,1:1|0:1,0:0:0:0:
510,351,79899,6,0,L|415:348,1,88.000002685547,14|0,0:1|0:0,0:0:0:0:
499,338,80163,2,0,L|404:335,1,88.000002685547,2|0,0:1|0:0,0:0:0:0:
313,330,80428,1,2,0:1:0:0:
218,219,80604,2,0,P|175:205|126:230,1,88.000002685547,10|2,0:1|0:1,0:0:0:0:
139,362,80957,2,0,P|172:331|175:276,1,88.000002685547,2|2,1:1|0:1,0:0:0:0:
0,208,81310,6,0,L|4:308,1,88.000002685547,14|0,0:1|0:0,0:0:0:0:
16,198,81575,2,0,L|20:298,1,88.000002685547,2|0,0:1|0:0,0:0:0:0:
25,384,81840,1,2,0:1:0:0:
136,219,82016,2,0,P|176:204|217:218,1,88.000002685547,10|0,0:1|0:0,0:0:0:0:
220,361,82369,2,0,P|179:375|138:361,1,88.000002685547,2|2,1:1|0:1,0:0:0:0:
3,295,82722,6,0,L|0:208,1,88.000002685547,14|0,0:1|0:0,0:0:0:0:
19,285,82987,2,0,L|16:198,1,88.000002685547,2|0,0:1|0:0,0:0:0:0:
9,98,83252,1,2,0:1:0:0:
110,17,83428,2,0,P|150:2|191:16,1,88.000002685547,10|2,0:1|0:1,0:0:0:0:
194,159,83781,2,0,P|153:173|112:159,1,88.000002685547,2|2,1:1|0:1,0:0:0:0:
282,85,84134,6,0,L|291:193,2,96,14|2|2,0:1|0:1|0:1,0:0:0:0:
365,30,84840,2,0,L|370:100,1,64,2|2,0:1|0:1,0:0:0:0:
465,122,85193,2,0,L|459:51,1,64,2|2,0:1|0:1,0:0:0:0:
383,224,85546,6,0,L|491:215,2,96,10|2|2,0:1|0:1|0:1,0:0:0:0:
375,323,86252,2,0,L|445:317,1,64,2|2,0:1|0:1,0:0:0:0:
383,224,86604,2,0,L|312:229,1,64,2|2,0:1|0:1,0:0:0:0:
291,374,86957,1,14,0:1:0:0:
