osu file format v14

[General]
AudioFilename: audio.mp3
AudioLeadIn: 0
PreviewTime:35737
Countdown: 0
SampleSet: Soft
StackLeniency: 0
Mode: 0
LetterboxInBreaks: 0
WidescreenStoryboard: 1

[Editor]
DistanceSpacing: 0.3
BeatDivisor: 4
GridSize: 32
TimelineZoom: 2.1

[Metadata]
Title:Kaibutsu (TV Size)
TitleUnicode:怪物 (TV Size)
Artist:YOASOBI
ArtistUnicode:YOASOBI
Creator:Ryuusei Aika
Version:09's Extra
Source:BEASTARS
Tags:ビースターズ japanese furry anime op2 pop j-pop jpop opening theme 幾田りら Ikuta Rira Lilas Ayase Monster MoeAsuka Atrue SuperBox Fall Marle Calvaria Mariko Sakuragi Reiji Maigo SB hhjkl [Hatsune Miku] [Hatsune_Miku] Hatsune Miku Remapper _lai Kyrian 09kami Ducky- Acyl Acylica Bellicose wafer iWaifu KAMI NO KOTOBA Addy2607 KaedeharaKazuha Airincat Chompy Yooh Reywateil Amateurre Sparhten Ajisai- HabiHolic newton- Yuuma Ogura Yui fedora- UberFazz xidorn Pata-Mon PataMon Deca Wanpachi cycopton Gibune wiken Fuju Stratos Crystal OneShotFox Elcheer Fieryrage hypercyte hypercute Kittyadventure gokugohan12468 Kyouren Zelq ponbot Yuuma3 Mimari i love ganyu Flake yaspo Regraz Mafumafu bongo Moete Senseabel Senseable Kuse KuBsNia_ZhoYL_ wetdog123 eiri-
BeatmapID:2820208
BeatmapSetID:1335792

[Difficulty]
HPDrainRate:6
CircleSize:4.2
OverallDifficulty:8
ApproachRate:9.3
SliderMultiplier:1.8
SliderTickRate:1

[Events]
//Background and Video events
0,0,"furry.jpg",0,0
Video,-200,"OP.mp4"
//Break Periods
//Storyboard Layer 0 (Background)
//Storyboard Layer 1 (Fail)
//Storyboard Layer 2 (Pass)
//Storyboard Layer 3 (Foreground)
//Storyboard Layer 4 (Overlay)
//Storyboard Sound Samples

[TimingPoints]
-3395,352.941176470588,4,2,1,40,1,0
1546,-1000,4,2,1,40,0,0
2252,-100,4,2,1,40,0,0
13193,-50,4,2,1,40,0,0
13369,-50,4,2,1,5,0,0
13546,-200,4,2,1,60,0,0
13899,-100,4,2,1,60,0,0
14957,-200,4,2,1,60,0,0
15222,-200,4,2,1,5,0,0
15310,-100,4,2,1,60,0,0
16457,-100,4,2,1,5,0,0
16546,-100,4,2,1,60,0,0
20251,-200,4,2,1,60,0,0
20693,-200,4,2,1,5,0,0
20781,-200,4,2,1,60,0,0
20957,-100,4,2,1,60,0,0
24840,-200,4,2,1,60,0,0
25016,-200,4,2,1,5,0,0
25193,-133.333333333333,4,2,1,60,0,0
26075,-100,4,2,1,60,0,0
26781,-133.333333333333,4,2,1,60,0,0
26869,-133.333333333333,4,2,1,20,0,0
26957,-133.333333333333,4,2,1,5,0,0
27134,-100,4,2,1,60,0,0
27663,-200,4,2,1,60,0,0
27840,-200,4,2,1,5,0,0
28016,-133.333333333333,4,2,1,60,0,0
28546,-100,4,2,1,60,0,0
28722,-100,4,2,1,5,0,0
28899,-100,4,2,1,60,0,0
29075,-133.333333333333,4,2,1,60,0,0
29251,-133.333333333333,4,2,1,5,0,0
29428,-100,4,2,1,60,0,0
30487,-80,4,2,1,60,0,0
32693,-80,4,2,1,25,0,0
32781,-80,4,2,1,60,0,0
34457,-80,4,2,1,5,0,0
34546,-80,4,2,1,60,0,0
35781,-200,4,2,1,30,0,0
36046,-200,4,2,1,5,0,0
36134,-80,4,2,1,80,0,0
37457,-80,4,2,1,25,0,0
37546,-80,4,2,1,80,0,0
38251,-200,4,2,1,80,0,0
38516,-200,4,2,1,5,0,0
38604,-66.6666666666667,4,2,1,80,0,0
38781,-66.6666666666667,4,2,1,20,0,0
38957,-80,4,2,1,80,0,0
39663,-133.333333333333,4,2,1,80,0,0
39928,-133.333333333333,4,2,1,5,0,0
40016,-133.333333333333,4,2,1,80,0,0
40722,-100,4,2,1,80,0,0
41781,-80,4,2,1,80,0,0
41869,-80,4,2,1,25,0,0
41957,-80,4,2,1,80,0,0
42134,-80,4,2,1,80,0,0
42222,-80,4,2,1,25,0,0
42310,-80,4,2,1,80,0,0
42487,-80,4,2,1,80,0,0
42575,-80,4,2,1,25,0,0
42663,-80,4,2,1,80,0,0
42840,-80,4,2,1,80,0,0
42928,-80,4,2,1,25,0,0
43016,-80,4,2,1,80,0,0
43193,-57.1428571428571,4,2,1,80,0,0
43281,-57.1428571428571,4,2,1,40,0,0
43369,-57.1428571428571,4,2,1,80,0,0
43546,-57.1428571428571,4,2,1,80,0,0
43634,-57.1428571428571,4,2,1,40,0,0
43722,-57.1428571428571,4,2,1,80,0,0
43899,-57.1428571428571,4,2,1,80,0,0
43987,-57.1428571428571,4,2,1,40,0,0
44075,-57.1428571428571,4,2,1,80,0,0
44251,-57.1428571428571,4,2,1,80,0,0
44339,-57.1428571428571,4,2,1,40,0,0
44427,-57.1428571428571,4,2,1,80,0,0
44604,-50,4,2,1,80,0,0
44693,-50,4,2,1,20,0,0
44781,-50,4,2,1,80,0,0
44957,-50,4,2,1,80,0,0
45046,-50,4,2,1,20,0,0
45134,-50,4,2,1,80,0,0
45310,-50,4,2,1,80,0,0
45399,-50,4,2,1,20,0,0
45487,-50,4,2,1,80,0,0
45840,-133.333333333333,4,2,1,80,0,0
45928,-133.333333333333,4,2,1,20,0,0
46016,-100,4,2,1,80,0,0
46634,-100,4,2,1,20,0,0
46722,-100,4,2,1,80,0,0
47428,-200,4,2,1,80,0,0
47693,-200,4,2,1,5,0,0
47781,-66.6666666666667,4,2,1,80,0,0
48487,-80,4,2,1,80,0,0
49457,-80,4,2,1,5,0,0
49546,-80,4,2,1,80,0,0
51222,-80,4,2,1,20,0,0
51310,-80,4,2,1,80,0,0
51928,-80,4,2,1,20,0,0
52016,-80,4,2,1,80,0,0
52369,-100,4,2,1,80,0,0
52634,-100,4,2,1,20,0,0
52722,-80,4,2,1,80,0,0
53075,-100,4,2,1,80,0,0
53163,-100,4,2,1,10,0,0
53251,-100,4,2,1,80,0,0
53428,-100,4,2,1,80,0,0
53516,-100,4,2,1,10,0,0
53604,-100,4,2,1,80,0,0
53781,-100,4,2,1,80,0,0
53869,-100,4,2,1,10,0,0
53957,-100,4,2,1,80,0,0
54134,-100,4,2,1,80,0,0
54222,-100,4,2,1,10,0,0
54310,-100,4,2,1,80,0,0
54487,-80,4,2,1,80,0,0
54575,-80,4,2,1,20,0,0
54663,-80,4,2,1,80,0,0
54840,-80,4,2,1,80,0,0
54928,-80,4,2,1,20,0,0
55016,-80,4,2,1,80,0,0
55193,-66.6666666666667,4,2,1,80,0,0
55281,-66.6666666666667,4,2,1,30,0,0
55369,-66.6666666666667,4,2,1,80,0,0
55546,-66.6666666666667,4,2,1,80,0,0
55634,-66.6666666666667,4,2,1,30,0,0
55722,-66.6666666666667,4,2,1,80,0,0
55899,-100,4,2,1,80,0,0
58369,-133.333333333333,4,2,1,80,0,0
59075,-100,4,2,1,80,0,0
59781,-133.333333333333,4,2,1,80,0,0
60487,-100,4,2,1,80,0,0
62957,-133.333333333333,4,2,1,80,0,0
63663,-100,4,2,1,80,0,0
65781,-133.333333333333,4,2,1,80,0,0
66487,-100,4,2,1,80,0,0
66751,-100,4,2,1,20,0,0
66840,-80,4,2,1,80,0,0
68869,-80,4,2,1,20,0,0
68957,-80,4,2,1,80,0,0
69575,-80,4,2,1,10,0,0
69663,-80,4,2,1,80,0,0
70281,-80,4,2,1,10,0,0
70369,-80,4,2,1,80,0,0
70987,-80,4,2,1,10,0,0
71075,-80,4,2,1,80,0,0
71693,-80,4,2,1,10,0,0
71781,-200,4,2,1,80,0,0
72046,-200,4,2,1,5,0,0
72134,-100,4,2,1,80,0,0
72840,-80,4,2,1,80,0,0
72928,-80,4,2,1,5,0,0
73016,-80,4,2,1,80,0,0
73193,-80,4,2,1,80,0,0
73281,-80,4,2,1,5,0,0
73369,-80,4,2,1,80,0,0
73546,-80,4,2,1,80,0,0
73634,-80,4,2,1,5,0,0
73722,-80,4,2,1,80,0,0
73899,-80,4,2,1,80,0,0
73987,-80,4,2,1,20,0,0
74075,-80,4,2,1,80,0,0
74251,-66.6666666666667,4,2,1,80,0,0
74340,-66.6666666666667,4,2,1,5,0,0
74428,-66.6666666666667,4,2,1,80,0,0
74604,-66.6666666666667,4,2,1,80,0,0
74693,-66.6666666666667,4,2,1,5,0,0
74781,-66.6666666666667,4,2,1,80,0,0
74957,-66.6666666666667,4,2,1,80,0,0
75046,-66.6666666666667,4,2,1,5,0,0
75134,-66.6666666666667,4,2,1,80,0,0
75303,-200,4,2,1,80,0,0
75487,-200,4,2,1,5,0,0
75663,-100,4,2,1,80,0,0
84134,-133.333333333333,4,2,1,80,0,0
84310,-133.333333333333,4,2,1,5,0,0
84399,-133.333333333333,4,2,1,80,0,0
84487,-100,4,2,1,80,0,0

[Colours]
Combo1 : 191,96,0
Combo2 : 143,32,255
Combo3 : 191,0,96
Combo4 : 0,80,159

[HitObjects]
355,136,1546,6,2,L|383:132,1,27,2|0,0:0|0:0,0:1:0:0:
481,71,2252,6,0,L|470:178,1,90,10|0,0:0|0:0,0:0:0:0:
496,256,2604,2,0,L|388:250,1,90,10|2,0:0|0:0,0:0:0:0:
279,188,2957,5,10,0:0:0:0:
194,249,3134,2,0,P|182:289|191:349,2,90,0|10|2,0:0|0:0|0:0,0:0:0:0:
116,142,3663,5,10,0:0:0:0:
143,45,3840,2,0,P|101:23|44:28,2,90,0|8|2,0:0|0:0|0:0,0:0:0:0:
55,214,4369,5,8,0:0:0:0:
83,328,4546,2,0,L|178:313,1,90,2|8,0:0|0:0,0:0:0:0:
280,204,4899,1,2,0:0:0:0:
246,364,5075,6,0,L|342:380,1,90,8|2,0:0|0:0,0:0:0:0:
418,342,5428,2,0,P|437:292|430:246,1,90,8|2,0:0|0:0,0:0:0:0:
245,133,5781,5,10,0:0:0:0:
333,8,5957,1,2,0:0:0:0:
403,120,6134,2,0,L|297:98,1,90,10|2,0:0|0:0,0:0:0:0:
93,34,6487,5,10,0:0:0:0:
63,203,6663,2,0,L|162:180,1,90,2|8,0:0|0:0,0:0:0:0:
102,112,7016,1,2,0:0:0:0:
328,197,7193,5,10,0:0:0:0:
328,197,7369,1,2,0:0:0:0:
403,120,7546,2,0,P|412:72|392:28,1,90,10|2,0:0|0:0,0:0:0:0:
229,142,7899,6,0,L|245:236,1,90,10|0,0:0|0:0,0:0:0:0:
214,366,8251,2,0,L|332:349,1,90,10|2,0:0|0:0,0:0:0:0:
469,194,8604,5,10,0:0:0:0:
500,264,8781,1,2,0:0:0:0:
454,321,8957,2,0,L|336:304,1,90,10|2,0:0|0:0,0:0:0:0:
181,281,9310,5,10,0:0:0:0:
181,281,9487,1,0,0:0:0:0:
68,363,9663,2,0,L|81:266,1,90,10|2,0:0|0:0,0:0:0:0:
229,142,10016,5,8,0:0:0:0:
343,29,10193,2,0,P|346:69|322:111,1,90,2|8,0:0|0:0,0:0:0:0:
363,266,10546,2,0,P|326:248|302:206,1,90,2|8,0:0|0:0,0:0:0:0:
147,164,10899,2,0,P|180:141|228:141,2,90,2|10|0,0:0|0:0|0:0,0:0:0:0:
343,29,11428,5,8,0:0:0:0:
302,206,11604,2,0,P|323:245|363:266,2,90,2|10|2,0:0|0:0|0:0,0:0:0:0:
491,174,12134,5,10,0:0:0:0:
487,187,12487,1,10,0:0:0:0:
483,200,12840,1,8,0:0:0:0:
479,213,13193,6,0,B|437:207|437:207|431:212|431:212|353:209|353:209|345:205|345:205|284:207,1,180,2|2,0:3|0:0,0:0:0:0:
153,124,13546,6,0,L|163:182,1,45,10|0,0:0|0:0,0:0:0:0:
103,349,13899,1,2,1:2:0:0:
212,277,14075,1,2,0:0:0:0:
40,222,14251,6,0,P|28:165|40:122,1,90,10|2,0:0|0:0,0:0:0:0:
196,42,14604,1,2,1:2:0:0:
160,168,14781,1,2,0:0:0:0:
328,151,14957,6,0,L|317:79,1,67.5,10|0,0:0|0:0,0:0:0:0:
374,26,15310,1,0,1:0:0:0:
476,156,15487,1,2,0:0:0:0:
476,156,15663,2,0,L|459:266,2,90,8|2|0,0:0|0:0|1:0,0:0:0:0:
353,260,16193,6,0,L|210:277,1,135,2|0,0:0|0:0,0:0:0:0:
177,209,16546,1,2,0:0:0:0:
26,253,16722,5,0,1:0:0:0:
2,377,16899,1,2,0:0:0:0:
189,296,17075,2,0,P|189:248|168:193,1,90,10|2,0:0|0:0,0:0:0:0:
35,112,17428,2,0,L|134:94,1,90,2|2,1:2|0:0,0:0:0:0:
293,9,17781,5,10,0:0:0:0:
480,94,17957,1,2,0:0:0:0:
480,94,18134,2,0,P|486:148|468:191,1,90,0|2,1:0|0:0,0:0:0:0:
326,217,18487,5,10,0:0:0:0:
358,95,18663,1,2,0:0:0:0:
216,59,18840,2,0,L|226:181,1,90,2|2,1:2|0:0,0:0:0:0:
147,296,19193,5,10,0:0:0:0:
301,317,19369,1,0,0:0:0:0:
239,358,19546,6,0,L|345:344,1,90,2|0,1:2|0:0,0:0:0:0:
481,318,19899,5,10,0:0:0:0:
257,235,20075,1,2,0:0:0:0:
478,140,20251,5,2,1:2:0:0:
394,231,20428,2,0,L|322:213,1,67.5,2|0,0:0|0:0,0:0:0:0:
257,235,20781,1,2,0:0:0:0:
81,191,20957,6,0,L|104:294,1,90,2|2,1:2|0:0,0:0:0:0:
55,364,21310,1,8,0:0:0:0:
174,312,21487,6,0,L|267:328,1,90,2|2,0:0|1:2,0:0:0:0:
425,199,21840,2,0,L|332:215,1,90,2|8,0:0|0:0,0:0:0:0:
192,146,22193,6,0,P|176:95|188:55,2,90,2|2|0,0:0|1:2|0:0,0:0:0:0:
361,122,22722,5,10,0:0:0:0:
336,214,22899,2,0,L|458:232,2,90,2|0|2,0:0|1:0|0:0,0:0:0:0:
481,171,23428,5,10,0:0:0:0:
441,351,23781,5,2,1:2:0:0:
227,293,24134,5,10,0:0:0:0:
192,37,24487,5,2,1:2:0:0:
83,188,24840,6,0,L|157:195,1,67.5,10|0,0:1|0:0,0:0:0:0:
221,150,25193,5,2,1:2:0:0:
323,222,25369,2,0,L|306:144,1,67.5000025749208,10|2,1:1|0:0,0:0:0:0:
421,50,25722,2,0,L|408:120,1,67.5000025749208,10|0,0:1|1:2,0:0:0:0:
323,222,26075,6,0,L|421:241,2,90,10|2|2,0:1|0:0|0:0,0:0:0:0:
271,302,26604,1,2,1:2:0:0:
93,222,26781,6,0,L|79:172,2,33.7500012874604,2|0|0,1:2|0:0|0:0,0:0:0:0:
71,338,27134,1,10,0:1:0:0:
71,338,27310,2,0,L|162:315,1,90,2|2,1:2|0:0,0:0:0:0:
470,316,27663,6,0,P|472:346|465:370,1,45,10|0,0:1|0:0,0:0:0:0:
323,222,28016,5,2,1:2:0:0:
468,360,28193,2,0,L|457:271,1,67.5000025749208,10|2,1:1|0:0,0:0:0:0:
411,239,28546,6,0,L|426:137,1,90,10|0,0:1|1:2,0:0:0:0:
243,204,28899,1,10,0:1:0:0:
402,65,29075,6,0,L|491:83,1,67.5000025749208,2|2,0:0|0:0,0:0:0:0:
275,116,29428,5,2,1:2:0:0:
275,116,29604,1,2,1:2:0:0:
162,47,29781,2,0,L|172:136,1,90,10|2,0:1|0:0,0:0:0:0:
99,291,30134,5,10,0:1:0:0:
99,291,30310,2,0,L|148:282,1,45,2|0,0:0|0:0,0:0:0:0:
249,221,30487,6,0,L|230:346,1,112.5,14|0,0:0|0:0,0:0:0:0:
375,384,30840,1,2,1:2:0:0:
346,235,31016,1,2,1:2:0:0:
475,320,31193,6,0,P|490:288|490:211,1,112.5,10|2,0:0|0:0,0:0:0:0:
368,140,31546,1,0,1:0:0:0:
250,232,31722,5,2,0:0:0:0:
254,248,31810,1,0,0:0:0:0:
257,264,31899,2,0,L|139:253,1,112.5,8|2,0:0|0:0,0:0:0:0:
6,319,32251,1,2,1:2:0:0:
37,134,32428,1,2,1:2:0:0:
95,235,32604,6,0,L|157:224,1,56.25,8|0,0:0|0:0,0:0:0:0:
197,162,32781,2,0,L|176:33,2,112.5,2|2|2,0:0|1:2|0:0,0:0:0:0:
278,267,33310,5,10,0:0:0:0:
300,269,33399,1,0,0:0:0:0:
322,271,33487,1,2,0:0:0:0:
344,273,33575,1,0,0:0:0:0:
365,278,33663,2,0,P|361:242|350:217,1,56.25,2|0,1:2|0:0,0:0:0:0:
449,271,33840,2,0,P|445:294|433:331,1,56.25,0|0,1:0|0:0,0:0:0:0:
220,359,34016,5,10,0:0:0:0:
213,325,34104,1,0,0:0:0:0:
206,291,34193,1,2,0:0:0:0:
199,258,34281,1,0,0:0:0:0:
180,179,34369,6,0,L|246:198,1,56.25,0|0,1:0|0:0,0:0:0:0:
296,149,34546,1,2,0:0:0:0:
191,35,34722,5,8,0:0:0:0:
193,43,35075,5,10,0:0:0:0:
195,51,35428,5,10,0:0:0:0:
295,54,35781,6,0,L|368:60,1,67.5,2|0,0:1|0:0,0:0:0:0:
503,106,36134,6,0,L|371:126,2,112.5,14|2|0,0:0|0:0|1:0,0:0:0:0:
484,205,36663,1,2,0:0:0:0:
335,280,36840,6,0,L|194:255,1,112.5,10|0,0:0|0:0,0:0:0:0:
161,143,37193,1,2,1:2:0:0:
161,143,37369,2,0,L|152:211,1,56.25,2|0,0:0|0:0,0:0:0:0:
55,362,37546,6,0,L|187:336,1,112.5,8|2,0:0|0:0,0:0:0:0:
391,207,37899,5,2,1:2:0:0:
442,283,38075,1,2,0:0:0:0:
394,359,38251,6,0,L|322:346,1,67.5000025749208,10|0,0:0|0:0,0:0:0:0:
222,286,38604,6,0,L|248:137,1,135.000005149842,2|0,1:2|0:0,0:0:0:0:
469,24,38957,6,0,L|487:151,1,112.5,10|2,0:0|0:0,0:0:0:0:
480,146,39222,1,0,0:0:0:0:
476,157,39310,1,0,1:0:0:0:
333,184,39487,1,2,0:0:0:0:
211,35,39663,6,0,L|95:48,1,101.250003862381,10|0,0:0|0:0,0:0:0:0:
54,100,40016,5,2,1:2:0:0:
86,176,40193,1,2,0:0:0:0:
83,196,40281,1,0,0:0:0:0:
80,216,40369,1,8,0:0:0:0:
199,174,40546,1,2,0:0:0:0:
122,281,40722,6,0,L|139:377,1,90,2|2,1:2|0:0,0:0:0:0:
21,267,41075,1,10,0:0:0:0:
270,219,41251,1,2,0:0:0:0:
494,178,41428,6,0,L|471:271,1,90,2|2,1:2|0:0,0:0:0:0:
328,349,41781,6,0,L|240:343,1,56.25,10|0,0:0|0:0,0:0:0:0:
222,286,41957,1,0,0:0:0:0:
303,136,42134,6,0,L|391:142,1,56.25,2|0,1:2|0:0,0:0:0:0:
409,199,42310,1,0,0:0:0:0:
320,356,42487,6,0,L|232:350,1,56.25,10|0,0:0|0:0,0:0:0:0:
214,293,42663,1,0,0:0:0:0:
310,128,42840,6,0,L|398:134,1,56.25,2|0,1:2|0:0,0:0:0:0:
418,189,43016,2,0,P|425:215|417:248,1,56.25
214,293,43193,6,0,L|93:309,1,78.7500007510185,10|0,0:0|0:0,0:0:0:0:
87,248,43369,1,0,0:0:0:0:
124,61,43546,6,0,L|244:44,1,78.7500007510185,2|0,1:2|0:0,0:0:0:0:
251,105,43722,1,0,0:0:0:0:
209,305,43899,6,0,L|88:321,1,78.7500007510185,10|0,0:0|0:0,0:0:0:0:
83,260,44075,1,0,0:0:0:0:
128,49,44252,6,0,L|248:32,1,78.7500007510185,2|0,1:2|0:0,0:0:0:0:
258,97,44428,2,0,L|246:189,1,78.7500007510185
320,356,44604,6,0,P|356:368|411:354,1,90,10|0,0:0|0:0,0:0:0:0:
463,299,44781,1,0,0:0:0:0:
325,201,44957,6,0,L|214:214,1,90,2|0,1:2|0:0,0:0:0:0:
184,142,45134,1,2,0:0:0:0:
309,28,45310,6,0,L|402:48,1,90,10|0,0:0|0:0,0:0:0:0:
479,34,45487,2,0,L|451:150,1,90
332,180,45663,5,2,1:2:0:0:
332,180,45840,2,0,L|339:228,1,33.7500012874604,2|0,0:0|0:0,0:0:0:0:
374,292,46016,2,0,L|247:278,1,90,8|2,0:0|0:0,0:0:0:0:
151,365,46369,5,2,1:2:0:0:
151,365,46546,2,0,L|163:307,1,45,2|0,0:0|0:0,0:0:0:0:
209,234,46722,2,0,L|87:256,2,90,10|2|2,0:0|1:2|1:2,0:0:0:0:
314,98,47251,5,2,1:2:0:0:
316,112,47340,1,2,1:2:0:0:
318,126,47428,2,0,L|392:137,1,67.5,14|0,0:0|0:0,0:0:0:0:
475,79,47781,5,0,1:0:0:0:
475,79,47957,2,0,L|451:233,2,135.000005149842,2|10|2,0:0|0:0|0:0,0:0:0:0:
299,14,48487,5,0,1:0:0:0:
299,14,48663,1,2,0:0:0:0:
147,59,48840,2,0,L|180:183,1,112.5,10|2,0:0|0:0,0:0:0:0:
312,287,49193,5,2,1:2:0:0:
312,287,49369,2,0,L|376:277,1,56.25,2|0,0:0|0:0,0:0:0:0:
326,374,49546,1,8,0:0:0:0:
150,283,49722,6,0,L|11:311,2,112.5,2|2|2,0:0|1:2|0:0,0:0:0:0:
315,158,50251,5,8,0:0:0:0:
434,217,50428,2,0,P|454:281|434:333,2,112.5,2|2|2,0:0|1:2|0:0,0:0:0:0:
219,204,50957,5,8,0:0:0:0:
219,204,51134,2,0,L|229:133,1,56.25,2|0,0:0|0:0,0:0:0:0:
84,82,51310,6,0,L|208:64,1,112.5,2|2,1:2|0:0,0:0:0:0:
204,58,51575,1,0,0:0:0:0:
212,51,51663,5,8,0:0:0:0:
212,51,51840,2,0,L|276:60,1,56.25,2|0,0:0|0:0,0:0:0:0:
404,15,52016,2,0,L|378:146,1,112.5,2|0,1:2|0:0,0:0:0:0:
441,322,52369,5,10,0:0:0:0:
441,322,52546,2,0,L|383:316,1,45,2|0,0:0|0:0,0:0:0:0:
305,361,52722,6,0,L|290:236,1,112.5,2|2,1:2|0:0,0:0:0:0:
133,324,53075,6,0,L|82:326,1,45,10|0,0:0|0:0,0:0:0:0:
25,280,53251,1,0,0:0:0:0:
247,247,53428,6,0,L|298:249,1,45,2|0,1:2|0:0,0:0:0:0:
355,203,53604,1,0,0:0:0:0:
133,212,53781,6,0,L|82:214,1,45,10|0,0:0|0:0,0:0:0:0:
25,168,53957,1,0,0:0:0:0:
193,86,54134,6,0,L|244:84,1,45,2|0,1:2|0:0,0:0:0:0:
301,130,54310,2,0,L|365:133,1,45
468,202,54487,6,0,P|481:178|481:125,1,56.25,10|0,0:0|0:0,0:0:0:0:
452,84,54663,1,0,0:0:0:0:
301,130,54840,6,0,P|288:154|288:207,1,56.25,2|0,1:2|0:0,0:0:0:0:
317,248,55016,1,0,0:0:0:0:
423,371,55193,6,0,L|325:381,1,67.5000025749208,10|0,0:0|0:0,0:0:0:0:
284,339,55369,1,0,0:0:0:0:
126,367,55546,6,0,L|112:282,1,67.5000025749208,2|0,1:2|0:0,0:0:0:0:
179,244,55722,2,0,P|180:205|176:166,1,67.5000025749208
73,41,55899,6,0,L|271:74,1,180,14|0,0:0|1:0,0:0:0:0:
381,6,56428,1,0,0:0:0:0:
497,162,56604,6,0,L|462:372,1,180,10|2,0:0|1:2,0:0:0:0:
467,339,57134,1,0,0:0:0:0:
263,384,57310,6,0,L|245:286,1,90,10|0,0:0|0:0,0:0:0:0:
177,176,57663,2,0,L|160:264,1,90,2|0,1:2|0:0,0:0:0:0:
54,356,58016,2,0,P|104:373|159:357,1,90,10|0,0:0|0:0,0:0:0:0:
177,176,58369,6,0,L|38:148,1,135.000005149842,2|10,1:2|0:0,0:0:0:0:
20,51,58899,1,0,0:0:0:0:
232,20,59075,6,0,L|234:131,1,90,2|0,1:2|0:0,0:0:0:0:
285,275,59428,2,0,L|287:186,1,90,10|0,0:0|0:0,0:0:0:0:
367,94,59781,6,0,L|220:111,1,135.000005149842,2|10,1:2|0:0,0:0:0:0:
177,176,60310,1,0,0:0:0:0:
285,275,60487,6,0,L|387:256,1,90,2|0,1:2|0:0,0:0:0:0:
470,246,60840,2,0,P|494:299|485:343,1,90,10|0,0:0|0:0,0:0:0:0:
396,377,61193,1,2,1:2:0:0:
396,377,61369,1,0,0:0:0:0:
197,343,61546,6,0,L|216:216,1,90,10|0,0:0|0:0,0:0:0:0:
102,37,61899,2,0,L|121:164,1,90,2|0,1:2|0:0,0:0:0:0:
32,283,62251,6,0,P|74:301|125:278,1,90,10|0,0:0|0:0,0:0:0:0:
278,112,62604,2,0,P|236:94|185:117,1,90,2|0,1:2|0:0,0:0:0:0:
210,253,62957,6,0,L|364:282,1,135.000005149842,10|2,0:0|1:2,0:0:0:0:
388,371,63487,1,2,0:0:0:0:
489,233,63663,6,0,P|505:191|505:146,1,90,10|0,0:0|0:0,0:0:0:0:
446,78,64016,2,0,L|325:93,1,90,2|0,1:2|0:0,0:0:0:0:
170,30,64369,6,0,L|80:18,1,90,10|0,0:0|0:0,0:0:0:0:
20,87,64722,2,0,P|20:131|36:173,1,90,2|0,1:2|0:0,0:0:0:0:
127,316,65075,6,0,L|233:301,1,90,10|0,0:0|0:0,0:0:0:0:
288,162,65428,2,0,L|182:147,1,90,2|0,1:2|0:0,0:0:0:0:
20,87,65781,6,0,L|14:247,1,135,10|0,0:0|1:0,0:0:0:0:
14,221,66310,1,2,0:0:0:0:
198,149,66487,5,8,0:0:0:0:
198,149,66663,2,0,L|257:137,1,45,2|0,0:0|0:0,0:0:0:0:
343,101,66840,6,0,L|320:224,1,112.5,2|2,1:2|0:0,0:0:0:0:
228,364,67193,5,14,0:0:0:0:
348,316,67369,2,0,L|487:344,2,112.5,2|0|2,0:0|1:0|0:0,0:0:0:0:
128,318,67898,5,10,0:0:0:0:
22,357,68075,2,0,P|5:305|13:244,2,112.5,2|0|2,0:0|1:0|0:0,0:0:0:0:
131,235,68604,5,10,0:0:0:0:
131,235,68781,2,0,L|189:220,1,56.25,2|0,0:0|0:0,0:0:0:0:
263,145,68957,2,0,L|279:256,1,112.5,2|2,1:2|0:0,0:0:0:0:
278,269,69222,1,0,0:0:0:0:
276,282,69310,5,8,0:0:0:0:
276,282,69487,2,0,L|340:291,1,56.25,2|0,0:0|0:0,0:0:0:0:
417,366,69663,2,0,L|438:255,1,112.5,2|2,1:2|0:0,0:0:0:0:
476,106,70016,5,8,0:0:0:0:
476,106,70193,2,0,L|414:100,1,56.25,2|0,0:0|0:0,0:0:0:0:
316,33,70369,6,0,L|329:144,1,112.5,2|2,1:2|0:0,0:0:0:0:
279,256,70722,5,8,0:0:0:0:
279,256,70899,2,0,L|212:262,1,56.25,2|0,0:0|0:0,0:0:0:0:
121,322,71075,6,0,L|134:210,1,112.5,2|2,1:2|0:0,0:0:0:0:
12,23,71428,5,8,0:0:0:0:
51,115,71604,2,0,L|121:129,1,56.25,2|0,0:0|0:0,0:0:0:0:
182,69,71781,6,0,L|252:53,1,67.5,2|0,1:2|0:0,0:0:0:0:
347,23,72134,6,0,L|364:138,1,90,8|2,0:0|0:0,0:0:0:0:
292,345,72487,2,0,L|278:255,1,90,2|2,1:2|0:0,0:0:0:0:
481,151,72840,6,0,P|495:179|493:213,1,56.25,10|0,0:0|0:0,0:0:0:0:
467,274,73016,1,0,0:0:0:0:
292,345,73193,6,0,P|278:317|280:283,1,56.25,2|0,1:2|0:0,0:0:0:0:
306,222,73369,1,0,0:0:0:0:
473,361,73546,6,0,L|405:348,1,56.25,10|0,0:0|0:0,0:0:0:0:
360,291,73722,1,0,0:0:0:0:
212,225,73899,6,0,L|144:238,1,56.25,2|0,1:2|0:0,0:0:0:0:
85,283,74075,2,0,P|85:315|100:345,1,56.25
262,345,74251,6,0,L|278:262,1,67.5000025749208,10|0,0:0|0:0,0:0:0:0:
328,217,74428,1,0,0:0:0:0:
226,150,74604,6,0,L|210:67,1,67.5000025749208,2|0,1:2|0:0,0:0:0:0:
160,22,74781,1,0,0:0:0:0:
27,190,74957,6,0,L|103:175,1,67.5000025749208,10|0,0:0|0:0,0:0:0:0:
156,235,75134,1,0,0:0:0:0:
316,178,75310,6,0,L|392:193,1,67.5000025749208,2|0,0:0|0:0,0:0:0:0:
483,147,75663,6,0,L|460:270,1,90,14|0,0:1|0:0,0:0:0:0:
468,248,75928,1,2,0:1:0:0:
472,260,76016,1,0,1:0:0:0:
496,368,76193,1,2,0:1:0:0:
350,315,76369,6,0,L|223:333,1,90,10|0,0:1|0:0,0:0:0:0:
42,321,76722,2,0,L|131:308,1,90,2|2,1:1|0:1,0:0:0:0:
240,179,77075,6,0,L|253:66,1,90,14|0,0:1|0:0,0:0:0:0:
246,76,77340,1,2,0:1:0:0:
241,63,77428,1,0,1:0:0:0:
353,29,77604,1,2,0:1:0:0:
99,8,77781,6,0,P|86:55|117:107,1,90,10|2,0:1|0:1,0:0:0:0:
382,200,78134,2,0,P|395:153|364:101,1,90,2|2,1:1|0:1,0:0:0:0:
158,230,78487,6,0,L|35:207,1,90,14|0,0:1|0:0,0:0:0:0:
57,215,78751,1,2,0:1:0:0:
45,219,78839,1,0,1:0:0:0:
80,359,79016,1,2,0:1:0:0:
255,312,79193,6,0,L|261:209,1,90,10|0,0:1|0:0,0:0:0:0:
225,30,79546,2,0,L|219:119,1,90,2|2,1:1|0:1,0:0:0:0:
367,199,79899,6,0,L|490:176,1,90,14|0,0:1|0:0,0:0:0:0:
468,184,80163,1,2,0:1:0:0:
480,188,80251,1,0,1:0:0:0:
444,73,80428,1,2,0:1:0:0:
225,30,80604,6,0,P|180:27|136:37,1,90,10|2,0:1|0:1,0:0:0:0:
216,300,80957,2,0,P|260:302|304:292,1,90,2|2,1:1|0:1,0:0:0:0:
49,145,81310,6,0,L|26:268,1,90,14|0,0:1|0:0,0:0:0:0:
34,246,81575,1,2,0:1:0:0:
38,258,81663,1,0,1:0:0:0:
121,362,81840,1,2,0:1:0:0:
304,292,82016,6,0,L|417:288,1,90,10|0,0:1|0:0,0:0:0:0:
121,362,82369,2,0,L|8:358,1,90,2|2,1:1|0:1,0:0:0:0:
472,366,82722,6,0,P|492:309|485:264,1,90,14|0,0:1|0:0,0:0:0:0:
486,267,82987,1,2,0:1:0:0:
482,253,83075,1,0,1:0:0:0:
304,292,83251,1,2,0:1:0:0:
374,116,83428,6,0,L|479:130,1,90,10|2,0:1|0:1,0:0:0:0:
125,222,83781,2,0,L|230:208,1,90,2|2,1:1|0:1,0:0:0:0:
57,77,84134,6,0,L|157:102,1,101.250003862381,14|2,0:1|0:1,0:0:0:0:
238,52,84487,6,0,L|350:26,1,90,0|2,0:0|0:1,0:0:0:0:
463,127,84840,6,0,P|476:184|466:231,1,90,2|2,0:1|0:1,0:0:0:0:
332,254,85193,2,0,P|319:210|323:166,1,90,2|2,0:1|0:1,0:0:0:0:
482,368,85546,5,10,0:1:0:0:
482,368,85810,1,2,0:1:0:0:
482,368,86075,1,2,0:1:0:0:
366,329,86251,6,0,L|258:343,1,90,2|2,0:1|0:1,0:0:0:0:
211,375,86604,2,0,L|103:361,1,90,2|2,0:1|0:1,0:0:0:0:
25,209,86957,5,14,0:1:0:0:
