osu file format v14

[General]
AudioFilename: audio.mp3
AudioLeadIn: 0
PreviewTime: 35737
Countdown: 0
SampleSet: Soft
StackLeniency: 0.3
Mode: 0
LetterboxInBreaks: 0
WidescreenStoryboard: 0

[Editor]
Bookmarks: 13545,24839,36134,67192,75663
DistanceSpacing: 1.7
BeatDivisor: 8
GridSize: 32
TimelineZoom: 3.599999

[Metadata]
Title:Kaibutsu (TV Size)
TitleUnicode:怪物 (TV Size)
Artist:YOASOBI
ArtistUnicode:YOASOBI
Creator:Flask
Version:Monster
Source:BEASTARS
Tags:second season 2nd opening op ビースターズ japanese anime pop jpop j-pop 幾田りら ikuta rira lilas ayase ikura cubby -keitaro digidrake heilia regou asphyxia miyohashikoori legosi louis haru
BeatmapID:2754891
BeatmapSetID:1329716

[Difficulty]
HPDrainRate:5.5
CircleSize:4.2
OverallDifficulty:8.7
ApproachRate:9.4
SliderMultiplier:1.8
SliderTickRate:1

[Events]
//Background and Video events
0,0,"wp4846206-beastars-wallpapers.jpg",0,0
Video,0,"BeastarsS2-OP1.mp4"
//Break Periods
//Storyboard Layer 0 (Background)
//Storyboard Layer 1 (Fail)
//Storyboard Layer 2 (Pass)
//Storyboard Layer 3 (Foreground)
//Storyboard Layer 4 (Overlay)
//Storyboard Sound Samples

[TimingPoints]
840,352.941176470588,4,2,1,50,1,0
2251,-133.333333333333,4,2,1,50,0,0
13192,-133.333333333333,4,2,3,50,0,0
13545,-100,4,3,2,65,0,0
13634,-100,4,2,2,65,0,0
23781,-125,4,2,2,62,0,0
24134,-166.666666666667,4,2,2,57,0,0
24487,-250,4,2,2,54,0,0
24839,-100,4,2,2,50,0,0
30487,-83.3333333333333,4,2,2,50,0,0
35781,-66.6666666666667,4,2,1,50,0,0
36134,-66.6666666666667,4,2,1,80,0,1
36310,-50,4,2,1,80,0,1
36663,-66.6666666666667,4,2,1,80,0,1
36839,-50,4,2,1,80,0,1
37192,-66.6666666666667,4,2,1,80,0,1
37369,-47.6190476190476,4,2,1,80,0,1
37722,-66.6666666666667,4,2,1,80,0,1
38251,-45.4545454545455,4,2,1,80,0,1
38957,-66.6666666666667,4,2,1,80,0,1
39134,-50,4,2,1,80,0,1
39487,-66.6666666666667,4,2,1,80,0,1
39663,-50,4,2,1,80,0,1
40016,-66.6666666666667,4,2,1,80,0,1
40192,-50,4,2,1,80,0,1
40545,-66.6666666666667,4,2,1,80,0,1
41604,-83.3333333333333,4,2,1,80,0,1
41781,-66.6666666666667,4,2,1,80,0,1
42045,-66.6666666666667,4,2,1,5,0,1
42134,-76.9230769230769,4,2,1,80,0,1
42398,-66.6666666666667,4,2,1,5,0,1
42487,-62.5,4,2,1,80,0,1
42839,-50,4,2,1,80,0,1
43104,-66.6666666666667,4,2,1,5,0,1
43192,-55.5555555555556,4,2,1,80,0,1
43457,-66.6666666666667,4,2,1,5,0,1
43545,-71.4285714285714,4,2,1,80,0,1
43810,-66.6666666666667,4,2,1,5,0,1
43898,-58.8235294117647,4,2,1,80,0,1
44163,-66.6666666666667,4,2,1,5,0,1
44251,-50,4,2,1,80,0,1
44516,-66.6666666666667,4,2,1,5,0,1
44604,-66.6666666666667,4,2,1,80,0,1
45663,-66.6666666666667,4,2,1,80,0,1
45839,-50,4,2,1,80,0,1
47428,-55.5555555555556,4,2,1,80,0,1
47781,-66.6666666666667,4,2,1,80,0,1
47957,-58.8235294117647,4,2,1,80,0,1
49192,-50,4,2,1,80,0,1
51839,-66.6666666666667,4,2,1,80,0,1
52016,-58.8235294117647,4,2,1,80,0,1
53075,-66.6666666666667,4,2,1,80,0,1
53339,-66.6666666666667,4,2,1,5,0,1
53428,-66.6666666666667,4,2,1,80,0,1
53692,-66.6666666666667,4,2,1,5,0,1
53781,-66.6666666666667,4,2,1,80,0,1
54751,-66.6666666666667,4,2,1,5,0,1
54840,-66.6666666666667,4,2,1,80,0,1
55898,-83.3333333333333,4,2,1,70,0,0
65428,-66.6666666666667,4,2,1,70,0,0
65692,-66.6666666666667,4,2,1,5,0,0
65781,-83.3333333333333,4,2,1,70,0,0
67192,-66.6666666666667,4,2,1,80,0,0
67369,-50,4,2,1,80,0,0
67722,-71.4285714285714,4,2,1,80,0,0
67898,-62.5,4,2,1,80,0,0
68075,-50,4,2,1,80,0,0
68428,-71.4285714285714,4,2,1,80,0,0
68957,-62.5,4,2,1,80,0,0
69134,-50,4,2,1,80,0,0
71604,-66.6666666666667,4,2,1,80,0,0
71781,-50,4,2,1,80,0,0
72839,-66.6666666666667,4,2,1,80,0,0
73104,-66.6666666666667,4,2,1,5,0,0
73192,-66.6666666666667,4,2,1,80,0,0
73457,-66.6666666666667,4,2,1,5,0,0
73545,-66.6666666666667,4,2,1,80,0,0
73810,-66.6666666666667,4,2,1,5,0,0
73898,-66.6666666666667,4,2,1,80,0,0
74163,-66.6666666666667,4,2,1,5,0,0
74251,-66.6666666666667,4,2,1,80,0,0
74516,-66.6666666666667,4,2,1,5,0,0
74604,-66.6666666666667,4,2,1,80,0,0
74869,-66.6666666666667,4,2,1,5,0,0
74957,-55.5555555555556,4,2,1,80,0,0
75222,-55.5555555555556,4,2,1,5,0,0
75310,-500,4,2,1,40,0,0
75575,-500,4,2,1,5,0,0
75663,-45.4545454545455,4,2,1,75,0,0
76016,-66.6666666666667,4,2,1,75,0,0
76369,-40,4,2,1,75,0,0
76501,-40,4,2,1,5,0,0
76545,-66.6666666666667,4,2,1,75,0,0
76634,-40,4,2,1,5,0,0
76722,-40,4,2,1,75,0,0
76854,-40,4,2,1,5,0,0
76898,-40,4,2,1,75,0,0
77031,-40,4,2,1,5,0,0
77075,-45.4545454545455,4,2,1,75,0,0
77428,-66.6666666666667,4,2,1,75,0,0
77957,-40,4,2,1,75,0,0
78089,-40,4,2,1,5,0,0
78134,-40,4,2,1,75,0,0
78266,-40,4,2,1,5,0,0
78311,-40,4,2,1,75,0,0
78442,-40,4,2,1,5,0,0
78487,-45.4545454545455,4,2,1,75,0,0
78751,-66.6666666666667,4,2,1,75,0,0
79192,-40,4,2,1,75,0,0
79325,-40,4,2,1,5,0,0
79369,-66.6666666666667,4,2,1,75,0,0
79545,-40,4,2,1,75,0,0
79678,-40,4,2,1,5,0,0
79722,-40,4,2,1,75,0,0
79854,-40,4,2,1,5,0,0
79898,-45.4545454545455,4,2,1,75,0,0
80251,-66.6666666666667,4,2,1,75,0,0
80604,-40,4,2,1,75,0,0
80737,-40,4,2,1,5,0,0
80781,-40,4,2,1,75,0,0
80913,-40,4,2,1,5,0,0
80957,-40,4,2,1,75,0,0
81089,-40,4,2,1,5,0,0
81134,-33.3333333333333,4,2,1,75,0,0
81310,-41.6666666666667,4,2,1,75,0,0
81575,-58.8235294117647,4,2,1,75,0,0
82016,-38.4615384615385,4,2,1,75,0,0
82148,-38.4615384615385,4,2,1,5,0,0
82192,-58.8235294117647,4,2,1,75,0,0
82369,-38.4615384615385,4,2,1,75,0,0
82501,-38.4615384615385,4,2,1,5,0,0
82545,-38.4615384615385,4,2,1,75,0,0
82678,-38.4615384615385,4,2,1,5,0,0
82722,-41.6666666666667,4,2,1,75,0,0
82987,-58.8235294117647,4,2,1,75,0,0
83604,-38.4615384615385,4,2,1,75,0,0
83737,-38.4615384615385,4,2,1,5,0,0
83781,-38.4615384615385,4,2,1,75,0,0
83913,-38.4615384615385,4,2,1,5,0,0
83957,-38.4615384615385,4,2,1,75,0,0
84089,-38.4615384615385,4,2,1,5,0,0
84134,-100,4,2,2,60,0,0
84222,-100,4,2,1,60,0,0
86957,-100,4,2,1,80,0,0

[Colours]
Combo1 : 79,79,79
Combo2 : 242,153,75
Combo3 : 227,80,80
Combo4 : 102,179,255
Combo5 : 122,235,232
Combo6 : 121,121,189
Combo7 : 152,49,255
Combo8 : 157,157,157

[HitObjects]
32,193,1545,118,0,B|94:224|90:114|157:103|213:159|206:237|106:249|121:180,1,270
119,187,2251,102,0,L|101:111,1,67.5000025749208,2|0,1:2|0:0,0:0:0:0:
208,143,2604,2,0,L|190:67,1,67.5000025749208,0|0,1:0|0:0,0:0:0:0:
261,11,2957,1,2,1:2:0:0:
261,11,3134,1,0,0:0:0:0:
392,148,3310,1,0,1:0:0:0:
314,207,3487,1,0,0:0:0:0:
406,48,3663,6,0,P|440:62|489:68,1,67.5000025749208,2|0,1:2|0:0,0:0:0:0:
302,113,4016,1,0,1:0:0:0:
463,258,4192,2,0,P|466:223|483:180,1,67.5000025749208,2|0,0:0|1:0,0:0:0:0:
244,305,4545,2,0,P|228:267|203:237,1,67.5000025749208,2|0,0:0|1:0,0:0:0:0:
371,367,4898,101,2,0:0:0:0:
371,367,5251,1,0,0:0:0:0:
360,272,5428,1,2,1:2:0:0:
349,177,5604,1,0,0:0:0:0:
496,108,5781,5,0,1:0:0:0:
415,63,5957,1,0,0:0:0:0:
306,11,6134,1,2,1:2:0:0:
192,95,6310,1,0,0:0:0:0:
231,352,6487,101,0,1:0:0:0:
276,281,6663,2,0,P|278:247|293:203,1,67.5000025749208,2|0,0:0|1:0,0:0:0:0:
41,173,7016,2,0,P|52:213|54:248,1,67.5000025749208,2|0,0:0|1:0,0:0:0:0:
157,291,7369,1,2,0:0:0:0:
69,353,7545,1,0,1:0:0:0:
138,204,7722,1,0,0:0:0:0:
277,291,7898,6,0,L|348:309,1,67.5000025749208,2|0,1:2|0:0,0:0:0:0:
319,209,8251,2,0,L|390:227,1,67.5000025749208,0|0,1:0|0:0,0:0:0:0:
480,261,8604,1,2,1:2:0:0:
430,47,8781,1,0,0:0:0:0:
412,143,8957,101,0,1:0:0:0:
506,105,9134,1,0,0:0:0:0:
341,22,9310,5,2,1:2:0:0:
234,145,9487,1,0,0:0:0:0:
88,60,9663,1,0,1:0:0:0:
171,6,9839,2,0,P|173:49|173:88,1,67.5000025749208,2|0,0:0|1:0,0:0:0:0:
308,177,10192,1,2,0:0:0:0:
174,225,10369,1,0,1:0:0:0:
274,68,10545,102,0,P|310:78|353:80,1,67.5000025749208,2|0,0:0|1:0,0:0:0:0:
121,146,10898,1,2,0:0:0:0:
221,302,11075,2,0,B|255:212|199:242|237:151,2,135.000005149842,0|0|0,1:0|1:0|1:0,0:0:0:0:
141,354,11957,1,2,0:0:0:0:
323,189,12134,5,0,1:0:0:0:
336,196,12487,1,0,1:0:0:0:
337,179,12839,1,0,1:0:0:0:
57,31,13192,102,0,B|52:33|39:32|39:32|50:33|52:40,2,33.7500012874604,8|0|0,0:0|0:0|0:0,0:0:0:0:
125,95,13545,85,4,1:3:0:0:
228,32,13722,1,0,0:0:0:0:
333,184,13898,6,0,L|330:166,1,11.25,8|0,1:2|0:0,0:0:0:0:
226,137,14075,1,0,0:0:0:0:
123,260,14251,101,2,1:2:0:0:
97,138,14428,1,0,0:0:0:0:
69,342,14604,6,0,L|56:357,1,11.25,8|0,1:2|0:0,0:0:0:0:
239,242,14781,1,0,0:0:0:0:
391,364,14957,102,0,P|427:349|444:301,1,90,2|0,1:2|0:0,0:0:0:0:
292,331,15310,2,0,L|276:341,1,11.25,8|0,1:2|0:0,0:0:0:0:
347,115,15487,2,0,B|364:185|324:167|359:262,1,135,2|0,0:0|0:0,0:0:0:0:
362,254,15839,1,2,0:0:0:0:
235,115,16016,2,0,L|217:111,1,11.25,8|0,1:2|0:0,0:0:0:0:
462,28,16192,5,2,0:0:0:0:
462,28,16545,1,0,0:0:0:0:
407,100,16722,2,0,L|415:117,1,11.25,10|0,1:2|0:0,0:0:0:0:
323,68,16898,1,0,0:0:0:0:
486,184,17075,101,2,1:2:0:0:
325,54,17251,1,0,0:0:0:0:
198,228,17428,6,0,L|181:225,1,11.25,8|0,1:2|0:0,0:0:0:0:
299,179,17604,1,0,0:0:0:0:
103,36,17781,102,0,P|88:56|81:77,1,45,2|0,1:2|0:0,0:0:0:0:
4,192,17957,2,0,P|14:214|28:231,1,45,2|0,0:0|0:0,0:0:0:0:
127,356,18134,2,0,L|143:354,1,11.25,8|0,1:2|0:0,0:0:0:0:
143,149,18310,1,2,0:0:0:0:
197,41,18487,5,0,1:0:0:0:
30,117,18663,1,2,0:0:0:0:
281,201,18839,102,0,L|298:206,1,11.25,8|0,1:2|0:0,0:0:0:0:
230,286,19016,1,0,0:0:0:0:
467,218,19192,6,0,P|473:267|488:313,1,90,2|0,1:2|0:0,0:0:0:0:
381,111,19545,2,0,L|370:96,1,11.25,10|0,1:2|0:0,0:0:0:0:
483,41,19722,1,0,0:0:0:0:
336,245,19898,101,2,1:2:0:0:
233,176,20075,1,0,0:0:0:0:
130,340,20251,2,0,L|113:338,1,11.25,8|0,1:2|0:0,0:0:0:0:
244,374,20428,2,0,L|221:280,1,90,2|0,0:0|1:0,0:0:0:0:
123,68,20781,5,0,0:0:0:0:
93,244,20957,2,0,L|97:261,1,11.25,10|0,1:2|0:0,0:0:0:0:
258,177,21134,2,0,L|359:193,1,90,2|0,0:0|1:0,0:0:0:0:
157,166,21487,101,2,0:0:0:0:
274,70,21663,2,0,L|286:61,1,11.25,8|0,1:2|0:0,0:0:0:0:
466,284,21839,2,0,P|438:210|342:192,1,180,2|2,0:0|0:0,0:0:0:0:
184,360,22369,6,0,L|163:363,1,11.25,8|0,1:2|0:0,0:0:0:0:
149,218,22545,1,0,0:0:0:0:
292,71,22722,101,0,1:0:0:0:
292,71,22898,1,0,0:0:0:0:
156,36,23075,6,0,L|138:41,1,11.25,8|0,1:2|0:0,0:0:0:0:
242,216,23251,1,0,0:0:0:0:
474,64,23428,102,0,P|452:23|403:6,1,90,2|0,1:2|0:0,0:0:0:0:
393,307,23781,6,0,P|367:339|332:347,1,72,10|0,1:2|0:0,0:0:0:0:
225,135,24134,102,0,P|201:120|168:122,1,53.9999983520508,2|0,1:2|0:0,0:0:0:0:
116,229,24487,6,0,P|99:241|80:243,1,36,10|0,1:2|0:0,0:0:0:0:
6,186,24839,21,2,1:2:0:0:
6,186,25192,2,0,P|19:164|25:142,1,45,8|0,0:0|0:0,0:0:0:0:
104,110,25369,2,0,P|91:87|75:71,1,45,8|0,1:2|0:0,0:0:0:0:
13,27,25545,1,0,0:0:0:0:
121,202,25722,1,2,1:2:0:0:
268,104,25898,102,0,L|321:120,1,45,8|0,0:0|0:0,0:0:0:0:
486,184,26075,1,0,1:0:0:0:
412,220,26251,1,2,0:0:0:0:
338,256,26428,1,0,0:0:0:0:
404,356,26604,6,0,P|415:338|419:302,1,45,8|0,0:0|0:0,0:0:0:0:
486,184,26781,2,0,P|481:162|468:142,1,45,10|0,0:0|0:0,0:0:0:0:
487,184,27134,1,2,1:2:0:0:
392,149,27310,1,8,0:0:0:0:
299,12,27487,1,2,1:2:0:0:
181,47,27663,101,2,1:2:0:0:
181,47,28016,2,0,P|170:71|170:95,1,45,10|0,0:2|0:0,0:0:0:0:
102,147,28192,2,0,P|117:168|138:180,1,45,8|0,1:2|0:0,0:0:0:0:
163,261,28369,1,0,0:0:0:0:
15,187,28545,1,2,1:2:0:0:
58,10,28722,6,0,L|105:23,1,45,8|0,0:0|0:0,0:0:0:0:
228,169,28898,1,0,1:0:0:0:
317,154,29075,1,2,0:0:0:0:
406,139,29251,1,0,0:0:0:0:
475,15,29428,102,0,P|463:37|460:64,1,45,8|0,0:0|0:0,0:0:0:0:
365,227,29604,2,0,P|366:255|377:275,1,45,10|0,0:0|0:0,0:0:0:0:
481,360,29781,1,0,1:0:0:0:
332,133,29957,5,2,0:0:0:0:
287,349,30134,1,2,1:2:0:0:
72,298,30310,2,0,P|58:280|52:252,1,45,2|2,0:0|0:0,0:0:0:0:
183,66,30487,70,0,L|153:235,1,161.999995056153,0|0,1:0|0:0,0:0:0:0:
154,225,30839,2,0,L|218:208,1,53.9999983520508,8|0,1:2|0:0,0:0:0:0:
284,187,31016,2,0,L|348:170,1,53.9999983520508,8|0,1:2|0:0,0:0:0:0:
413,150,31192,1,2,1:2:0:0:
332,299,31369,1,2,0:0:0:0:
274,57,31545,6,0,L|219:44,1,53.9999983520508,8|0,1:2|0:0,0:0:0:0:
56,74,31722,2,0,P|107:113|151:106,1,107.999996704102,2|2,0:0|1:2,0:0:0:0:
341,350,32075,2,0,P|343:326|328:294,1,53.9999983520508
395,240,32251,2,0,P|379:221|346:209,1,53.9999983520508,8|0,1:2|0:0,0:0:0:0:
324,127,32428,2,0,P|277:155|262:210,1,107.999996704102,10|0,1:2|1:0,0:0:0:0:
418,52,32781,101,0,0:0:0:0:
274,278,32957,2,0,P|246:283|218:268,1,53.9999983520508,10|0,1:2|0:0,0:0:0:0:
106,41,33134,1,0,0:0:0:0:
28,350,33310,6,0,B|91:271|32:289|98:195,1,161.999995056153,2|0,1:2|0:0,0:0:0:0:
163,158,33663,2,0,P|177:185|175:219,1,53.9999983520508,8|0,1:2|0:0,0:0:0:0:
30,145,33839,2,0,P|54:126|87:122,1,53.9999983520508,8|0,1:2|0:0,0:0:0:0:
147,301,34016,101,2,1:2:0:0:
293,232,34192,1,2,0:0:0:0:
415,373,34369,2,0,L|432:321,1,53.9999983520508,8|0,1:2|0:0,0:0:0:0:
475,96,34545,2,0,L|498:220,1,107.999996704102,2|0,0:0|1:0,0:0:0:0:
67,90,34898,5,0,0:0:0:0:
77,99,35075,1,0,1:0:0:0:
29,156,35251,101,0,0:0:0:0:
39,165,35428,1,0,1:0:0:0:
77,99,35781,6,0,B|121:85|166:111|166:111|169:126|169:126|227:155|283:126,1,202.500007724762,2|0,0:0|0:0,0:0:0:0:
318,77,36134,70,0,B|328:59|323:43|323:43|315:62|298:76,1,67.5000025749208,6|0,1:2|0:0,0:0:0:0:
295,219,36310,2,0,B|282:237|283:263|283:263|262:200|262:200|269:174|269:174|257:119,1,180,2|8,0:0|1:2,0:0:0:0:
442,332,36663,6,0,B|465:341|477:342|477:342|468:352|441:357,1,67.5000025749208
356,348,36839,2,0,B|280:338|280:338|273:342|273:342|170:328,1,180,2|0,1:2|0:0,0:0:0:0:
24,161,37192,102,0,P|28:126|63:99,1,67.5000025749208,8|0,1:2|0:0,0:0:0:0:
213,20,37369,6,0,B|279:14|339:100|294:178|294:178|290:135|257:115,1,283.499991348267,2|0,0:0|0:0,0:0:0:0:
128,70,37722,2,0,P|159:103|193:108,1,67.5000025749208
384,79,37898,2,0,B|401:69|417:71|417:71|397:76|387:95,1,67.5000025749208,8|0,1:2|0:0,0:0:0:0:
155,229,38075,2,0,P|198:203|211:177,1,67.5000025749208
290,2,38251,102,0,B|326:49|300:98|281:89|264:139|306:197,1,198.000006042481,2|0,1:2|0:0,0:0:0:0:
372,219,38516,1,0,0:0:0:0:
379,140,38604,2,0,B|354:83|302:73|300:94|245:92|222:37,1,198.000006042481,8|0,1:2|0:0,0:0:0:0:
24,263,38957,6,0,P|42:295|81:307,1,67.5000025749208,2|0,1:2|0:0,0:0:0:0:
233,331,39134,2,0,B|194:340|159:297|159:297|162:357|104:388,1,180,2|10,0:0|1:2,0:0:0:0:
381,100,39487,102,0,P|368:138|328:161,1,67.5000025749208
164,126,39663,2,0,P|189:71|308:92,1,180,2|0,1:2|0:0,0:0:0:0:
465,317,40016,6,0,B|479:310|499:310|499:310|481:308|459:292,1,67.5000025749208,10|0,1:2|0:0,0:0:0:0:
365,376,40192,2,0,P|392:293|392:195,1,180,2|2,0:0|1:2,0:0:0:0:
467,123,40545,101,0,0:0:0:0:
392,200,40722,1,8,1:2:0:0:
191,33,40898,5,2,0:0:0:0:
17,290,41075,101,2,1:2:0:0:
115,116,41251,1,0,0:0:0:0:
286,110,41428,6,0,P|314:135|318:171,1,67.5000025749208,10|0,1:2|0:0,0:0:0:0:
428,207,41604,102,0,P|414:240|390:257,1,53.9999983520508
406,349,41781,6,0,B|350:352|313:314|336:290|303:239|245:247,1,202.500007724762,2|0,1:2|0:0,0:0:0:0:
71,306,42134,2,0,P|158:316|244:331,1,175.499991966248,8|0,1:2|0:0,0:0:0:0:
116,193,42487,2,0,P|63:208|60:293,1,144,2|0,1:2|0:0,0:0:0:0:
418,365,42839,102,0,B|480:361|504:311|499:260|499:260|454:263|417:238|413:195,1,270,8|0,1:2|0:0,0:0:0:0:
364,37,43192,6,0,B|397:-5|470:10|493:77|462:118|462:118|433:127|422:155,1,242.999992584229,2|0,1:2|0:0,0:0:0:0:
487,188,43545,2,0,B|392:166|392:166|386:172|386:172|296:151,1,188.999994232178,10|0,1:2|0:0,0:0:0:0:
140,76,43898,102,0,B|88:110|26:98|26:98|87:106|122:153,1,229.500004377365,2|0,1:2|0:0,0:0:0:0:
167,250,44251,6,0,B|203:236|203:236|219:136|219:136|218:129|218:129|236:37|236:37|269:26,1,270,10|0,1:2|0:0,0:0:0:0:
263,27,44604,101,2,1:2:0:0:
467,111,44781,1,0,0:0:0:0:
418,359,44957,5,10,1:2:0:0:
324,226,45134,1,0,0:0:0:0:
85,347,45310,101,2,1:2:0:0:
85,347,45663,2,0,P|57:327|49:297,1,67.5000025749208,10|0,1:2|0:0,0:0:0:0:
122,80,45839,6,0,B|174:111|183:193|124:251|124:251|103:212|62:208,1,270,2|0,0:0|0:0,0:0:0:0:
17,41,46192,2,0,B|13:66|29:85|29:85|27:65|42:43,1,90
242,160,46369,2,0,P|293:157|325:125,1,90,10|0,1:2|0:0,0:0:0:0:
477,56,46545,1,2,0:0:0:0:
466,28,46634,1,0,0:0:0:0:
417,28,46722,1,2,1:2:0:0:
403,359,46898,101,8,0:0:0:0:
414,338,46987,5,8,0:0:0:0:
394,309,47075,101,8,1:2:0:0:
424,274,47163,5,8,0:0:0:0:
381,236,47251,101,8,0:0:0:0:
428,178,47339,5,8,0:0:0:0:
380,109,47428,102,0,B|320:76|263:128|263:128|263:139|263:139|218:183|154:153,1,242.999992584229,6|0,1:2|0:0,0:0:0:0:
150,154,47781,1,8,1:2:0:0:
30,33,47957,2,0,P|49:3|95:4,1,76.5000014591217
191,81,48134,6,0,P|178:177|168:247,2,153.000002918243,2|2|8,1:2|0:0|1:2,0:0:0:0:
447,252,48663,2,0,P|473:231|483:191,1,76.5000014591217
435,125,48839,101,2,1:2:0:0:
364,313,49016,1,0,0:0:0:0:
224,204,49192,2,0,P|184:184|140:190,1,90,10|0,1:2|0:0,0:0:0:0:
38,368,49369,2,0,B|86:279|113:377|171:264,1,180,2|2,0:0|1:2,0:0:0:0:
467,131,49722,6,0,P|470:86|451:46,1,90
364,65,49898,2,0,P|361:110|380:150,1,90,10|0,1:2|0:0,0:0:0:0:
439,210,50075,1,2,0:0:0:0:
246,53,50251,1,2,1:2:0:0:
29,207,50428,102,0,P|26:162|45:122,1,90
132,141,50604,2,0,P|134:185|115:225,1,90,10|0,1:2|0:0,0:0:0:0:
57,285,50781,1,2,0:0:0:0:
250,128,50957,1,2,1:2:0:0:
485,279,51134,6,0,P|487:234|468:194,1,90
382,213,51310,2,0,P|379:257|398:297,1,90,10|0,1:2|0:0,0:0:0:0:
457,357,51487,2,0,B|339:308|378:380|277:340,1,180,2|2,0:0|1:2,0:0:0:0:
50,164,51839,102,0,P|77:142|119:145,1,67.5000025749208
155,60,52016,2,0,P|212:86|232:177,1,153.000002918243,10|0,1:2|0:0,0:0:0:0:
47,352,52369,5,2,1:2:0:0:
150,147,52545,1,0,0:0:0:0:
212,353,52722,101,10,1:2:0:0:
1,265,52898,1,0,0:0:0:0:
225,69,53075,6,0,B|347:50|292:146|436:126,1,202.500007724762,2|0,1:2|0:0,0:0:0:0:
454,63,53428,2,0,P|426:137|415:271,1,202.500007724762,8|0,1:2|0:0,0:0:0:0:
460,323,53781,2,0,P|490:256|445:190,1,135.000005149842,2|0,1:2|0:0,0:0:0:0:
156,344,54134,2,0,B|66:323|106:380|13:357,1,135.000005149842,8|0,1:2|0:0,0:0:0:0:
201,27,54487,102,0,B|245:70|229:138|229:138|186:156|181:208,1,202.500007724762,2|0,1:2|0:0,0:0:0:0:
307,241,54839,2,0,P|316:201|256:129,1,135.000005149842,8|0,1:2|0:0,0:0:0:0:
23,271,55192,5,2,1:2:0:0:
125,306,55369,1,0,0:0:0:0:
205,204,55545,101,8,1:2:0:0:
390,143,55722,1,0,0:0:0:0:
481,377,55898,22,0,B|463:355|467:321|467:321|413:281|370:337,1,161.999995056153,6|0,1:2|0:0,0:0:0:0:
259,335,56251,2,0,P|298:364|363:342,1,107.999996704102,8|0,1:2|0:0,0:0:0:0:
471,143,56604,1,2,1:2:0:0:
322,271,56781,1,0,1:0:0:0:
310,281,56869,1,0,1:0:0:0:
307,267,56957,2,0,L|286:150,1,107.999996704102,8|0,1:2|0:0,0:0:0:0:
30,5,57310,6,0,B|-5:48|-5:48|30:167,1,161.999995056153,2|0,1:2|0:0,0:0:0:0:
92,177,57663,2,0,B|151:179|151:179|198:141,1,107.999996704102,10|0,1:2|0:0,0:0:0:0:
107,371,58016,2,0,B|79:318|79:318|22:297,1,107.999996704102,2|0,1:2|0:0,0:0:0:0:
268,262,58369,2,0,B|236:312|236:312|246:371,1,107.999996704102,10|0,1:2|0:0,0:0:0:0:
362,17,58722,102,0,B|402:57|402:57|350:97|376:162,1,161.999995056153,0|0,1:0|0:0,0:0:0:0:
430,202,59075,2,0,P|484:190|514:135,1,107.999996704102,10|0,1:2|0:0,0:0:0:0:
257,24,59428,2,0,P|253:76|289:126,1,107.999996704102,2|0,1:2|0:0,0:0:0:0:
370,369,59781,2,0,P|347:317|297:300,1,107.999996704102,10|0,1:2|0:0,0:0:0:0:
37,368,60134,6,0,B|103:286|26:308|120:200,1,161.999995056153,0|0,1:0|0:0,0:0:0:0:
173,209,60487,2,0,P|203:240|203:314,1,107.999996704102,10|0,1:2|0:0,0:0:0:0:
9,142,60839,2,0,P|24:98|40:28,1,107.999996704102,2|0,1:2|0:0,0:0:0:0:
235,59,61192,2,0,L|299:73,1,53.9999983520508,10|0,1:2|0:0,0:0:0:0:
345,141,61369,2,0,L|409:127,1,53.9999983520508,0|0,1:0|0:0,0:0:0:0:
474,52,61545,102,0,B|490:132|490:132|482:152|482:152|491:218,1,161.999995056153,2|0,1:2|0:0,0:0:0:0:
431,250,61898,2,0,B|379:229|379:229|330:252,1,107.999996704102,10|0,1:2|0:0,0:0:0:0:
336,347,62251,2,0,B|388:368|388:368|436:344,1,107.999996704102,2|0,1:2|0:0,0:0:0:0:
246,303,62604,2,0,L|114:286,1,107.999996704102,10|0,1:2|0:0,0:0:0:0:
16,89,62957,6,0,B|114:68|114:68|121:60|121:60|130:65|130:65|224:45,2,215.999993408203,2|8|2,1:2|1:2|1:2,0:0:0:0:
229,231,63839,1,0,1:0:0:0:
239,239,63928,1,0,1:0:0:0:
245,226,64016,2,0,B|268:186|268:186|245:124,1,107.999996704102,10|0,1:2|0:0,0:0:0:0:
120,357,64369,102,0,L|84:249,1,107.999996704102,2|0,1:2|0:0,0:0:0:0:
412,308,64722,2,0,L|441:199,1,107.999996704102,10|0,1:2|0:0,0:0:0:0:
250,190,65075,2,0,L|228:78,1,107.999996704102,2|0,1:2|0:0,0:0:0:0:
234,217,65428,6,0,B|255:135|255:135|240:114|240:114|265:23,1,202.500007724762,10|0,1:2|0:0,0:0:0:0:
341,12,65781,102,0,P|410:25|431:163,1,215.999993408203,2|8,1:2|1:2,0:0:0:0:
120,248,66310,2,0,L|8:217,1,107.999996704102,2|0,0:0|1:0,0:0:0:0:
337,348,66663,1,0,0:0:0:0:
288,150,66839,1,8,1:2:0:0:
439,220,67016,1,0,0:0:0:0:
234,333,67192,86,0,P|197:335|175:298,1,67.5000025749208,2|0,1:2|0:0,0:0:0:0:
32,290,67369,2,0,B|89:300|117:257|101:250|151:209|206:235,1,180,2|8,0:0|1:2,0:0:0:0:
380,47,67722,6,0,P|409:70|416:99,1,62.9999980773926
493,112,67898,2,0,P|480:148|451:167,1,72,2|0,1:2|0:0,0:0:0:0:
468,248,68075,2,0,B|411:258|383:215|399:208|349:167|294:193,1,180,2|8,0:0|1:2,0:0:0:0:
72,223,68428,101,0,0:0:0:0:
108,50,68604,1,2,1:2:0:0:
72,223,68781,6,0,P|57:187|62:150,1,62.9999980773926
108,50,68957,2,0,P|131:19|175:8,1,72,8|0,1:2|0:0,0:0:0:0:
308,187,69134,2,0,P|395:197|419:111,1,180,2|2,0:0|1:2,0:0:0:0:
157,192,69487,102,0,P|139:232|147:275,1,90
2,275,69663,2,0,P|46:279|78:310,1,90,8|0,1:2|0:0,0:0:0:0:
142,359,69839,1,2,0:0:0:0:
28,126,70016,1,2,1:2:0:0:
344,136,70192,6,0,P|362:176|354:219,1,90
499,218,70368,2,0,P|455:222|423:253,1,90,10|0,1:2|0:0,0:0:0:0:
359,302,70544,1,2,0:0:0:0:
473,69,70721,1,0,1:0:0:0:
182,0,70898,102,0,P|163:40|171:83,1,90
27,82,71074,2,0,P|70:86|102:117,1,90,10|0,1:2|0:0,0:0:0:0:
166,164,71251,2,0,B|201:277|254:190|292:306,1,180,2|2,0:0|1:2,0:0:0:0:
479,37,71604,6,0,P|447:53|438:81,1,67.5000025749208
483,179,71781,2,0,P|453:118|338:118,1,180,8|0,1:2|0:0,0:0:0:0:
490,343,72134,101,2,1:2:0:0:
315,199,72310,1,0,0:0:0:0:
199,302,72487,5,10,1:2:0:0:
70,335,72663,1,0,0:0:0:0:
21,76,72839,102,0,B|101:90|101:90|123:131|123:131|202:146,1,202.500007724762,2|0,1:2|0:0,0:0:0:0:
196,144,73192,2,0,B|116:158|116:158|94:199|94:199|15:214,1,202.500007724762,8|0,1:2|0:0,0:0:0:0:
209,283,73545,6,0,B|283:270|283:270|305:229|305:229|385:215,1,202.500007724762,2|0,1:2|0:0,0:0:0:0:
385,351,73898,2,0,B|312:338|312:338|290:297|290:297|210:283,1,202.500007724762,8|0,1:2|0:0,0:0:0:0:
417,55,74251,102,0,B|472:48|508:108|508:108|459:150|477:211,1,202.500007724762,2|0,1:2|0:0,0:0:0:0:
330,169,74604,2,0,B|296:124|330:63|330:63|391:85|435:39,1,202.500007724762,10|0,1:2|0:0,0:0:0:0:
472,187,74957,6,0,B|348:231|348:231|343:241|343:241|230:281,1,242.999992584229,2|0,1:2|0:0,0:0:0:0:
195,328,75310,102,0,L|165:322,1,27,2|0,0:0|0:0,0:0:0:0:
14,227,75663,86,0,B|75:253|132:213|135:158|135:158|118:145|108:120,1,198.000006042481,4|0,1:2|0:0,0:0:0:0:
12,58,75928,1,2,0:0:0:0:
12,58,76016,2,0,P|12:100|35:125,1,67.5000025749208,8|0,1:2|0:0,0:0:0:0:
226,24,76192,1,2,0:0:0:0:
343,230,76369,6,0,B|359:163|359:163|356:152|356:152|378:58,1,168.75,2|0,1:2|0:0,0:0:0:0:
385,114,76545,2,0,B|376:148|376:148|378:161|378:161|371:185,1,67.5000025749208
487,368,76722,102,0,B|471:301|471:301|474:290|474:290|452:196,1,168.75,8|0,1:2|0:0,0:0:0:0:
468,201,76898,2,0,B|488:287|488:287|485:298|485:298|501:365,1,168.75,2|0,0:0|0:0,0:0:0:0:
379,348,77075,6,0,B|331:364|289:316|305:307|279:251|209:261,1,198.000006042481,2|0,1:2|0:0,0:0:0:0:
161,360,77339,1,2,0:0:0:0:
161,360,77428,2,0,P|200:361|223:339,1,67.5000025749208,8|0,1:2|0:0,0:0:0:0:
380,175,77604,1,2,0:0:0:0:
144,49,77781,102,0,P|108:64|84:95,1,67.5000025749208,0|0,1:0|0:0,0:0:0:0:
55,109,77957,2,0,P|97:44|199:28,1,168.75,2|0,0:0|0:0,0:0:0:0:
225,88,78134,6,0,P|183:153|81:169,1,168.75,10|0,1:2|0:0,0:0:0:0:
106,183,78310,2,0,P|186:165|232:97,1,168.75,2|0,0:0|0:0,0:0:0:0:
308,46,78487,102,0,B|366:68|415:19|415:19|469:34|468:76,1,198.000006042481,2|0,1:2|0:0,0:0:0:0:
311,169,78751,1,2,0:0:0:0:
311,169,78839,2,0,B|315:186|313:202|313:202|328:189|327:167,1,67.5000025749208,8|0,1:2|0:0,0:0:0:0:
415,20,79016,1,2,0:0:0:0:
506,327,79192,6,0,P|491:246|415:208,1,168.75,2|0,1:2|0:0,0:0:0:0:
445,242,79369,2,0,P|471:268|482:300,1,67.5000025749208
352,248,79545,102,0,P|337:329|261:367,1,168.75,10|0,1:2|0:0,0:0:0:0:
258,363,79722,2,0,P|329:324|344:244,1,168.75
330,152,79898,6,0,B|231:173|231:173|216:166|216:166|130:184,1,198.000006042481,2|0,1:2|0:0,0:0:0:0:
41,285,80163,1,2,0:0:0:0:
41,285,80251,2,0,B|79:289|79:289|107:267,1,67.5000025749208,8|0,1:2|0:0,0:0:0:0:
258,81,80428,1,2,0:0:0:0:
41,41,80604,102,0,B|-6:134|61:121|14:212,1,168.75,2|0,1:2|0:0,0:0:0:0:
18,203,80781,2,0,B|122:197|77:145|179:140,1,168.75,2|0,0:0|0:0,0:0:0:0:
170,141,80957,2,0,B|112:53|90:118|35:32,1,168.75,10|0,1:2|0:0,0:0:0:0:
40,39,81134,6,0,P|99:51|148:-2,1,135.000005149842,2|0,0:0|0:0,0:0:0:0:
381,96,81310,102,0,B|414:100|445:82|445:82|350:199,1,215.999993408203,2|0,1:2|0:0,0:0:0:0:
450,311,81575,1,2,0:0:0:0:
450,311,81663,2,0,B|468:270|468:270|455:237,1,76.5000014591217,8|0,1:2|0:0,0:0:0:0:
262,357,81839,1,2,0:0:0:0:
196,148,82016,6,0,B|219:186|203:233|203:233|242:207|293:216,1,175.499991966248,2|0,1:2|0:0,0:0:0:0:
262,201,82192,2,0,B|243:199|222:211|222:211|227:190|220:170,1,76.5000014591217,2|0,0:0|0:0,0:0:0:0:
250,83,82369,102,0,B|293:91|333:65|333:65|317:111|340:150,1,175.499991966248,10|0,1:2|0:0,0:0:0:0:
335,158,82545,2,0,B|311:119|327:72|327:72|288:98|244:90,1,175.499991966248,2|0,0:0|0:0,0:0:0:0:
195,29,82722,6,0,B|139:4|96:62|116:70|61:127|-2:87,1,215.999993408203,2|0,1:2|0:0,0:0:0:0:
174,275,82987,1,2,0:0:0:0:
174,275,83075,2,0,P|198:244|197:204,1,76.5000014591217,8|0,1:2|0:0,0:0:0:0:
42,22,83251,1,2,0:0:0:0:
359,49,83428,102,0,B|399:59|399:59|409:69|409:69|442:77,1,76.5000014591217,2|0,1:2|0:0,0:0:0:0:
472,105,83604,2,0,B|401:87|401:87|387:68|387:68|295:43,1,175.499991966248,2|0,0:0|0:0,0:0:0:0:
313,137,83781,6,0,B|237:157|237:157|222:176|222:176|152:194,1,175.499991966248,10|0,1:2|0:0,0:0:0:0:
155,203,83957,2,0,B|225:185|225:185|240:166|240:166|315:145,1,175.499991966248,2|0,0:0|0:0,0:0:0:0:
391,189,84134,85,4,0:3:0:0:
443,267,84398,1,2,0:0:0:0:
379,336,84663,1,2,0:0:0:0:
479,183,84839,101,0,0:0:0:0:
346,260,85016,1,2,0:0:0:0:
202,207,85192,1,2,0:0:0:0:
172,56,85369,1,2,0:0:0:0:
248,11,85545,5,2,0:0:0:0:
143,139,85810,1,2,0:0:0:0:
8,53,86075,1,2,0:0:0:0:
25,249,86251,101,2,0:0:0:0:
115,226,86428,1,2,0:0:0:0:
200,339,86604,5,2,0:0:0:0:
312,367,86781,1,2,0:0:0:0:
473,181,86957,21,2,1:2:0:0:
