osu file format v14

[General]
AudioFilename: audio.mp3
AudioLeadIn: 0
PreviewTime:35737
Countdown: 0
SampleSet: Soft
StackLeniency: 0.7
Mode: 0
LetterboxInBreaks: 0
WidescreenStoryboard: 1

[Editor]
Bookmarks:13545,24839,36134,67192,75663
DistanceSpacing: 1.3
BeatDivisor: 4
GridSize: 32
TimelineZoom: 3.599999

[Metadata]
Title:Kaibutsu (TV Size)
TitleUnicode:怪物 (TV Size)
Artist:YOASOBI
ArtistUnicode:YOASOBI
Creator:Flask
Version:Hard
Source:BEASTARS
Tags:second season 2nd opening op ビースターズ japanese anime pop jpop j-pop 幾田りら ikuta rira lilas ayase ikura cubby -keitaro digidrake heilia regou asphyxia miyohashikoori legosi louis haru
BeatmapID:2755484
BeatmapSetID:1329716

[Difficulty]
HPDrainRate:4
CircleSize:3.7
OverallDifficulty:7
ApproachRate:8
SliderMultiplier:1.4
SliderTickRate:1

[Events]
//Background and Video events
0,0,"wp4846206-beastars-wallpapers.jpg",0,0
Video,0,"BeastarsS2-OP1.mp4"
//Break Periods
//Storyboard Layer 0 (Background)
//Storyboard Layer 1 (Fail)
//Storyboard Layer 2 (Pass)
//Storyboard Layer 3 (Foreground)
//Storyboard Layer 4 (Overlay)
//Storyboard Sound Samples

[TimingPoints]
840,352.941176470588,4,2,1,50,1,0
2251,-133.333333333333,4,2,1,50,0,0
13192,-105.263157894737,4,2,3,50,0,0
13545,-100,4,3,2,65,0,0
13634,-100,4,2,2,65,0,0
23781,-100,4,2,2,62,0,0
24134,-133.333333333333,4,2,2,57,0,0
24487,-133.333333333333,4,2,2,54,0,0
24839,-100,4,2,2,50,0,0
35781,-100,4,2,1,50,0,0
36134,-100,4,2,1,80,0,1
55898,-100,4,2,1,70,0,0
67192,-100,4,2,1,80,0,0
75310,-100,4,2,1,40,0,0
75663,-100,4,2,1,75,0,0
84134,-153.846153846153,4,2,2,60,0,0
84222,-153.846153846154,4,2,1,60,0,0
86957,-153.846153846154,4,2,1,80,0,0

[Colours]
Combo1 : 79,79,79
Combo2 : 242,153,75
Combo3 : 227,80,80
Combo4 : 102,179,255
Combo5 : 122,235,232
Combo6 : 121,121,189
Combo7 : 152,49,255
Combo8 : 157,157,157

[HitObjects]
63,48,1545,118,0,B|128:66|116:133|116:133|55:151|24:99,1,210
10,198,2251,102,0,L|-7:256,2,52.5000020027161,2|0|0,1:2|0:0|1:0,0:0:0:0:
79,236,2781,1,0,0:0:0:0:
79,236,2957,2,0,L|63:306,2,52.5000020027161,2|0|0,1:2|0:0|1:0,0:0:0:0:
154,212,3487,1,0,0:0:0:0:
222,250,3663,2,0,P|276:237|306:188,1,105.000004005432,2|0,1:2|1:0,0:0:0:0:
293,120,4192,2,0,L|285:61,1,52.5000020027161,2|0,0:0|1:0,0:0:0:0:
352,25,4545,2,0,L|407:47,1,52.5000020027161,2|0,0:0|1:0,0:0:0:0:
476,67,4898,5,2,0:0:0:0:
476,67,5251,2,0,L|499:10,2,52.5000020027161,0|2|0,0:0|1:2|0:0,0:0:0:0:
416,119,5781,2,0,L|430:182,1,52.5000020027161,0|0,1:0|0:0,0:0:0:0:
466,238,6134,2,0,P|459:267|443:287,1,52.5000020027161,2|0,1:2|0:0,0:0:0:0:
409,355,6487,101,0,1:0:0:0:
339,318,6663,2,0,L|226:346,1,105.000004005432,2|2,0:0|0:0,0:0:0:0:
168,303,7192,2,0,L|183:244,1,52.5000020027161,0|2,1:0|0:0,0:0:0:0:
120,201,7545,2,0,L|105:142,1,52.5000020027161,0|0,1:0|0:0,0:0:0:0:
157,89,7898,6,0,L|220:102,2,52.5000020027161,2|0|0,1:2|0:0|1:0,0:0:0:0:
90,46,8428,1,0,0:0:0:0:
90,46,8604,2,0,L|27:59,2,52.5000020027161,2|0|0,1:2|0:0|1:0,0:0:0:0:
157,89,9134,1,0,0:0:0:0:
125,160,9310,2,0,L|139:223,1,52.5000020027161,2|0,1:2|0:0,0:0:0:0:
157,287,9663,1,0,1:0:0:0:
235,283,9839,1,2,0:0:0:0:
235,283,10192,2,0,L|298:269,1,52.5000020027161,2|0,0:0|1:0,0:0:0:0:
341,328,10545,102,0,P|365:284|352:223,1,105.000004005432,2|2,0:0|0:0,0:0:0:0:
292,184,11075,2,0,L|271:73,2,105.000004005432,0|0|0,1:0|1:0|1:0,0:0:0:0:
357,228,11957,1,2,0:0:0:0:
485,153,12134,5,0,1:0:0:0:
492,171,12487,1,0,1:0:0:0:
499,189,12839,1,0,1:0:0:0:
368,37,13192,102,0,L|381:1,2,33.2499991121292,8|0|0,0:0|0:0|0:0,0:0:0:0:
297,94,13545,86,0,P|258:75|243:38,1,70,4|0,1:3|0:0,0:0:0:0:
157,29,13898,2,0,L|70:48,1,70,8|0,1:2|0:0,0:0:0:0:
29,113,14251,1,2,1:2:0:0:
102,166,14428,1,0,0:0:0:0:
44,236,14604,2,0,L|61:309,1,70,8|0,1:2|0:0,0:0:0:0:
132,359,14957,6,0,P|194:357|228:288,1,140,2|8,1:2|1:2,0:0:0:0:
302,240,15487,2,0,L|317:171,1,70,2|0,0:0|1:0,0:0:0:0:
246,114,15839,2,0,L|231:45,1,70,2|8,0:0|1:2,0:0:0:0:
398,11,16192,101,2,0:0:0:0:
398,11,16546,1,0,0:0:0:0:
468,67,16722,1,10,1:2:0:0:
412,137,16899,1,0,0:0:0:0:
342,81,17075,2,0,L|271:94,1,70,2|0,1:2|0:0,0:0:0:0:
209,158,17428,2,0,L|138:145,1,70,8|0,1:2|0:0,0:0:0:0:
75,81,17781,5,2,1:2:0:0:
57,208,17957,2,0,L|74:284,1,70,2|8,0:0|1:2,0:0:0:0:
120,353,18310,2,0,P|81:369|45:365,2,70,2|0|2,0:0|1:0|0:0,0:0:0:0:
169,276,18839,2,0,P|209:273|247:304,1,70,8|0,1:2|0:0,0:0:0:0:
290,358,19192,102,0,P|322:318|299:229,2,140,2|10|2,1:2|1:2|1:2,0:0:0:0:
234,287,20075,1,0,0:0:0:0:
222,196,20251,1,8,1:2:0:0:
305,235,20428,2,0,L|381:220,1,70,2|0,0:0|1:0,0:0:0:0:
447,275,20781,5,0,0:0:0:0:
461,185,20957,1,10,1:2:0:0:
390,127,21134,2,0,P|379:84|386:52,1,70,2|0,0:0|1:0,0:0:0:0:
461,11,21487,2,0,P|472:54|465:86,1,70,2|8,0:0|1:2,0:0:0:0:
320,182,21839,102,0,B|277:186|250:157|259:148|230:122|185:132,1,140,2|2,0:0|0:0,0:0:0:0:
123,186,22369,2,0,P|70:190|25:120,1,140,8|0,1:2|1:0,0:0:0:0:
46,35,22898,1,0,0:0:0:0:
46,35,23075,2,0,P|92:26|115:11,1,70,8|0,1:2|0:0,0:0:0:0:
192,55,23428,5,2,1:2:0:0:
351,142,23781,1,10,1:2:0:0:
317,320,24134,1,2,1:2:0:0:
137,343,24487,1,10,1:2:0:0:
60,179,24839,22,0,P|116:156|187:193,1,140,2|8,1:2|0:0,0:0:0:0:
251,250,25369,1,8,1:2:0:0:
291,168,25545,1,0,0:0:0:0:
251,250,25722,2,0,L|273:322,1,70,2|8,1:2|0:0,0:0:0:0:
348,365,26075,102,0,L|429:343,2,70,0|2|0,1:0|0:0|0:0,0:0:0:0:
348,273,26604,1,8,0:0:0:0:
428,229,26781,2,0,L|445:148,1,70,10|0,0:0|0:0,0:0:0:0:
462,71,27134,1,2,1:2:0:0:
375,98,27310,2,0,P|335:86|311:59,1,70,8|2,0:0|1:2,0:0:0:0:
235,110,27663,6,0,L|208:274,1,140,2|10,1:2|0:2,0:0:0:0:
261,325,28192,1,8,1:2:0:0:
185,376,28369,1,0,0:0:0:0:
261,325,28545,2,0,L|339:346,1,70,2|8,1:2|0:0,0:0:0:0:
403,290,28898,2,0,L|484:273,2,70,0|2|0,1:0|0:0|0:0,0:0:0:0:
359,208,29428,1,8,0:0:0:0:
274,242,29604,2,0,L|197:220,1,70,10|0,0:0|1:0,0:0:0:0:
144,156,29957,101,2,0:0:0:0:
60,193,30134,1,2,1:2:0:0:
12,116,30310,1,2,0:0:0:0:
9,102,30398,1,2,0:0:0:0:
9,87,30487,86,0,P|43:32|130:33,1,140,0|8,1:0|1:2,0:0:0:0:
169,96,31016,1,8,1:2:0:0:
234,33,31192,1,2,1:2:0:0:
169,96,31369,2,0,L|184:169,1,70,2|8,0:0|1:2,0:0:0:0:
250,226,31722,2,0,P|287:230|318:206,1,70,2|2,0:0|1:2,0:0:0:0:
375,146,32075,6,0,L|394:74,2,70,0|8|10,0:0|1:2|1:2,0:0:0:0:
450,197,32604,1,0,1:0:0:0:
410,279,32781,1,0,0:0:0:0:
410,279,32957,1,10,1:2:0:0:
321,256,33134,1,0,0:0:0:0:
268,329,33310,102,0,P|221:348|137:318,1,140,2|8,1:2|1:2,0:0:0:0:
167,233,33839,1,8,1:2:0:0:
103,167,34016,2,0,L|125:85,2,70,2|2|8,1:2|0:0|1:2,0:0:0:0:
22,209,34545,2,0,L|34:289,1,70,2|0,0:0|1:0,0:0:0:0:
89,349,34898,5,0,0:0:0:0:
165,298,35075,2,0,L|238:314,1,70,0|0,1:0|0:0,0:0:0:0:
310,263,35428,1,0,1:0:0:0:
310,263,35781,102,0,P|365:221|375:166,1,105,2|0,0:0|0:0,0:0:0:0:
377,163,36134,1,6,1:2:0:0:
304,107,36310,2,0,L|224:117,1,70,2|8,0:0|1:2,0:0:0:0:
368,43,36663,1,0,0:0:0:0:
289,116,36839,2,0,L|209:126,1,70,2|0,1:2|0:0,0:0:0:0:
168,200,37192,1,8,1:2:0:0:
124,47,37369,86,0,P|178:55|217:140,1,140,2|0,0:0|0:0,0:0:0:0:
168,200,37898,2,0,L|182:280,1,70,8|0,1:2|0:0,0:0:0:0:
135,348,38251,2,0,P|102:319|95:275,1,70,2|0,1:2|0:0,0:0:0:0:
265,274,38604,2,0,P|256:317|221:345,1,70,8|0,1:2|0:0,0:0:0:0:
168,200,38957,5,2,1:2:0:0:
232,135,39134,2,0,L|313:151,1,70,2|10,0:0|1:2,0:0:0:0:
185,66,39487,1,0,0:0:0:0:
241,146,39663,2,0,L|322:162,1,70,2|0,1:2|0:0,0:0:0:0:
373,225,40016,1,10,1:2:0:0:
495,123,40192,101,2,0:0:0:0:
495,123,40545,2,0,L|506:45,2,70,0|8|2,0:0|1:2|0:0,0:0:0:0:
451,204,41075,2,0,L|463:283,1,70,2|0,1:2|0:0,0:0:0:0:
408,347,41428,1,10,1:2:0:0:
326,306,41604,1,0,0:0:0:0:
245,348,41781,6,0,P|198:355|141:288,2,140,2|8|2,1:2|1:2|1:2,0:0:0:0:
251,256,42663,1,0,0:0:0:0:
310,187,42839,2,0,L|290:115,1,70,8|0,1:2|0:0,0:0:0:0:
317,32,43192,102,0,P|274:86|201:91,1,140,2|10,1:2|1:2,0:0:0:0:
207,92,43898,2,0,L|112:73,1,70,2|0,1:2|0:0,0:0:0:0:
112,165,44251,2,0,L|180:178,1,70,10|0,1:2|0:0,0:0:0:0:
79,249,44604,6,0,P|30:207|36:125,1,140,2|10,1:2|1:2,0:0:0:0:
74,55,45134,1,0,0:0:0:0:
159,84,45310,2,0,L|234:68,1,70,2|0,1:2|0:0,0:0:0:0:
300,124,45663,1,10,1:2:0:0:
415,21,45839,102,0,P|472:48|483:135,1,140,2|0,0:0|0:0,0:0:0:0:
436,193,46369,1,10,1:2:0:0:
350,161,46545,2,0,L|332:86,1,70,2|2,0:0|1:2,0:0:0:0:
286,224,46898,1,8,0:0:0:0:
269,236,46987,1,8,0:0:0:0:
252,248,47075,2,0,L|209:240,3,35,8|8|8|8,1:2|0:0|0:0|0:0,0:0:0:0:
162,183,47428,6,0,P|136:228|180:314,1,140,6|8,1:2|1:2,0:0:0:0:
228,370,47957,1,0,0:0:0:0:
304,320,48134,1,2,1:2:0:0:
381,366,48310,2,0,L|457:351,1,70,2|8,0:0|1:2,0:0:0:0:
304,320,48663,1,0,0:0:0:0:
354,244,48839,102,0,L|366:171,2,70,2|0|10,1:2|0:0|1:2,0:0:0:0:
276,194,49369,2,0,L|255:113,1,70,2|2,0:0|1:2,0:0:0:0:
190,65,49722,5,0,0:0:0:0:
120,123,49898,2,0,L|45:110,2,70,10|2|2,1:2|0:0|1:2,0:0:0:0:
205,157,50428,101,0,0:0:0:0:
135,215,50604,2,0,L|60:202,2,70,10|2|2,1:2|0:0|1:2,0:0:0:0:
220,249,51134,5,0,0:0:0:0:
150,307,51310,1,10,1:2:0:0:
214,372,51487,2,0,L|285:357,1,70,2|2,0:0|1:2,0:0:0:0:
358,308,51839,1,0,0:0:0:0:
498,376,52016,2,0,P|520:322|506:240,1,140,10|2,1:2|1:2,0:0:0:0:
453,169,52545,1,0,0:0:0:0:
373,214,52722,2,0,L|294:227,1,70,10|0,1:2|0:0,0:0:0:0:
231,169,53075,102,0,B|214:109|214:109|203:98|203:98|188:37,2,140,2|8|2,1:2|1:2|1:2,0:0:0:0:
159,225,53957,1,0,0:0:0:0:
80,178,54134,2,0,L|5:190,1,70,8|0,1:2|0:0,0:0:0:0:
5,280,54487,6,0,B|61:295|61:295|77:317|77:317|153:333,1,140,2|8,1:2|1:2,0:0:0:0:
212,369,55016,1,0,0:0:0:0:
281,310,55192,2,0,L|301:240,1,70,2|0,1:2|0:0,0:0:0:0:
238,175,55545,2,0,L|218:105,1,70,8|0,1:2|0:0,0:0:0:0:
331,20,55898,6,0,B|372:5|408:33|392:44|431:67|462:58,1,140,6|8,1:2|1:2,0:0:0:0:
405,133,56428,1,0,0:0:0:0:
461,203,56604,2,0,L|447:286,1,70,2|0,1:2|0:0,0:0:0:0:
380,332,56957,2,0,P|344:329|319:300,1,70,8|0,1:2|0:0,0:0:0:0:
265,233,57310,6,0,L|110:266,2,140,2|10|2,1:2|1:2|1:2,0:0:0:0:
317,158,58192,1,0,0:0:0:0:
254,91,58369,2,0,L|237:15,1,70,10|0,1:2|0:0,0:0:0:0:
147,14,58722,101,0,1:0:0:0:
147,14,59075,2,0,P|128:50|139:95,1,70,10|0,1:2|0:0,0:0:0:0:
45,112,59428,2,0,P|66:146|111:159,1,70,2|0,1:2|0:0,0:0:0:0:
78,249,59781,2,0,P|118:247|152:215,1,70,10|0,1:2|0:0,0:0:0:0:
195,157,60134,5,0,1:0:0:0:
195,157,60487,2,0,L|279:178,1,70,10|0,1:2|0:0,0:0:0:0:
345,212,60839,2,0,L|284:274,1,70,2|0,1:2|0:0,0:0:0:0:
222,314,61192,2,0,L|198:230,1,70,10|0,1:2|0:0,0:0:0:0:
163,372,61545,102,0,P|227:337|311:365,1,140,2|10,1:2|1:2,0:0:0:0:
378,374,62075,1,0,0:0:0:0:
439,307,62251,2,0,P|452:271|445:235,1,70,2|0,1:2|0:0,0:0:0:0:
385,173,62604,2,0,L|298:154,1,70,10|0,1:2|0:0,0:0:0:0:
247,217,62957,6,0,B|185:228|185:228|170:244|170:244|115:254,1,140,2|8,1:2|1:2,0:0:0:0:
115,253,63663,2,0,L|97:173,1,70,2|0,1:2|0:0,0:0:0:0:
11,160,64016,2,0,L|29:80,1,70,10|0,1:2|0:0,0:0:0:0:
95,32,64369,102,0,B|145:21|167:50|157:60|195:79|227:67,1,140,2|10,1:2|1:2,0:0:0:0:
282,138,64898,1,0,0:0:0:0:
242,220,65075,2,0,L|256:298,1,70,2|0,1:2|0:0,0:0:0:0:
330,338,65428,2,0,B|369:345|369:345|399:328,1,70,10|0,1:2|0:0,0:0:0:0:
481,360,65781,6,0,L|504:202,1,140,2|8,1:2|1:2,0:0:0:0:
447,147,66310,2,0,L|375:162,1,70,2|0,0:0|1:0,0:0:0:0:
310,100,66663,1,0,0:0:0:0:
310,100,66839,1,8,1:2:0:0:
241,160,67016,1,0,0:0:0:0:
168,104,67192,69,2,1:2:0:0:
77,111,67369,2,0,P|44:89|36:59,1,70,2|8,0:0|1:2,0:0:0:0:
168,104,67722,1,0,0:0:0:0:
128,185,67898,1,2,1:2:0:0:
171,265,68075,2,0,L|179:351,1,70,2|8,0:0|1:2,0:0:0:0:
258,375,68428,1,0,0:0:0:0:
340,336,68604,6,0,L|419:360,1,70,2|0,1:2|0:0,0:0:0:0:
258,375,68957,1,8,1:2:0:0:
266,284,69134,2,0,L|294:200,1,70,2|2,0:0|1:2,0:0:0:0:
318,131,69487,101,0,0:0:0:0:
404,159,69663,2,0,L|482:130,2,70,8|2|2,1:2|0:0|1:2,0:0:0:0:
336,220,70192,5,0,0:0:0:0:
422,248,70369,2,0,L|500:219,2,70,10|2|0,1:2|0:0|1:0,0:0:0:0:
350,305,70898,101,0,0:0:0:0:
263,275,71075,1,10,1:2:0:0:
200,341,71251,2,0,P|161:335|138:310,1,70,2|2,0:0|1:2,0:0:0:0:
102,231,71604,1,0,0:0:0:0:
35,356,71781,6,0,B|60:288|4:301|13:216,1,140,8|2,1:2|1:2,0:0:0:0:
64,148,72310,1,0,0:0:0:0:
155,149,72487,2,0,P|195:144|220:118,1,70,10|0,1:2|0:0,0:0:0:0:
265,48,72839,102,0,B|347:65|304:100|408:104,2,140,2|8|2,1:2|1:2|1:2,0:0:0:0:
180,12,73722,1,0,0:0:0:0:
106,65,73898,2,0,L|118:145,1,70,8|0,1:2|0:0,0:0:0:0:
102,224,74251,6,0,P|143:224|177:199,1,70,2|0,1:2|0:0,0:0:0:0:
226,279,74604,2,0,P|267:279|301:304,1,70,10|0,1:2|0:0,0:0:0:0:
333,374,74957,2,0,P|365:341|368:245,1,140,2|2,1:2|0:0,0:0:0:0:
370,250,75663,70,0,L|401:135,1,105,4|2,1:2|0:0,0:0:0:0:
397,148,76016,2,0,P|426:132|438:89,1,70,8|2,1:2|0:0,0:0:0:0:
389,22,76369,1,2,1:2:0:0:
308,63,76545,1,0,0:0:0:0:
222,31,76722,2,0,L|146:20,1,70,8|2,1:2|0:0,0:0:0:0:
77,72,77075,6,0,L|97:192,1,105,2|2,1:2|0:0,0:0:0:0:
94,175,77428,2,0,B|132:188|132:188|171:160,1,70,8|2,1:2|0:0,0:0:0:0:
189,255,77781,1,0,1:0:0:0:
276,230,77957,1,2,0:0:0:0:
189,255,78134,2,0,L|165:341,1,70,10|2,1:2|0:0,0:0:0:0:
249,368,78487,102,0,P|300:373|343:344,1,105,2|2,1:2|0:0,0:0:0:0:
342,344,78839,2,0,L|421:357,1,70,8|2,1:2|0:0,0:0:0:0:
475,290,79192,1,2,1:2:0:0:
419,217,79369,1,0,0:0:0:0:
481,150,79545,2,0,L|493:78,1,70,10|0,1:2|0:0,0:0:0:0:
418,27,79898,6,0,P|368:26|340:73,1,105,2|2,1:2|0:0,0:0:0:0:
340,68,80251,2,0,L|258:51,1,70,8|2,1:2|0:0,0:0:0:0:
202,113,80604,1,2,1:2:0:0:
254,187,80781,1,2,0:0:0:0:
163,196,80957,1,10,1:2:0:0:
181,323,81134,1,2,0:0:0:0:
51,355,81310,102,0,P|22:309|25:248,1,105,2|2,1:2|0:0,0:0:0:0:
21,259,81663,2,0,L|41:180,1,70,8|2,1:2|0:0,0:0:0:0:
38,100,82016,1,2,1:2:0:0:
115,146,82192,1,2,0:0:0:0:
194,100,82369,2,0,P|228:82|271:83,1,70,10|2,1:2|0:0,0:0:0:0:
322,146,82722,6,0,L|296:263,1,105,2|2,1:2|0:0,0:0:0:0:
299,248,83075,2,0,L|377:235,1,70,8|2,1:2|0:0,0:0:0:0:
448,279,83428,1,2,1:2:0:0:
441,188,83604,1,2,0:0:0:0:
448,279,83781,2,0,P|446:321|417:353,1,70,10|2,1:2|0:0,0:0:0:0:
351,366,84134,86,0,P|316:369|279:338,2,68.2499968757631,4|2|2,0:3|0:0|0:0,0:0:0:0:
338,289,84839,2,0,L|349:233,1,45.4999979171754,0|2,0:0|0:0,0:0:0:0:
291,189,85192,2,0,L|280:133,1,45.4999979171754,2|2,0:0|0:0,0:0:0:0:
227,89,85545,102,0,P|199:75|162:75,2,68.2499968757631,2|2|2,0:0|0:0|0:0,0:0:0:0:
287,40,86251,2,0,L|346:28,1,45.4999979171754,2|2,0:0|0:0,0:0:0:0:
401,63,86604,2,0,P|415:93|412:120,1,45.4999979171754,2|2,0:0|0:0,0:0:0:0:
393,179,86957,37,2,1:2:0:0:
