osu file format v14

[General]
AudioFilename: audio.mp3
AudioLeadIn: 0
PreviewTime:35737
Countdown: 0
SampleSet: Soft
StackLeniency: 0.7
Mode: 0
LetterboxInBreaks: 0
WidescreenStoryboard: 1

[Editor]
Bookmarks: 13545,24839,36134,67192,75663
DistanceSpacing: 0.5
BeatDivisor: 8
GridSize: 32
TimelineZoom: 2

[Metadata]
Title:Kaibutsu (TV Size)
TitleUnicode:怪物 (TV Size)
Artist:YOASOBI
ArtistUnicode:YOASOBI
Creator:Flask
Version:Asphyxia's Extra
Source:BEASTARS
Tags:second season 2nd opening op ビースターズ japanese anime pop jpop j-pop 幾田りら ikuta rira lilas ayase ikura cubby -keitaro digidrake heilia regou asphyxia miyohashikoori legosi louis haru
BeatmapID:2773308
BeatmapSetID:1329716

[Difficulty]
HPDrainRate:5
CircleSize:4.2
OverallDifficulty:9
ApproachRate:9.1
SliderMultiplier:2.1
SliderTickRate:1

[Events]
//Background and Video events
0,0,"wp4846206-beastars-wallpapers.jpg",0,0
Video,0,"BeastarsS2-OP1.mp4"
//Break Periods
//Storyboard Layer 0 (Background)
//Storyboard Layer 1 (Fail)
//Storyboard Layer 2 (Pass)
//Storyboard Layer 3 (Foreground)
//Storyboard Layer 4 (Overlay)
//Storyboard Sound Samples

[TimingPoints]
840,352.941176470588,4,2,1,50,1,0
1545,-133.333333333333,4,2,1,50,0,0
3839,-399.999999999997,4,2,1,50,0,0
4722,-133.333333333333,4,2,1,50,0,0
6663,-100,4,2,1,50,0,0
7192,-133.333333333333,4,2,1,50,0,0
11075,-100,4,2,1,50,0,0
13192,-1000,4,2,3,50,0,0
13545,-100,4,3,2,65,0,0
13634,-100,4,2,2,65,0,0
23428,-83.3333333333333,4,2,2,65,0,0
23781,-83.3333333333333,4,2,2,62,0,0
24134,-83.3333333333333,4,2,2,57,0,0
24487,-100,4,2,2,54,0,0
24839,-100,4,2,2,50,0,0
25192,-83.3333333333333,4,2,2,50,0,0
35781,-66.6666666666667,4,2,1,50,0,0
36134,-66.6666666666667,4,2,1,80,0,1
36310,-50,4,2,1,80,0,1
36663,-66.6666666666667,4,2,1,80,0,1
36839,-50,4,2,1,80,0,1
37192,-66.6666666666667,4,2,1,80,0,1
37369,-50,4,2,1,80,0,1
37722,-66.6666666666667,4,2,1,80,0,1
38251,-50,4,2,1,80,0,1
38957,-66.6666666666667,4,2,1,80,0,1
39134,-50,4,2,1,80,0,1
39487,-66.6666666666667,4,2,1,80,0,1
39663,-50,4,2,1,80,0,1
40016,-66.6666666666667,4,2,1,80,0,1
40192,-50,4,2,1,80,0,1
40545,-66.6666666666667,4,2,1,80,0,1
42839,-50,4,2,1,80,0,1
43545,-66.6666666666667,4,2,1,80,0,1
44251,-66.6666666666667,4,2,1,80,0,1
44604,-66.6666666666667,4,2,1,80,0,1
44957,-76.9230769230769,4,2,1,80,0,1
45310,-90.9090909090909,4,2,1,80,0,1
45663,-66.6666666666667,4,2,1,80,0,1
47428,-66.6666666666667,4,2,1,80,0,1
47957,-66.6666666666667,4,2,1,80,0,1
48310,-50,4,2,1,80,0,1
48839,-50,4,2,1,80,0,1
53075,-83.3333333333333,4,2,1,80,0,1
55898,-83.3333333333333,4,2,1,70,0,0
67192,-66.6666666666667,4,2,1,80,0,0
67369,-50,4,2,1,80,0,0
67722,-66.6666666666667,4,2,1,80,0,0
68075,-50,4,2,1,80,0,0
68428,-66.6666666666667,4,2,1,80,0,0
68957,-50,4,2,1,80,0,0
72839,-66.6666666666667,4,2,1,80,0,0
73192,-100,4,2,1,80,0,0
73545,-66.6666666666667,4,2,1,80,0,0
73898,-100,4,2,1,80,0,0
74251,-66.6666666666667,4,2,1,80,0,0
75310,-500,4,2,1,40,0,0
75663,-50,4,2,1,75,0,0
76016,-66.6666666666667,4,2,1,75,0,0
76369,-43.4782608695652,4,2,1,75,0,0
76501,-43.4782608695652,4,2,1,5,0,0
76545,-43.4782608695652,4,2,1,75,0,0
76678,-43.4782608695652,4,2,1,5,0,0
76722,-43.4782608695652,4,2,1,75,0,0
76854,-43.4782608695652,4,2,1,5,0,0
76898,-43.4782608695652,4,2,1,75,0,0
77031,-43.4782608695652,4,2,1,5,0,0
77075,-50,4,2,1,75,0,0
77428,-66.6666666666667,4,2,1,75,0,0
77781,-43.4782608695652,4,2,1,75,0,0
77913,-43.4782608695652,4,2,1,5,0,0
77957,-43.4782608695652,4,2,1,75,0,0
78089,-43.4782608695652,4,2,1,5,0,0
78133,-43.4782608695652,4,2,1,75,0,0
78266,-43.4782608695652,4,2,1,5,0,0
78310,-43.4782608695652,4,2,1,75,0,0
78442,-43.4782608695652,4,2,1,5,0,0
78487,-50,4,2,1,75,0,0
78839,-66.6666666666667,4,2,1,75,0,0
79192,-43.4782608695652,4,2,1,75,0,0
79325,-43.4782608695652,4,2,1,5,0,0
79369,-43.4782608695652,4,2,1,75,0,0
79501,-43.4782608695652,4,2,1,5,0,0
79545,-43.4782608695652,4,2,1,75,0,0
79678,-43.4782608695652,4,2,1,5,0,0
79722,-43.4782608695652,4,2,1,75,0,0
79854,-43.4782608695652,4,2,1,5,0,0
79898,-50,4,2,1,75,0,0
80251,-66.6666666666667,4,2,1,75,0,0
80604,-43.4782608695652,4,2,1,75,0,0
80737,-43.4782608695652,4,2,1,5,0,0
80781,-43.4782608695652,4,2,1,75,0,0
80913,-43.4782608695652,4,2,1,5,0,0
80957,-43.4782608695652,4,2,1,75,0,0
81089,-43.4782608695652,4,2,1,5,0,0
81133,-43.4782608695652,4,2,1,75,0,0
81266,-43.4782608695652,4,2,1,5,0,0
81310,-50,4,2,1,75,0,0
81663,-66.6666666666667,4,2,1,75,0,0
82016,-43.4782608695652,4,2,1,75,0,0
82148,-43.4782608695652,4,2,1,5,0,0
82192,-43.4782608695652,4,2,1,75,0,0
82325,-43.4782608695652,4,2,1,5,0,0
82369,-43.4782608695652,4,2,1,75,0,0
82501,-43.4782608695652,4,2,1,5,0,0
82545,-43.4782608695652,4,2,1,75,0,0
82678,-43.4782608695652,4,2,1,5,0,0
82722,-50,4,2,1,75,0,0
83075,-66.6666666666667,4,2,1,75,0,0
83428,-43.4782608695652,4,2,1,75,0,0
83560,-43.4782608695652,4,2,1,5,0,0
83604,-43.4782608695652,4,2,1,75,0,0
83737,-43.4782608695652,4,2,1,5,0,0
83781,-43.4782608695652,4,2,1,75,0,0
83913,-43.4782608695652,4,2,1,5,0,0
83957,-43.4782608695652,4,2,1,75,0,0
84089,-43.4782608695652,4,2,1,5,0,0
84134,-43.4782608695652,4,2,2,60,0,0
84222,-43.4782608695652,4,2,1,60,0,0
86957,-43.4782608695652,4,2,1,80,0,0

[Colours]
Combo1 : 79,79,79
Combo2 : 242,153,75
Combo3 : 227,80,80
Combo4 : 102,179,255
Combo5 : 122,235,232
Combo6 : 121,121,189
Combo7 : 152,49,255
Combo8 : 157,157,157

[HitObjects]
425,310,1545,118,0,B|442:291|442:291|310:338|214:346,1,236.250009012223
145,363,2251,102,0,P|164:331|151:275,1,78.7500030040742,2|0,1:2|0:0,0:0:0:0:
68,344,2604,2,0,P|64:305|83:271,1,78.7500030040742,0|0,1:0|0:0,0:0:0:0:
212,163,2957,2,0,P|208:201|227:235,1,78.7500030040742,2|0,1:2|0:0,0:0:0:0:
291,146,3310,2,0,P|310:179|306:218,1,78.7500030040742,0|0,1:0|0:0,0:0:0:0:
446,187,3663,5,2,1:2:0:0:
461,227,3839,2,0,L|464:200,1,26.25,0|0,0:0|1:0,0:0:0:0:
392,127,4192,1,2,0:0:0:0:
407,87,4368,2,0,L|410:114,1,26.25,0|2,1:0|0:0,0:0:0:0:
291,146,4722,1,0,1:0:0:0:
203,127,4898,1,2,0:0:0:0:
75,0,5075,101,0,1:0:0:0:
75,0,5428,1,2,1:2:0:0:
123,144,5604,1,0,0:0:0:0:
149,69,5781,1,0,1:0:0:0:
203,127,5957,1,0,0:0:0:0:
71,83,6134,1,2,1:2:0:0:
71,83,6310,1,0,0:0:0:0:
129,251,6487,1,0,1:0:0:0:
40,201,6663,6,0,B|54:163|54:163|112:253|81:345,1,210,2|2,0:0|0:0,0:0:0:0:
173,351,7192,2,0,P|186:314|217:291,1,78.7500030040742,0|2,1:0|0:0,0:0:0:0:
223,212,7545,1,0,1:0:0:0:
289,254,7722,1,0,0:0:0:0:
418,170,7898,102,0,P|420:131|400:97,1,78.7500030040742,2|0,1:2|0:0,0:0:0:0:
324,119,8251,2,0,P|321:157|341:191,1,78.7500030040742,0|0,1:0|0:0,0:0:0:0:
512,204,8604,1,2,1:2:0:0:
512,204,8781,1,0,0:0:0:0:
385,274,8957,1,0,1:0:0:0:
496,316,9134,1,0,0:0:0:0:
435,384,9310,5,2,1:2:0:0:
435,384,9487,1,0,0:0:0:0:
399,258,9663,1,0,1:0:0:0:
486,293,9839,1,2,0:0:0:0:
435,384,10192,1,2,0:0:0:0:
304,359,10369,1,0,1:0:0:0:
304,359,10545,1,2,0:0:0:0:
384,171,10722,1,0,1:0:0:0:
310,210,10898,1,2,0:0:0:0:
310,210,11075,102,0,B|290:189|290:189|376:206|468:261,2,210,0|0|0,1:0|1:0|1:0,0:0:0:0:
384,171,11957,1,2,0:0:0:0:
72,200,12134,5,0,1:0:0:0:
72,200,12487,1,0,1:0:0:0:
72,200,12839,1,0,1:0:0:0:
93,218,13192,102,0,L|94:225,2,5.25,8|0|0,0:0|0:0|0:0,0:0:0:0:
312,100,13545,85,4,1:3:0:0:
312,100,13722,1,0,0:0:0:0:
363,314,13898,1,8,1:2:0:0:
363,314,14075,1,0,0:0:0:0:
405,217,14251,1,2,1:2:0:0:
475,280,14428,1,0,0:0:0:0:
480,185,14604,1,8,1:2:0:0:
491,90,14781,1,0,0:0:0:0:
491,90,14957,6,0,B|438:65|376:91|421:119|348:146|296:123,1,210,2|8,1:2|1:2,0:0:0:0:
200,219,15487,2,0,P|210:168|180:119,1,105,2|0,0:0|1:0,0:0:0:0:
96,237,15839,2,0,P|71:191|81:141,1,105,2|8,0:0|1:2,0:0:0:0:
239,54,16192,1,2,0:0:0:0:
239,54,16545,101,0,0:0:0:0:
316,107,16722,1,10,1:2:0:0:
344,17,16898,1,0,0:0:0:0:
451,142,17075,1,2,1:2:0:0:
451,142,17251,1,0,0:0:0:0:
416,230,17428,1,8,1:2:0:0:
466,309,17604,1,0,0:0:0:0:
277,257,17781,6,0,P|303:282|314:311,1,52.5,2|0,1:2|0:0,0:0:0:0:
242,320,17957,2,0,B|206:347|206:347|288:317|366:314,1,210,2|2,0:0|0:0,0:0:0:0:
91,360,18487,2,0,P|115:314|105:264,1,105,0|2,1:0|0:0,0:0:0:0:
13,346,18839,2,0,P|2:295|27:250,1,105,8|0,1:2|0:0,0:0:0:0:
114,123,19192,102,0,B|159:107|183:46|183:46|176:111|224:148,2,210,2|10|2,1:2|1:2|1:2,0:0:0:0:
154,202,20075,1,0,0:0:0:0:
154,202,20251,1,8,1:2:0:0:
288,264,20428,6,0,P|250:201|280:41,1,210,2|0,0:0|0:0,0:0:0:0:
314,15,20957,1,10,1:2:0:0:
338,183,21134,1,2,0:0:0:0:
338,183,21487,2,0,P|378:142|439:146,1,105,2|8,0:0|1:2,0:0:0:0:
406,216,21839,102,0,B|347:206|347:206|324:208|324:208|193:186,1,210,2|2,0:0|0:0,0:0:0:0:
120,245,22369,2,0,B|90:202|90:202|118:145,1,105,8|0,1:2|0:0,0:0:0:0:
101,7,22722,2,0,B|116:3|116:3|224:29,1,105,0|0,1:0|0:0,0:0:0:0:
434,131,23075,2,0,B|469:117|497:121|497:121|464:98|449:69,1,105,8|0,1:2|0:0,0:0:0:0:
420,31,23428,6,0,B|448:-8|448:-8|403:129|403:193,2,251.999992309571,2|10|2,1:2|1:2|1:2,0:0:0:0:
434,131,24487,2,0,P|373:140|273:185,1,157.5,10|0,1:2|0:0,0:0:0:0:
211,130,24839,21,2,1:2:0:0:
211,130,25192,2,0,P|206:88|190:65,1,62.9999980773926,8|0,0:0|0:0,0:0:0:0:
40,37,25369,2,0,P|13:70|8:97,1,62.9999980773926,8|0,1:2|0:0,0:0:0:0:
63,145,25545,1,0,0:0:0:0:
156,295,25722,1,2,1:2:0:0:
100,352,25898,2,0,P|79:314|78:287,1,62.9999980773926,8|0,0:0|0:0,0:0:0:0:
111,363,26075,1,0,1:0:0:0:
239,319,26251,101,2,0:0:0:0:
428,366,26428,1,0,0:0:0:0:
483,225,26604,2,0,P|484:193|499:165,1,62.9999980773926,8|0,0:0|0:0,0:0:0:0:
486,90,26781,2,0,P|456:99|433:121,1,62.9999980773926,10|0,0:0|0:0,0:0:0:0:
153,84,27134,1,2,1:2:0:0:
155,71,27310,2,0,P|183:83|204:106,1,62.9999980773926,8|0,0:0|0:0,0:0:0:0:
268,47,27487,1,2,1:2:0:0:
328,153,27663,5,2,1:2:0:0:
328,153,28016,2,0,P|327:183|339:212,1,62.9999980773926,10|0,0:2|0:0,0:0:0:0:
420,194,28192,2,0,P|420:163|408:134,1,62.9999980773926,8|0,1:2|0:0,0:0:0:0:
461,75,28369,1,0,0:0:0:0:
292,50,28545,1,2,1:2:0:0:
142,238,28722,2,0,P|111:238|82:226,1,62.9999980773926,8|0,0:0|0:0,0:0:0:0:
152,232,28898,1,0,1:0:0:0:
208,304,29075,101,2,0:0:0:0:
317,241,29251,1,0,0:0:0:0:
458,311,29428,2,0,P|470:339|470:371,1,62.9999980773926,8|0,0:0|0:0,0:0:0:0:
393,384,29604,2,0,P|381:356|381:324,1,62.9999980773926,10|0,0:0|0:0,0:0:0:0:
475,221,29781,1,0,1:0:0:0:
475,221,29957,1,2,0:0:0:0:
398,135,30134,1,2,1:2:0:0:
512,0,30310,1,2,0:0:0:0:
512,0,30398,1,2,0:0:0:0:
512,0,30487,86,0,B|463:-11|405:9|446:31|389:49|333:37,1,188.999994232178,0|0,1:0|0:0,0:0:0:0:
267,85,30839,2,0,P|254:56|255:24,1,62.9999980773926,8|0,1:2|0:0,0:0:0:0:
175,106,31016,2,0,P|175:74|163:45,1,62.9999980773926,8|0,1:2|0:0,0:0:0:0:
83,24,31192,1,2,1:2:0:0:
235,177,31369,1,2,0:0:0:0:
75,266,31545,2,0,P|63:295|63:326,1,62.9999980773926,8|0,1:2|0:0,0:0:0:0:
134,364,31722,1,2,0:0:0:0:
268,329,31898,6,0,B|346:342|346:342|355:346|355:346|470:366,1,188.999994232178,2|0,1:2|0:0,0:0:0:0:
505,303,32251,2,0,B|504:291|504:291|473:211,1,62.9999980773926,8|0,1:2|0:0,0:0:0:0:
401,250,32428,2,0,B|402:238|402:238|433:158,1,62.9999980773926,10|0,1:2|0:0,0:0:0:0:
446,113,32604,1,0,1:0:0:0:
192,62,32781,1,0,0:0:0:0:
293,0,32957,2,0,P|304:28|304:60,1,62.9999980773926,10|0,1:2|0:0,0:0:0:0:
390,30,33134,1,0,0:0:0:0:
446,113,33310,102,0,B|390:101|333:119|374:141|316:161|267:150,1,188.999994232178,2|0,1:2|0:0,0:0:0:0:
192,62,33663,2,0,P|192:93|181:122,1,62.9999980773926,8|0,1:2|0:0,0:0:0:0:
196,273,33839,2,0,P|195:241|206:212,1,62.9999980773926,8|0,1:2|0:0,0:0:0:0:
267,150,34016,1,2,1:2:0:0:
113,198,34192,1,2,0:0:0:0:
288,294,34369,2,0,P|299:264|298:233,1,62.9999980773926,8|0,1:2|0:0,0:0:0:0:
267,150,34545,1,2,0:0:0:0:
363,342,34722,6,0,B|398:314|398:314|283:300|207:378,2,251.999992309571,0|0|0,1:0|1:0|1:0,0:0:0:0:
362,341,35781,102,0,B|343:258|343:258|346:248|346:248|310:93,1,236.250009012223,2|0,0:0|0:0,0:0:0:0:
343,40,36134,86,0,B|355:32|367:13|367:13|361:32|367:66,1,78.7500030040742,6|0,1:2|0:0,0:0:0:0:
251,163,36310,2,0,B|184:154|184:154|146:77|146:77|74:68,1,210,2|8,0:0|1:2,0:0:0:0:
71,267,36663,2,0,B|92:253|108:256|108:256|88:257|70:283,1,78.7500030040742
129,328,36839,2,0,B|189:312|253:337|202:362|258:385|340:364,1,210,2|0,1:2|0:0,0:0:0:0:
398,146,37192,2,0,P|437:144|469:121,1,78.7500030040742,8|0,1:2|0:0,0:0:0:0:
473,208,37369,6,0,B|490:170|466:109|460:144|442:61|482:5|482:5|452:10|421:33|415:77,1,315,2|0,0:0|0:0,0:0:0:0:
349,209,37722,2,0,P|326:177|324:138,1,78.7500030040742
277,20,37898,2,0,P|260:55|228:77,1,78.7500030040742,8|0,1:2|0:0,0:0:0:0:
143,173,38075,2,0,P|182:169|216:186,1,78.7500030040742
197,365,38251,102,0,B|153:332|161:271|161:271|144:330|92:344,1,210,2|0,1:2|0:0,0:0:0:0:
69,252,38516,1,0,0:0:0:0:
69,252,38604,2,0,P|158:303|260:267,1,210,8|0,1:2|0:0,0:0:0:0:
494,367,38957,6,0,P|514:334|500:281,1,78.7500030040742,2|0,1:2|0:0,0:0:0:0:
421,384,39134,2,0,P|402:309|510:227,1,210,2|10,0:0|1:2,0:0:0:0:
385,61,39487,2,0,P|380:99|400:132,1,78.7500030040742
444,4,39663,2,0,B|478:10|478:10|413:15|294:58,1,210,2|0,1:2|0:0,0:0:0:0:
140,168,40016,2,0,P|160:135|155:96,1,78.7500030040742,10|0,1:2|0:0,0:0:0:0:
191,21,40192,2,0,P|93:2|40:95,1,210,2|2,0:0|1:2,0:0:0:0:
73,322,40545,101,0,0:0:0:0:
226,376,40722,1,8,1:2:0:0:
399,219,40898,1,2,0:0:0:0:
338,40,41075,1,2,1:2:0:0:
189,0,41251,1,0,0:0:0:0:
79,60,41428,1,10,1:2:0:0:
46,158,41604,1,0,0:0:0:0:
46,158,41781,6,0,B|104:138|166:169|120:205|184:245|269:217,1,236.250009012223,2|0,1:2|0:0,0:0:0:0:
311,274,42134,2,0,B|351:249|403:246|403:246|367:247|328:237,1,157.500006008148,8|0,1:2|0:0,0:0:0:0:
218,92,42487,2,0,P|267:30|360:64,1,157.500006008148,2|0,1:2|0:0,0:0:0:0:
512,165,42839,2,0,B|493:260|493:260|495:275|495:275|471:383,1,210,8|0,1:2|0:0,0:0:0:0:
512,266,43104,1,0,0:0:0:0:
512,266,43192,102,0,B|475:365|475:365|374:322,1,210,2|0,1:2|0:0,0:0:0:0:
200,383,43545,2,0,B|191:343|191:343|193:331|193:331|169:205,1,157.500006008148,10|0,1:2|0:0,0:0:0:0:
39,31,43898,2,0,B|111:-5|111:-5|168:63,1,157.500006008148,2|0,1:2|0:0,0:0:0:0:
501,46,44251,2,0,B|511:90|467:143|437:128|412:119|367:173|378:234,1,236.250009012223,10|0,1:2|0:0,0:0:0:0:
301,254,44604,6,0,B|342:297|345:359|345:359|368:303|444:278,1,236.250009012223,2|0,1:2|0:0,0:0:0:0:
468,217,44957,2,0,P|505:274|474:343,1,136.499993751526,10|0,1:2|0:0,0:0:0:0:
240,298,45310,2,0,P|226:240|272:186,1,115.50000352478,2|0,1:2|0:0,0:0:0:0:
429,100,45663,2,0,P|424:57|395:23,1,78.7500030040742,10|0,1:2|0:0,0:0:0:0:
501,46,45839,2,0,P|421:46|347:95,1,157.500006008148,2|2,0:0|1:2,0:0:0:0:
158,29,46192,102,0,P|154:67|132:99,1,78.7500030040742
49,70,46369,2,0,P|53:32|75:0,1,78.7500030040742,10|0,1:2|0:0,0:0:0:0:
231,0,46545,2,0,P|274:57|222:235,1,236.250009012223,2|0,0:0|0:0,0:0:0:0:
278,292,46898,5,8,0:0:0:0:
261,300,46987,1,8,0:0:0:0:
229,338,47075,101,8,1:2:0:0:
201,322,47163,1,8,0:0:0:0:
141,278,47251,5,8,0:0:0:0:
77,324,47339,1,8,0:0:0:0:
58,244,47428,102,0,B|36:183|36:183|36:165|36:165|6:81,2,157.500006008148,6|0|8,1:2|0:0|1:2,0:0:0:0:
313,156,47957,2,0,P|351:159|382:182,1,78.7500030040742
399,39,48134,2,0,P|424:68|429:107,1,78.7500030040742,2|0,1:2|0:0,0:0:0:0:
459,251,48310,2,0,B|493:257|493:257|398:266|323:299,1,210,2|8,0:0|1:2,0:0:0:0:
240,354,48663,1,0,0:0:0:0:
143,242,48839,6,0,P|128:181|74:149,1,105,2|0,1:2|0:0,0:0:0:0:
58,285,49016,2,0,P|20:249|11:198,1,105
96,155,49192,2,0,P|133:119|142:68,1,105,10|0,1:2|0:0,0:0:0:0:
20,110,49369,2,0,P|28:59|66:23,1,105,2|0,0:0|0:0,0:0:0:0:
246,82,49545,1,2,1:2:0:0:
422,31,49722,2,0,P|429:81|467:117,1,105
371,172,49898,2,0,P|363:121|325:85,1,105,10|0,1:2|0:0,0:0:0:0:
193,162,50075,2,0,B|232:156|263:104|241:83|226:65|258:12|312:2,1,210,2|2,0:0|1:2,0:0:0:0:
477,366,50428,102,0,P|429:368|378:325,1,105
410,253,50604,2,0,P|458:251|509:294,1,105,10|0,1:2|0:0,0:0:0:0:
299,324,50781,2,0,B|244:315|191:339|191:339|222:288|282:295,1,210,2|2,0:0|1:2,0:0:0:0:
303,356,51045,1,0,0:0:0:0:
303,356,51134,2,0,P|249:330|173:324,1,105
168,249,51310,2,0,P|116:258|69:282,1,105,10|0,1:2|0:0,0:0:0:0:
31,374,51487,2,0,B|13:317|41:254|64:300|90:240|71:178,1,210,2|2,0:0|1:2,0:0:0:0:
50,105,51751,1,0,0:0:0:0:
50,105,51839,6,0,P|110:110|145:154,1,105
220,95,52016,2,0,P|194:40|214:-12,1,105,10|0,1:2|0:0,0:0:0:0:
273,36,52192,1,0,0:0:0:0:
510,2,52369,1,2,1:2:0:0:
492,83,52545,1,0,0:0:0:0:
321,152,52722,1,10,1:2:0:0:
430,289,52898,1,0,0:0:0:0:
308,359,53075,102,0,P|212:362|126:310,1,188.999994232178,2|0,1:2|0:0,0:0:0:0:
89,384,53428,2,0,P|96:321|48:263,1,125.999996154785,8|0,1:2|0:0,0:0:0:0:
58,113,53781,2,0,P|90:46|202:55,1,188.999994232178,2|0,1:2|0:0,0:0:0:0:
221,117,54134,2,0,P|272:151|333:143,1,125.999996154785,8|0,1:2|0:0,0:0:0:0:
512,141,54487,6,0,B|470:125|419:153|423:175|431:202|382:230|347:217,1,188.999994232178,2|0,1:2|0:0,0:0:0:0:
333,143,54839,2,0,P|281:108|220:116,1,125.999996154785,8|0,1:2|0:0,0:0:0:0:
75,241,55192,1,2,1:2:0:0:
22,168,55369,1,0,0:0:0:0:
159,229,55545,1,8,1:2:0:0:
36,321,55722,1,0,0:0:0:0:
289,358,55898,6,0,B|327:340|364:349|386:365|386:365|413:350|421:317|397:283,1,188.999994232178,6|0,1:2|0:0,0:0:0:0:
479,197,56251,2,0,P|407:220|410:294,1,125.999996154785,8|0,1:2|0:0,0:0:0:0:
397,10,56604,2,0,B|447:15|447:15|344:42|224:82,1,251.999992309571,2|8,1:2|1:2,0:0:0:0:
33,61,57134,1,0,0:0:0:0:
33,61,57222,1,0,0:0:0:0:
33,61,57310,6,0,P|62:88|55:170,1,125.999996154785,2|0,1:2|0:0,0:0:0:0:
219,137,57663,2,0,P|190:110|197:28,1,125.999996154785,10|0,1:2|0:0,0:0:0:0:
129,208,58016,2,0,B|169:192|220:220|216:242|208:269|257:297|283:286,1,188.999994232178,2|0,1:2|0:0,0:0:0:0:
288,359,58369,2,0,B|313:369|362:341|354:314|350:292|401:264|442:280,1,188.999994232178,10|0,1:2|0:0,0:0:0:0:
509,237,58722,102,0,B|523:261|523:261|502:367,1,125.999996154785,0|0,1:0|0:0,0:0:0:0:
449,179,59075,2,0,B|343:162|343:162|328:166|328:166|200:144,2,251.999992309571,10|2|10,1:2|1:2|1:2,0:0:0:0:
496,9,59957,1,0,0:0:0:0:
496,9,60045,1,0,0:0:0:0:
496,9,60134,6,0,B|482:25|482:25|362:1,1,125.999996154785,0|0,1:0|0:0,0:0:0:0:
215,35,60487,2,0,B|238:96|238:96|189:157,1,125.999996154785,10|0,1:2|0:0,0:0:0:0:
0,272,60839,2,0,B|39:242|32:188|32:188|47:240|93:253,1,188.999994232178,2|0,1:2|0:0,0:0:0:0:
165,226,61192,2,0,P|211:266|272:259,1,125.999996154785,10|0,1:2|0:0,0:0:0:0:
475,361,61545,102,0,P|429:283|449:178,1,188.999994232178,2|0,1:2|0:0,0:0:0:0:
379,143,61898,2,0,P|432:94|516:117,1,125.999996154785,10|0,1:2|0:0,0:0:0:0:
272,258,62251,2,0,P|180:271|100:225,1,188.999994232178,2|0,1:2|0:0,0:0:0:0:
48,157,62604,2,0,P|51:95|95:53,1,125.999996154785,10|0,1:2|0:0,0:0:0:0:
193,69,62957,6,0,B|232:97|232:97|110:131|37:44,2,251.999992309571,2|8|2,1:2|1:2|1:2,0:0:0:0:
361,199,63839,1,0,0:0:0:0:
361,199,63928,1,0,0:0:0:0:
361,199,64016,2,0,P|397:153|480:154,1,125.999996154785,10|0,1:2|0:0,0:0:0:0:
509,235,64369,102,0,P|473:281|390:280,1,125.999996154785,2|0,1:2|0:0,0:0:0:0:
248,361,64722,2,0,B|251:352|251:352|234:209,1,125.999996154785,10|0,1:2|0:0,0:0:0:0:
287,155,65075,2,0,B|284:146|284:146|301:3,1,125.999996154785,2|0,1:2|0:0,0:0:0:0:
159,263,65428,2,0,B|133:186|133:186|134:172|134:172|94:64,1,188.999994232178,10|0,1:2|0:0,0:0:0:0:
122,63,65781,6,0,B|105:126|105:126|107:149|107:149|59:335,1,251.999992309571,2|8,1:2|1:2,0:0:0:0:
248,361,66310,2,0,B|218:344|218:344|299:326|367:382,1,188.999994232178,2|0,0:0|0:0,0:0:0:0:
452,361,66663,2,0,P|446:329|414:294,1,62.9999980773926
414,198,66839,2,0,P|389:219|374:264,1,62.9999980773926,8|0,1:2|0:0,0:0:0:0:
491,156,67016,2,0,P|477:127|453:108,1,62.9999980773926
302,119,67192,70,0,P|334:87|380:86,1,78.7500030040742,2|0,1:2|0:0,0:0:0:0:
271,192,67369,2,0,B|233:186|202:135|223:113|238:95|206:42|160:34,1,210,2|8,0:0|1:2,0:0:0:0:
0,240,67722,2,0,P|38:241|68:265,1,78.7500030040742
175,364,67898,2,0,P|136:362|105:339,1,78.7500030040742,2|0,1:2|0:0,0:0:0:0:
6,324,68075,2,0,B|49:340|104:310|100:287|92:257|145:228|181:242,1,210,2|8,0:0|1:2,0:0:0:0:
376,246,68428,1,0,0:0:0:0:
376,246,68516,1,0,0:0:0:0:
376,246,68604,5,2,1:2:0:0:
278,341,68781,1,0,0:0:0:0:
494,329,68957,2,0,P|515:291|500:209,1,105,8|0,1:2|0:0,0:0:0:0:
376,246,69134,2,0,P|406:148|509:165,1,210,2|2,0:0|1:2,0:0:0:0:
247,25,69487,2,0,P|251:76|228:123,1,105
160,9,69663,2,0,P|137:55|141:107,1,105,8|0,1:2|0:0,0:0:0:0:
47,121,69839,2,0,P|141:157|150:277,1,210,2|2,0:0|1:2,0:0:0:0:
481,328,70192,102,0,P|485:277|462:230,1,105
394,344,70368,2,0,P|371:298|375:246,1,105,10|0,1:2|0:0,0:0:0:0:
281,232,70545,2,0,P|375:196|384:76,1,210,2|0,0:0|1:0,0:0:0:0:
247,25,70898,2,0,P|251:76|228:123,1,105
160,9,71074,2,0,P|137:55|141:107,1,105,10|0,1:2|0:0,0:0:0:0:
9,114,71251,2,0,B|46:106|93:143|81:171|73:193|121:232|167:224,1,210,2|2,0:0|1:2,0:0:0:0:
227,278,71516,1,0,0:0:0:0:
227,278,71604,6,0,P|265:238|325:238,1,105
331,153,71781,2,0,B|351:114|351:114|419:169|390:272,1,210,8|0,1:2|0:0,0:0:0:0:
144,311,72134,1,2,1:2:0:0:
233,156,72310,1,0,0:0:0:0:
190,52,72487,1,10,1:2:0:0:
246,0,72663,1,0,0:0:0:0:
233,156,72839,102,0,B|192:180|148:177|100:141|100:141|132:197|114:238,1,236.250009012223,2|0,1:2|0:0,0:0:0:0:
51,262,73192,2,0,P|87:299|154:294,1,105,8|0,1:2|0:0,0:0:0:0:
489,284,73545,2,0,B|534:276|534:276|456:206|356:246,1,236.250009012223,2|0,1:2|0:0,0:0:0:0:
288,266,73898,2,0,P|291:214|346:175,1,105,8|0,1:2|0:0,0:0:0:0:
2,5,74251,6,0,B|116:34|116:34|124:41|124:41|254:74,1,236.250009012223,2|0,1:2|0:0,0:0:0:0:
277,122,74604,2,0,B|305:85|353:69|393:80|393:80|347:27|282:53,1,236.250009012223,10|0,1:2|0:0,0:0:0:0:
228,67,74957,2,0,P|293:144|439:143,1,236.250009012223,2|0,1:2|0:0,0:0:0:0:
499,170,75310,102,0,L|492:206,1,31.5,2|0,0:0|0:0,0:0:0:0:
425,244,75663,86,0,B|388:236|341:272|353:301|360:323|313:362|267:354,1,210,4|0,1:2|0:0,0:0:0:0:
201,311,75928,1,2,0:0:0:0:
201,311,76016,2,0,P|162:305|135:278,1,78.7500030040742,8|0,1:2|0:0,0:0:0:0:
67,318,76192,1,2,0:0:0:0:
45,30,76369,6,0,B|125:47|125:47|138:57|138:57|228:77,1,181.125003454685,2|0,1:2|0:0,0:0:0:0:
211,63,76545,2,0,B|130:45|130:45|117:35|117:35|37:18,1,181.125003454685
100,134,76722,102,0,B|180:151|180:151|193:161|193:161|283:181,1,181.125003454685,8|0,1:2|0:0,0:0:0:0:
266,167,76898,2,0,B|185:149|185:149|172:139|172:139|92:122,1,181.125003454685,2|0,0:0|0:0,0:0:0:0:
24,190,77075,6,0,B|51:237|44:291|44:291|78:249|138:240,1,210,2|0,1:2|0:0,0:0:0:0:
201,311,77339,1,2,0:0:0:0:
201,311,77428,2,0,P|239:305|266:278,1,78.7500030040742,8|0,1:2|0:0,0:0:0:0:
343,330,77604,1,2,0:0:0:0:
484,377,77781,102,0,B|469:357|469:357|496:157,1,181.125003454685,0|0,1:0|0:0,0:0:0:0:
478,195,77957,2,0,B|458:350|458:350|473:370,1,181.125003454685,2|0,0:0|0:0,0:0:0:0:
388,256,78134,6,0,B|408:101|408:101|393:81,1,181.125003454685,10|0,1:2|0:0,0:0:0:0:
404,87,78310,2,0,B|419:107|419:107|398:261,1,181.125003454685,2|0,0:0|0:0,0:0:0:0:
304,243,78487,102,0,B|258:251|211:212|218:190|230:161|183:125|146:133,1,210,2|0,1:2|0:0,0:0:0:0:
83,87,78751,1,2,0:0:0:0:
83,87,78839,2,0,P|110:59|148:54,1,78.7500030040742,8|0,1:2|0:0,0:0:0:0:
234,78,79016,1,2,0:0:0:0:
211,330,79192,6,0,P|121:335|34:243,1,181.125003454685,2|0,1:2|0:0,0:0:0:0:
47,290,79369,2,0,P|118:342|206:337,1,181.125003454685
231,253,79545,102,0,P|159:199|71:206,1,181.125003454685,10|0,1:2|0:0,0:0:0:0:
76,198,79722,2,0,P|164:193|236:246,1,181.125003454685
308,277,79898,6,0,B|319:315|319:315|332:234|366:123,1,210,2|0,1:2|0:0,0:0:0:0:
437,175,80163,1,2,0:0:0:0:
437,175,80251,2,0,P|468:134|519:129,1,78.7500030040742,8|0,1:2|0:0,0:0:0:0:
412,77,80428,1,2,0:0:0:0:
102,16,80604,102,0,B|135:8|176:40|166:66|159:86|201:121|242:114,1,181.125003454685,2|0,1:2|0:0,0:0:0:0:
234,123,80781,2,0,B|192:130|151:95|157:75|167:49|126:17|93:24,1,181.125003454685,2|0,0:0|0:0,0:0:0:0:
97,134,80957,6,0,B|130:142|171:110|161:84|154:64|196:29|237:36,1,181.125003454685,10|0,1:2|0:0,0:0:0:0:
229,27,81134,2,0,B|187:20|146:55|152:74|162:101|121:133|88:126,1,181.125003454685,2|0,0:0|0:0,0:0:0:0:
4,125,81310,102,0,P|73:163|100:306,1,210,2|0,1:2|0:0,0:0:0:0:
182,324,81575,1,2,0:0:0:0:
182,324,81663,2,0,P|203:291|243:278,1,78.7500030040742,8|0,1:2|0:0,0:0:0:0:
307,323,81839,1,2,0:0:0:0:
352,27,82016,6,0,B|369:107|369:107|379:120|379:120|396:200,1,181.125003454685,2|0,1:2|0:0,0:0:0:0:
412,212,82192,2,0,B|394:131|394:131|384:118|384:118|367:38,1,181.125003454685,2|0,0:0|0:0,0:0:0:0:
512,165,82369,102,0,B|495:245|495:245|485:258|485:258|467:338,1,181.125003454685,10|0,1:2|0:0,0:0:0:0:
452,350,82545,2,0,B|469:269|469:269|479:256|479:256|496:176,1,181.125003454685,2|0,0:0|0:0,0:0:0:0:
477,93,82722,6,0,B|519:75|519:75|438:47|363:126,1,210,2|0,1:2|0:0,0:0:0:0:
323,194,82987,1,2,0:0:0:0:
323,194,83075,2,0,P|285:160|239:160,1,78.7500030040742,8|0,1:2|0:0,0:0:0:0:
200,236,83251,1,2,0:0:0:0:
73,3,83428,102,0,B|100:23|102:75|75:84|56:91|56:146|87:173,1,181.125003454685,2|0,1:2|0:0,0:0:0:0:
83,180,83604,2,0,B|86:146|130:118|151:136|168:150|215:122|222:81,1,181.125003454685,2|0,0:0|0:0,0:0:0:0:
234,76,83781,2,0,B|202:89|156:65|162:37|165:16|118:-10|79:3,1,181.125003454685,10|0,1:2|0:0,0:0:0:0:
73,3,83957,2,0,B|100:23|102:75|75:84|56:91|56:146|87:173,1,181.125003454685,2|0,0:0|0:0,0:0:0:0:
12,245,84134,101,4,0:3:0:0:
119,260,84398,1,2,0:0:0:0:
150,364,84663,1,2,0:0:0:0:
252,300,84839,101,0,0:0:0:0:
404,366,85016,1,2,0:0:0:0:
510,218,85192,1,2,0:0:0:0:
446,100,85369,1,2,0:0:0:0:
512,5,85545,5,2,0:0:0:0:
446,100,85810,1,2,0:0:0:0:
330,58,86075,1,2,0:0:0:0:
188,66,86251,101,2,0:0:0:0:
74,186,86428,1,2,0:0:0:0:
162,342,86604,1,2,0:0:0:0:
311,288,86781,1,2,0:0:0:0:
509,384,86957,37,2,1:2:0:0:
