osu file format v14

[General]
AudioFilename: audio.mp3
AudioLeadIn: 0
PreviewTime: 35941
Countdown: 0
SampleSet: Soft
StackLeniency: 0.7
Mode: 2
LetterboxInBreaks: 0
WidescreenStoryboard: 1

[Editor]
DistanceSpacing: 1.2
BeatDivisor: 4
GridSize: 32
TimelineZoom: 1

[Metadata]
Title:Kaibutsu (TV Size)
TitleUnicode:怪物 (TV Size)
Artist:YOASOBI
ArtistUnicode:YOASOBI
Creator:Chatie
Version:Benita's Platter
Source:BEASTARS
Tags:ビースターズ Season 2 op bst ikura Anime Japanese Opening Pop Legosi Louis Furry Monster 幾田りら Ikuta Rira Lilas Ayase Benita Natsuko OneShotFox Ascendance Benny- BennyBananas
BeatmapID:2799564
BeatmapSetID:1331956

[Difficulty]
HPDrainRate:5
CircleSize:3.3
OverallDifficulty:8
ApproachRate:8
SliderMultiplier:1.5
SliderTickRate:1

[Events]
//Background and Video events
0,0,"bg.jpg",0,0
//Break Periods
//Storyboard Layer 0 (Background)
//Storyboard Layer 1 (Fail)
//Storyboard Layer 2 (Pass)
//Storyboard Layer 3 (Foreground)
//Storyboard Layer 4 (Overlay)
//Storyboard Sound Samples

[TimingPoints]
2411,352.941176470588,4,2,0,70,1,0
24999,-100,4,2,0,60,0,0
30646,-100,4,2,0,70,0,0
36293,-100,4,2,1,85,0,1
56058,-100,4,2,1,70,0,0
75822,-100,4,2,1,85,0,1
84293,-100,4,2,1,60,0,0
87116,-100,4,2,2,60,0,0

[Colours]
Combo1 : 149,149,149
Combo2 : 188,103,99
Combo3 : 0,128,128
Combo4 : 158,91,24

[HitObjects]
386,325,1705,6,0,P|447:297|387:172,1,225,2|2,0:2|0:2,0:0:0:0:
159,165,2411,6,0,L|153:261,1,75,2|2,3:2|0:2,0:0:0:0:
242,240,2763,2,0,L|252:334,1,75,2|2,3:2|0:2,0:0:0:0:
161,348,3116,2,0,L|71:350,1,75,2|2,3:2|0:2,0:0:0:0:
177,303,3469,2,0,L|287:297,1,75,2|2,3:2|0:2,0:0:0:0:
86,289,3822,6,0,P|50:267|77:168,1,150,2|2,3:2|3:2,0:0:0:0:
151,168,4352,2,0,L|307:151,1,150,2|2,0:2|0:2,0:0:0:0:
369,144,4881,1,0,3:2:0:0:
203,264,5058,6,0,P|158:239|198:147,1,150,2|2,0:2|0:2,0:0:0:0:
273,189,5587,2,0,L|271:108,1,75,2|2,3:2|0:2,0:0:0:0:
184,105,5940,2,0,L|86:101,1,75,2|2,3:2|0:2,0:0:0:0:
196,63,6293,2,0,L|281:57,1,75,2|2,3:2|0:2,0:0:0:0:
18,128,6646,5,2,3:2:0:0:
18,128,6822,2,0,L|178:123,2,150,0|2|2,0:0|0:2|0:2,0:0:0:0:
98,239,7705,1,2,3:2:0:0:
177,233,7881,1,2,0:2:0:0:
343,246,8058,6,0,L|350:328,1,75,2|2,3:2|0:2,0:0:0:0:
256,306,8410,2,0,L|254:394,1,75,2|2,3:2|0:2,0:0:0:0:
343,371,8763,2,0,L|433:364,1,75,2|2,3:2|0:2,0:0:0:0:
332,315,9116,2,0,L|223:308,1,75,2|2,3:2|0:2,0:0:0:0:
423,261,9469,6,0,L|425:176,1,75,2|2,3:2|0:2,0:0:0:0:
347,164,9822,1,2,3:2:0:0:
262,153,9999,2,0,L|93:139,1,150,2|2,0:2|0:2,0:0:0:0:
284,187,10705,6,0,P|325:232|282:314,1,150,2|2,0:2|0:2,0:0:0:0:
222,317,11234,1,0,3:2:0:0:
150,312,11410,1,0,0:0:0:0:
295,306,11763,1,0,0:0:0:0:
376,287,11940,2,0,L|383:206,1,75,0|2,3:2|0:2,0:0:0:0:
218,205,12293,6,0,L|134:197,2,75,2|2|2,3:2|0:2|3:2,0:0:0:0:
384,217,12822,2,0,P|406:190|353:102,1,150,2|2,0:2|0:2,0:0:0:0:
293,100,13352,2,0,L|198:99,1,75,2|2,0:2|0:2,0:0:0:0:
469,155,13705,6,0,L|475:247,1,75,6|2,3:2|0:2,0:0:0:0:
384,253,14058,2,0,L|280:263,1,75,10|2,0:2|0:2,0:0:0:0:
414,300,14410,2,0,L|417:378,1,75,2|2,3:2|0:2,0:0:0:0:
328,373,14763,2,0,L|245:374,1,75,10|2,0:2|0:2,0:0:0:0:
88,310,15116,6,0,L|237:319,1,150,2|10,3:2|0:2,0:0:0:0:
322,315,15646,2,0,L|172:315,1,150,2|2,0:2|0:2,0:0:0:0:
113,317,16175,1,8,0:2:0:0:
278,315,16352,6,0,P|351:273|349:192,1,150,2|2,0:2|0:2,0:0:0:0:
268,212,16881,2,0,L|260:303,1,75,10|2,0:2|0:2,0:0:0:0:
350,314,17234,2,0,L|425:323,1,75,2|2,3:2|0:2,0:0:0:0:
301,354,17587,2,0,L|218:362,1,75,10|2,0:2|0:2,0:0:0:0:
482,279,17940,5,2,3:2:0:0:
418,284,18116,2,0,L|268:291,1,150,2|2,0:2|0:2,0:0:0:0:
349,291,18646,2,0,L|358:203,1,75,2|2,3:2|0:2,0:0:0:0:
265,216,18999,2,0,L|166:211,1,75,10|2,0:2|0:2,0:0:0:0:
355,187,19352,6,0,L|358:106,1,75,2|0,3:2|0:0,0:0:0:0:
269,115,19705,2,0,L|183:111,1,75,10|0,0:2|0:0,0:0:0:0:
290,81,20058,2,0,L|371:81,2,75,2|2|10,3:2|0:2|0:2,0:0:0:0:
124,234,20587,6,0,P|92:199|146:111,1,150,2|2,0:2|0:2,0:0:0:0:
206,109,21116,1,10,0:2:0:0:
371,239,21293,2,0,L|221:248,1,150,2|2,0:2|0:2,0:0:0:0:
128,257,21822,2,0,L|116:174,1,75,8|2,0:2|0:2,0:0:0:0:
283,190,22175,6,0,P|327:171|297:88,1,150,0|8,3:2|0:2,0:0:0:0:
227,83,22705,1,0,0:0:0:0:
387,258,23058,1,0,0:0:0:0:
479,235,23234,2,0,L|479:149,1,75,8|2,0:2|0:2,0:0:0:0:
313,163,23587,6,0,L|147:156,1,150,2|10,3:2|0:2,0:0:0:0:
465,96,24293,2,0,L|470:277,1,150,2|10,3:2|0:2,0:0:0:0:
177,283,24999,5,6,3:2:0:0:
357,241,25528,2,0,L|358:157,1,75,2|2,3:2|0:2,0:0:0:0:
193,168,25881,2,0,L|25:169,1,150,2|2,3:2|3:2,0:0:0:0:
209,304,26410,6,0,L|291:298,2,75,2|2|10,0:2|0:2|0:2,0:0:0:0:
42,319,26940,2,0,P|20:286|95:203,1,150,10|2,0:2|3:2,0:0:0:0:
140,203,27469,2,0,L|216:207,1,75,10|2,0:2|0:2,0:0:0:0:
380,219,27822,5,2,3:2:0:0:
208,317,28175,2,0,L|376:325,1,150,10|2,0:2|0:2,0:0:0:0:
438,327,28705,1,2,3:2:0:0:
270,319,29058,5,2,3:2:0:0:
170,294,29234,1,2,0:2:0:0:
159,201,29410,1,2,0:2:0:0:
239,160,29587,1,10,0:2:0:0:
403,185,29763,2,0,P|437:141|379:49,1,150,10|2,0:2|0:2,0:0:0:0:
316,54,30293,1,10,3:2:0:0:
228,65,30469,1,2,0:2:0:0:
483,143,30646,6,0,P|506:182|467:276,1,150,6|10,0:2|3:2,0:0:0:0:
288,270,31352,2,0,L|287:354,1,75,2|2,3:2|0:2,0:0:0:0:
436,333,31881,6,0,L|251:314,1,150,2|2,0:2|0:2,0:0:0:0:
220,309,32410,1,10,3:2:0:0:
386,326,32587,2,0,P|419:291|369:200,1,150,10|2,0:2|0:2,0:0:0:0:
299,243,33116,2,0,L|303:149,1,75,10|2,3:2|0:2,0:0:0:0:
468,131,33469,6,0,L|305:116,1,150,2|10,3:2|3:2,0:0:0:0:
448,251,34175,2,0,L|446:335,1,75,2|2,3:2|0:2,0:0:0:0:
304,328,34705,1,2,0:2:0:0:
139,311,34881,6,0,L|138:215,1,75,0|2,3:2|0:2,0:0:0:0:
221,244,35234,2,0,L|220:150,1,75,2|2,3:2|0:2,0:0:0:0:
139,311,35587,1,2,3:2:0:0:
21,245,35940,1,2,0:2:0:0:
439,264,36293,5,6,3:2:0:0:
484,200,36469,1,2,0:2:0:0:
481,119,36646,1,8,0:2:0:0:
420,78,36822,1,2,0:2:0:0:
247,273,36999,2,0,L|102:201,1,150,2|10,3:2|0:2,0:0:0:0:
390,147,37528,6,0,P|427:236|410:290,1,150,2|2,0:2|0:2,0:0:0:0:
240,264,38058,2,0,L|241:374,1,75,10|2,0:2|0:2,0:0:0:0:
336,348,38410,2,0,L|511:353,1,150,2|10,3:2|0:2,0:0:0:0:
65,275,39116,5,2,3:2:0:0:
24,200,39292,1,2,0:2:0:0:
31,119,39469,1,8,0:2:0:0:
92,78,39645,1,2,0:2:0:0:
264,277,39822,2,0,P|303:236|256:152,1,150,2|10,3:2|0:2,0:0:0:0:
191,145,40352,6,0,L|376:143,1,150,2|2,0:2|0:2,0:0:0:0:
167,230,40881,2,0,L|155:340,1,75,10|2,0:2|0:2,0:0:0:0:
414,321,41234,2,0,L|414:223,1,75,2|2,3:2|0:2,0:0:0:0:
318,251,41587,2,0,L|309:157,1,75,10|2,0:2|0:2,0:0:0:0:
483,183,41940,6,0,L|319:183,1,150,2|10,3:2|0:2,0:0:0:0:
183,185,42646,1,2,3:2:0:0:
440,119,42999,2,0,L|441:202,1,75,10|0,0:2|0:0,0:0:0:0:
194,264,43352,6,0,L|14:257,1,150,2|10,3:2|0:2,0:0:0:0:
310,197,44058,1,2,3:2:0:0:
44,258,44410,2,0,L|45:177,1,75,10|0,0:2|0:0,0:0:0:0:
296,187,44763,6,0,L|479:173,1,150,2|10,3:2|0:2,0:0:0:0:
261,105,45469,2,0,L|423:103,1,150,2|10,3:2|0:2,0:0:0:0:
162,97,45999,6,0,P|131:136|172:229,1,150,2|2,0:2|0:2,0:0:0:0:
253,231,46528,1,10,0:2:0:0:
426,208,46705,2,0,L|263:211,1,150,2|2,0:2|0:2,0:0:0:0:
378,158,47234,1,8,0:2:0:0:
422,155,47322,1,8,0:2:0:0:
466,152,47410,1,8,0:2:0:0:
146,335,47587,6,0,P|106:307|160:218,1,150,6|8,3:2|0:0,0:0:0:0:
307,202,48116,2,0,L|220:197,1,75,2|2,0:2|3:2,0:0:0:0:
405,228,48469,2,0,P|432:195|373:102,1,150,2|2,0:2|0:2,0:0:0:0:
218,134,48999,6,0,L|211:232,1,75,2|2,3:2|0:2,0:0:0:0:
463,271,49352,1,10,0:2:0:0:
388,264,49528,2,0,L|225:250,1,150,2|2,0:2|0:2,0:0:0:0:
163,245,50058,1,10,0:2:0:0:
415,254,50234,6,0,P|467:231|418:146,1,150,2|2,0:2|0:2,0:0:0:0:
374,147,50763,1,10,0:2:0:0:
98,162,50940,2,0,P|52:204|87:293,1,150,2|2,0:2|0:2,0:0:0:0:
159,295,51469,1,10,0:2:0:0:
405,299,51646,6,0,P|439:282|396:194,1,150,2|2,0:2|0:2,0:0:0:0:
351,191,52175,1,10,0:2:0:0:
163,199,52528,2,0,L|164:287,1,75,2|2,3:2|0:2,0:0:0:0:
252,272,52881,2,0,L|263:363,1,75,10|2,0:2|0:2,0:0:0:0:
88,366,53234,6,0,L|256:352,1,150,2|10,3:2|0:2,0:0:0:0:
393,340,53940,1,2,3:2:0:0:
126,284,54293,2,0,L|111:199,1,75,10|0,0:2|0:0,0:0:0:0:
360,215,54646,6,0,L|531:204,1,150,2|10,3:2|0:2,0:0:0:0:
247,146,55352,2,0,L|403:135,1,150,2|10,3:2|0:2,0:0:0:0:
330,68,55881,1,0,0:0:0:0:
33,215,56058,6,0,P|29:157|84:84,1,150,6|8,3:2|0:0,0:0:0:0:
239,235,56763,2,0,L|66:225,1,150,2|8,0:2|0:0,0:0:0:0:
138,183,57293,1,0,0:0:0:0:
310,180,57469,6,0,L|316:338,1,150,2|10,3:2|0:2,0:0:0:0:
55,294,58175,2,0,L|211:281,1,150,2|10,3:2|0:2,0:0:0:0:
268,275,58705,1,0,0:0:0:0:
96,261,58881,5,2,3:2:0:0:
356,274,59234,2,0,L|514:259,2,150,10|2|10,0:2|3:2|0:2,0:0:0:0:
278,281,60116,1,0,0:0:0:0:
79,250,60293,5,2,3:2:0:0:
335,160,60646,2,0,L|173:166,2,150,10|2|10,0:2|3:2|0:2,0:0:0:0:
325,324,61528,1,0,0:0:0:0:
152,331,61705,6,0,P|128:297|165:190,1,150,2|10,3:2|0:2,0:0:0:0:
302,181,62410,2,0,L|151:165,1,150,2|10,3:2|0:2,0:0:0:0:
191,117,62940,1,0,0:0:0:0:
364,125,63116,6,0,L|363:275,1,150,2|8,3:2|0:0,0:0:0:0:
169,291,63822,1,2,3:2:0:0:
350,305,64175,2,0,L|349:220,1,75,10|0,0:2|0:0,0:0:0:0:
177,202,64528,6,0,L|342:191,2,150,2|10|2,3:2|0:2|3:2,0:0:0:0:
431,203,65587,2,0,L|436:284,1,75,10|0,0:2|0:0,0:0:0:0:
263,321,65940,6,0,L|111:318,1,150,2|8,3:2|0:0,0:0:0:0:
58,316,66469,1,2,0:2:0:0:
270,268,66822,1,2,0:2:0:0:
352,241,66999,2,0,L|353:157,1,75,10|2,0:2|0:2,0:0:0:0:
96,227,67352,5,2,3:2:0:0:
171,226,67528,2,0,L|331:225,1,150,2|2,0:2|0:2,0:0:0:0:
261,210,68058,1,2,3:2:0:0:
89,204,68234,2,0,P|40:181|88:107,1,150,2|2,0:2|0:2,0:0:0:0:
244,129,68763,6,0,L|160:123,1,75,2|2,3:2|0:2,0:0:0:0:
342,103,69116,2,0,L|352:13,1,75,10|2,0:2|0:2,0:0:0:0:
179,196,69646,2,0,L|191:290,1,75,2|10,0:2|0:2,0:0:0:0:
450,257,69999,6,0,P|498:223|446:135,1,150,2|2,0:2|0:2,0:0:0:0:
405,134,70528,1,10,0:2:0:0:
151,248,70705,2,0,P|117:214|140:108,1,150,2|2,0:2|0:2,0:0:0:0:
208,100,71234,1,10,0:2:0:0:
451,289,71410,6,0,P|500:252|443:183,1,150,2|2,0:2|0:2,0:0:0:0:
395,180,71940,1,10,0:2:0:0:
230,269,72293,2,0,L|228:187,1,75,2|2,3:2|0:2,0:0:0:0:
327,204,72646,2,0,L|332:116,1,75,10|2,0:2|0:2,0:0:0:0:
158,137,72999,6,0,L|318:120,1,150,2|10,3:2|0:2,0:0:0:0:
41,114,73705,2,0,P|47:194|121:236,1,150,2|10,3:2|0:2,0:0:0:0:
176,236,74234,1,0,0:0:0:0:
430,125,74410,6,0,L|486:302,1,150,2|10,3:2|0:2,0:0:0:0:
228,316,75116,1,2,3:2:0:0:
494,320,75469,1,10,0:2:0:0:
27,324,75822,6,0,L|150:300,2,112.5,6|2|2,3:2|3:2|3:2,0:0:0:0:
193,343,76528,2,0,L|197:248,1,75,2|2,3:2|0:2,0:0:0:0:
100,262,76881,2,0,L|100:171,1,75,10|2,0:2|0:2,0:0:0:0:
266,178,77234,6,0,L|408:168,2,112.5,2|2|2,3:2|3:2|3:2,0:0:0:0:
100,232,77940,2,0,L|95:337,1,75,2|2,3:2|0:2,0:0:0:0:
168,338,78293,1,10,0:2:0:0:
243,334,78469,1,2,0:2:0:0:
497,312,78646,6,0,L|374:298,2,112.5,2|2|2,3:2|3:2|3:2,0:0:0:0:
332,338,79352,2,0,L|250:326,1,75,2|2,3:2|0:2,0:0:0:0:
347,274,79705,2,0,L|435:270,1,75,10|2,0:2|0:2,0:0:0:0:
256,237,80058,6,0,L|112:226,2,112.5,2|2|2,3:2|3:2|3:2,0:0:0:0:
421,242,80763,2,0,L|428:157,1,75,2|2,3:2|0:2,0:0:0:0:
355,159,81116,1,10,0:2:0:0:
291,154,81293,1,2,0:2:0:0:
44,286,81469,6,0,L|162:274,2,112.5,2|2|2,3:2|3:2|3:2,0:0:0:0:
210,339,82175,2,0,L|220:253,1,75,2|2,3:2|0:2,0:0:0:0:
153,263,82528,1,10,0:2:0:0:
85,260,82705,1,2,0:2:0:0:
249,238,82881,6,0,L|383:231,2,112.5,2|2|2,3:2|3:2|3:2,0:0:0:0:
415,316,83587,2,0,L|419:233,1,75,2|2,3:2|0:2,0:0:0:0:
307,240,83940,2,0,L|299:152,1,75,10|2,0:2|0:2,0:0:0:0:
464,137,84293,6,0,L|331:101,2,112.5,2|2|2,0:2|0:2|0:2,0:0:0:0:
363,190,84999,2,0,L|359:285,1,75,2|2,0:2|0:2,0:0:0:0:
450,257,85352,2,0,L|460:349,1,75,2|2,0:2|0:2,0:0:0:0:
292,325,85705,6,0,L|163:314,2,112.5,2|2|2,0:2|0:2|0:2,0:0:0:0:
457,302,86410,1,2,0:2:0:0:
491,227,86587,1,2,0:2:0:0:
461,160,86763,1,2,0:2:0:0:
382,123,86940,1,2,0:2:0:0:
102,119,87116,5,6,0:2:0:0:
