osu file format v14

[General]
AudioFilename: audio.mp3
AudioLeadIn: 0
PreviewTime: 35693
Countdown: 0
SampleSet: Soft
StackLeniency: 0.4
Mode: 0
LetterboxInBreaks: 0
WidescreenStoryboard: 0

[Editor]
Bookmarks: 13546,30487,55899,67193,75663,84134,86957
DistanceSpacing: 0.3
BeatDivisor: 8
GridSize: 32
TimelineZoom: 2.6

[Metadata]
Title:Kaibutsu (TV Size)
TitleUnicode:怪物 (TV Size)
Artist:YOASOBI
ArtistUnicode:YOASOBI
Creator:-Aqua
Version:Haruto's Insane
Source:BEASTARS
Tags:幾田りら Ikuta Lilas ikura Ayase Japanese Pop J-pop Jpop ビースターズ Anime Opening OP Second 2nd Season Two Keqing iljaaz Kowari Haruto Haruto_Aizawa Rira
BeatmapID:2755105
BeatmapSetID:1329156

[Difficulty]
HPDrainRate:6
CircleSize:4.2
OverallDifficulty:8.2
ApproachRate:9.1
SliderMultiplier:1.65
SliderTickRate:1

[Events]
//Background and Video events
0,0,"ikura.jpg",0,0
//Break Periods
//Storyboard Layer 0 (Background)
//Storyboard Layer 1 (Fail)
//Storyboard Layer 2 (Pass)
//Storyboard Layer 3 (Foreground)
//Storyboard Layer 4 (Overlay)
//Storyboard Sound Samples

[TimingPoints]
-3395,352.941176470588,4,2,1,50,1,0
1546,-181.818181818181,4,2,1,50,0,0
2252,-133.333333333333,4,2,1,60,0,0
3663,-125,4,2,1,60,0,0
4193,-133.333333333333,4,2,1,60,0,0
11252,-117.647058823529,4,2,1,60,0,0
13193,-74.0740740740739,4,2,1,60,0,0
13281,-74.0740740740739,4,2,1,20,0,0
13546,-95.238095238095,4,2,2,70,0,0
13899,-117.647058823529,4,2,2,70,0,0
15487,-105.263157894737,4,2,2,70,0,0
16016,-95.238095238095,4,2,2,70,0,0
16369,-117.647058823529,4,2,2,70,0,0
23252,-95.238095238095,4,2,2,70,0,0
23428,-105.263157894737,4,2,2,70,0,0
23693,-105.263157894737,4,2,2,20,0,0
23781,-86.9565217391306,4,2,2,70,0,0
24046,-86.9565217391306,4,2,2,20,0,0
24134,-95.2380952380952,4,2,2,70,0,0
24399,-95.2380952380952,4,2,2,20,0,0
24487,-105.263157894737,4,2,2,70,0,0
24752,-105.263157894737,4,2,2,20,0,0
24840,-133.333333333334,4,2,1,60,0,0
30487,-111.111111111111,4,2,1,70,0,0
30840,-90.9090909090908,4,2,1,70,0,0
31369,-111.111111111111,4,2,1,70,0,0
32428,-111.111111111111,4,2,2,70,0,0
32604,-90.9090909090908,4,2,1,70,0,0
33310,-90.9090909090908,4,2,1,70,0,0
33663,-83.3333333333333,4,2,1,70,0,0
34016,-111.111111111111,4,2,1,70,0,0
34722,-111.111111111111,4,2,1,60,0,0
35781,-142.857142857143,4,2,1,60,0,0
36134,-100,4,2,1,85,0,0
41781,-83.3333333333333,4,2,1,85,0,0
42134,-100,4,2,1,85,0,0
42487,-142.857142857143,4,2,1,85,0,0
42840,-83.3333333333334,4,2,1,85,0,0
43193,-100,4,2,1,85,0,0
44252,-83.3333333333333,4,2,1,85,0,0
44604,-100,4,2,1,85,0,0
59781,-83.3333333333333,4,2,1,85,0,0
60134,-100,4,2,1,85,0,0
62957,-83.3333333333333,4,2,1,85,0,0
63663,-100,4,2,1,85,0,0
75663,-74.0740740740741,4,2,1,70,0,0
76369,-100,4,2,1,70,0,0
77075,-74.0740740740741,4,2,1,70,0,0
77781,-100,4,2,1,70,0,0
78487,-74.0740740740741,4,2,1,70,0,0
79193,-100,4,2,1,70,0,0
79899,-74.0740740740741,4,2,1,70,0,0
80604,-100,4,2,1,70,0,0
81310,-74.0740740740741,4,2,1,70,0,0
82016,-100,4,2,1,70,0,0
82722,-74.0740740740741,4,2,1,70,0,0
83428,-100,4,2,1,70,0,0
84134,-133.333333333333,4,2,1,60,0,0

[Colours]
Combo1 : 255,255,168
Combo2 : 168,168,255
Combo3 : 255,168,168

[HitObjects]
224,257,1546,6,0,B|236:218|210:188|203:205|177:175|188:134,1,136.125004154205,0|0,0:0|0:0,0:0:0:0:
131,249,2252,6,0,L|122:314,1,61.875002360344,0|0,1:2|0:0,0:0:0:0:
276,137,2604,2,0,L|267:75,1,61.875002360344,2|0,1:2|0:0,0:0:0:0:
224,257,2957,5,0,1:0:0:0:
276,137,3134,1,0,0:0:0:0:
188,172,3310,1,2,1:2:0:0:
312,222,3487,1,0,0:2:0:0:
177,37,3663,6,0,B|116:42|116:42|105:47|105:47|46:53,1,132,0|2,1:0|1:2,0:0:0:0:
188,172,4193,6,0,P|174:143|148:124,1,61.875002360344,0|0,0:0|1:0,0:0:0:0:
270,41,4546,2,0,P|269:71|254:98,1,61.875002360344,0|2,0:0|1:2,0:0:0:0:
46,52,4899,1,0,0:0:0:0:
225,262,5252,5,0,0:0:0:0:
242,347,5428,1,2,1:2:0:0:
301,220,5604,1,0,0:0:0:0:
159,319,5781,1,0,1:2:0:0:
208,177,5957,5,0,0:0:0:0:
315,299,6134,1,2,1:2:0:0:
368,146,6310,1,0,0:0:0:0:
67,365,6487,5,0,1:2:0:0:
67,365,6663,2,0,P|99:315|158:318,1,123.750004720688,0|0,0:0|0:0,0:0:0:0:
442,255,7193,2,0,L|380:246,1,61.875002360344,0|0,1:0|0:0,0:0:0:0:
241,142,7546,2,0,L|303:133,1,61.875002360344,2|0,1:2|0:0,0:0:0:0:
387,29,7899,6,0,L|378:91,1,61.875002360344,0|0,1:2|0:0,0:0:0:0:
249,203,8252,2,0,L|240:141,1,61.875002360344,2|0,1:2|0:0,0:0:0:0:
433,225,8604,6,0,L|424:287,1,61.875002360344,0|0,1:0|0:0,0:0:0:0:
330,355,8957,2,0,L|321:293,1,61.875002360344,2|0,1:2|0:0,0:0:0:0:
437,137,9310,5,0,1:2:0:0:
433,225,9487,1,0,0:0:0:0:
512,184,9663,1,2,1:2:0:0:
249,203,9840,6,0,B|191:207|191:207|181:212|181:212|125:218,1,123.750004720688,0|0,0:0|0:0,0:0:0:0:
96,107,10369,2,0,P|127:110|150:132,1,61.875002360344,2|0,1:2|0:0,0:0:0:0:
167,319,10722,2,0,P|197:316|219:295,1,61.875002360344,0|0,1:0|0:0,0:0:0:0:
338,192,11075,5,2,1:2:0:0:
338,192,11252,2,0,B|378:179|409:206|391:213|422:240|464:229,1,140.250002675056,0|0,0:0|0:0,0:0:0:0:
464,229,11781,1,2,1:2:0:0:
249,203,11957,1,0,0:0:0:0:
379,29,12134,5,0,1:0:0:0:
379,29,12487,1,0,1:0:0:0:
379,29,12840,1,0,1:0:0:0:
379,29,13193,2,0,L|370:91,1,55.687500212431,0|0,0:0|0:0,0:0:0:0:
167,319,13546,6,0,B|133:306|122:277|122:277|95:299|59:294,1,129.937496034622,2|0,1:2|0:0,0:0:0:0:
51,312,13899,2,0,P|12:300|-6:271,1,70.1250013375282,10|0,0:0|0:0,0:0:0:0:
268,223,14252,2,0,P|231:242|198:234,1,70.1250013375282,0|2,1:0|0:0,0:0:0:0:
131,186,14516,1,2,0:0:0:0:
124,180,14604,2,0,P|110:140|124:108,1,70.1250013375282,10|0,0:0|0:0,0:0:0:0:
328,291,14957,6,0,P|331:325|313:354,1,70.1250013375282,0|0,1:0|0:0,0:0:0:0:
355,205,15310,1,10,0:0:0:0:
507,237,15487,6,0,B|435:224|435:224|423:217|423:217|354:204,1,156.749995814324,0|0,0:0|0:0,0:0:0:0:
235,312,16016,2,0,L|150:328,1,86.6249973564149,10|0,0:0|0:0,0:0:0:0:
477,144,16369,5,0,1:0:0:0:
328,291,16546,1,0,0:0:0:0:
275,88,16722,1,10,0:0:0:0:
275,88,16899,1,0,0:0:0:0:
477,144,17075,6,0,P|479:102|502:77,1,70.1250013375282,0|2,1:0|0:0,0:0:0:0:
312,221,17340,1,2,0:0:0:0:
308,228,17428,2,0,P|310:269|333:294,1,70.1250013375282,10|0,0:0|0:0,0:0:0:0:
480,349,17781,5,0,1:0:0:0:
275,88,17957,2,0,P|215:85|182:155,1,140.250002675056,2|0,0:0|0:0,0:0:0:0:
398,215,18487,2,0,L|387:140,1,70.1250013375282,0|0,1:0|0:0,0:0:0:0:
235,312,18840,2,0,L|224:381,1,70.1250013375282,10|0,0:0|0:0,0:0:0:0:
275,88,19193,5,0,1:0:0:0:
199,141,19369,1,0,0:0:0:0:
126,86,19546,5,10,0:0:0:0:
308,228,19722,1,0,0:0:0:0:
249,0,19899,1,0,1:0:0:0:
82,166,20075,1,0,0:0:0:0:
82,166,20252,1,10,0:0:0:0:
348,143,20428,6,0,B|388:156|419:129|401:122|432:95|474:106,1,140.250002675056,0|0,0:0|0:0,0:0:0:0:
424,286,20957,1,10,0:0:0:0:
424,286,21134,2,0,P|424:251|405:223,1,70.1250013375282,0|0,0:0|1:0,0:0:0:0:
266,88,21487,2,0,P|266:122|247:150,1,70.1250013375282,0|10,0:0|0:0,0:0:0:0:
82,153,21840,6,0,P|109:92|176:91,1,140.250002675056,0|0,0:0|0:0,0:0:0:0:
308,227,22369,2,0,L|297:296,1,70.1250013375282,10|0,0:0|0:0,0:0:0:0:
474,106,22722,2,0,L|463:36,1,70.1250013375282,0|0,1:0|0:0,0:0:0:0:
463,36,23075,1,10,0:0:0:0:
204,143,23252,2,0,L|252:150,1,43.3124986782074,0|0,0:0|0:0,0:0:0:0:
442,284,23428,6,0,B|444:249|412:233|412:233|427:258|423:286,1,117.562496860743,0|0,1:0|0:0,0:0:0:0:
335,275,23781,6,0,B|268:287|268:287|256:294|256:294|196:305,1,142.312502714396,10|0,0:0|0:0,0:0:0:0:
121,260,24134,6,0,B|145:237|140:199|140:199|164:229|204:225,1,129.937496034622,0|0,1:0|0:0,0:0:0:0:
370,357,24487,2,0,P|423:337|441:283,1,117.562496860743,10|0,0:0|0:0,0:0:0:0:
387,203,24840,5,0,1:0:0:0:
116,350,25193,5,8,0:1:0:0:
387,203,25369,1,8,1:1:0:0:
387,203,25546,1,0,0:0:0:0:
125,42,25722,1,0,1:0:0:0:
387,203,25899,1,8,0:1:0:0:
333,123,26075,6,0,L|264:112,2,61.875002360344,0|0|0,1:0|0:0|0:0,0:0:0:0:
440,282,26604,1,8,0:1:0:0:
500,74,26781,6,0,L|479:212,1,123.750004720688,8|0,0:1|1:0,0:0:0:0:
357,352,27310,2,0,L|346:278,1,61.875002360344,8|0,0:1|0:0,0:0:0:0:
310,38,27663,5,0,1:0:0:0:
481,196,28016,5,8,0:1:0:0:
258,265,28193,1,8,0:1:0:0:
481,196,28369,1,0,0:0:0:0:
481,196,28546,1,0,1:0:0:0:
310,38,28722,1,8,0:1:0:0:
481,196,28899,1,0,1:0:0:0:
255,114,29075,6,0,P|283:133|317:134,2,61.875002360344,0|0|8,0:0|0:0|0:1,0:0:0:0:
390,90,29604,1,8,0:1:0:0:
390,90,29781,2,0,P|436:83|470:9,1,123.750004720688,0|8,1:0|1:1,0:0:0:0:
258,265,30310,5,2,0:0:0:0:
258,265,30399,1,2,0:0:0:0:
258,265,30487,2,0,L|279:403,1,111.374996601105,2|0,1:2|0:0,0:0:0:0:
274,375,30840,6,0,L|199:363,1,45.3750013847352,8|0,1:1|0:0,0:0:0:0:
146,354,31016,1,8,0:1:0:0:
344,251,31193,5,2,1:2:0:0:
177,112,31369,2,0,P|216:173|311:162,1,148.49999546814,0|2,0:0|0:0,0:0:0:0:
426,281,31810,1,2,0:0:0:0:
431,280,31899,2,0,P|463:262|479:230,1,74.2499977340699,2|0,1:2|0:0,0:0:0:0:
274,305,32252,2,0,P|262:339|273:374,1,74.2499977340699,8|10,1:1|0:2,0:0:0:0:
382,167,32604,5,2,1:2:0:0:
382,167,32693,1,2,0:0:0:0:
382,167,32781,2,0,L|372:107,1,45.3750013847352,2|2,0:0|0:0,0:0:0:0:
362,40,32957,1,8,1:1:0:0:
431,280,33134,1,0,0:0:0:0:
188,219,33310,6,0,B|146:202|116:228|132:235|104:260|63:250,1,136.125004154205,2|0,1:2|0:0,0:0:0:0:
53,268,33663,2,0,P|28:267|7:254,1,49.4999984893799,8|0,1:1|0:0,0:0:0:0:
172,308,33840,2,0,P|153:324|130:330,1,49.4999984893799,8|0,0:1|0:0,0:0:0:0:
141,107,34016,6,0,P|186:113|207:138,1,74.2499977340699,2|0,1:2|0:0,0:0:0:0:
336,166,34369,2,0,P|309:190|273:192,1,74.2499977340699,8|0,0:1|0:0,0:0:0:0:
74,46,34722,5,0,1:0:0:0:
74,46,35075,1,0,1:0:0:0:
74,46,35428,1,0,1:0:0:0:
74,46,35781,6,0,P|102:76|145:78,1,86.6249973564149,0|0,0:0|0:0,0:0:0:0:
158,72,36134,5,6,1:2:0:0:
147,171,36310,1,2,0:0:0:0:
147,171,36399,1,2,0:0:0:0:
147,171,36487,1,10,0:0:0:0:
234,12,36663,1,2,0:0:0:0:
147,171,36840,6,0,P|187:172|218:146,1,82.5,2|0,1:2|0:0,0:0:0:0:
234,12,37193,1,8,0:0:0:0:
415,156,37369,2,0,P|372:90|293:90,1,165,2|0,0:0|0:0,0:0:0:0:
56,336,37899,5,8,0:0:0:0:
147,171,38075,1,2,0:0:0:0:
171,357,38252,1,2,1:2:0:0:
43,222,38428,1,0,0:0:0:0:
227,255,38604,1,8,0:0:0:0:
0,20,38957,5,2,1:2:0:0:
133,252,39134,2,0,L|148:162,1,82.5,0|10,0:0|0:0,0:0:0:0:
163,81,39487,1,0,0:0:0:0:
56,336,39663,1,2,1:2:0:0:
227,255,39840,1,0,0:0:0:0:
53,107,40016,1,8,0:0:0:0:
227,255,40193,6,0,B|301:247|301:247|315:241|315:241|391:234,1,165,2|0,0:0|0:0,0:0:0:0:
425,341,40722,1,8,0:0:0:0:
343,327,40898,1,0,0:0:0:0:
466,181,41075,1,2,1:2:0:0:
507,355,41251,1,0,0:0:0:0:
300,127,41428,2,0,L|390:142,1,82.5,10|0,0:0|0:0,0:0:0:0:
227,255,41781,6,0,B|182:243|149:271|168:279|135:307|93:294,1,148.49999546814,2|0,1:2|0:0,0:0:0:0:
86,308,42134,2,0,P|47:296|25:262,1,82.5,8|0,0:0|0:0,0:0:0:0:
253,50,42487,6,0,P|218:72|206:116,1,86.6249973564149,2|0,1:2|0:0,0:0:0:0:
196,127,42840,2,0,B|261:140|261:140|274:146|274:146|340:158,1,148.49999546814,8|0,0:0|0:0,0:0:0:0:
427,175,43193,6,0,L|508:188,1,82.5,2|0,1:2|0:0,0:0:0:0:
399,94,43546,2,0,L|386:13,1,82.5,8|0,0:0|0:0,0:0:0:0:
370,242,43899,2,0,L|357:323,1,82.5,2|0,1:2|0:0,0:0:0:0:
340,158,44252,2,0,B|274:146|274:146|261:140|261:140|195:128,1,148.49999546814,8|0,0:0|0:0,0:0:0:0:
115,154,44604,6,0,L|33:140,1,82.5,2|0,1:2|0:0,0:0:0:0:
47,58,44957,2,0,L|129:72,1,82.5,8|0,0:0|0:0,0:0:0:0:
261,297,45310,2,0,P|231:268|229:228,1,82.5,2|0,1:2|0:0,0:0:0:0:
382,77,45663,5,8,0:0:0:0:
382,77,45840,2,0,P|460:78|497:147,1,165,2|0,0:0|0:0,0:0:0:0:
261,297,46369,1,8,0:0:0:0:
340,158,46546,1,2,1:2:0:0:
340,158,46634,1,2,1:2:0:0:
340,158,46722,2,0,L|354:240,1,82.5,0|2,1:0|1:2,0:0:0:0:
436,303,46987,1,0,1:0:0:0:
437,293,47075,2,0,L|449:219,1,41.25,8|8,0:0|0:0,0:0:0:0:
497,147,47252,2,0,L|503:187,1,41.25,8|8,0:0|0:0,0:0:0:0:
261,297,47428,6,0,B|218:280|204:244|204:244|170:271|125:265,1,165,6|8,1:2|0:0,0:0:0:0:
0,91,47957,1,0,0:0:0:0:
141,176,48134,1,2,1:2:0:0:
45,298,48310,2,0,P|15:269|13:229,1,82.5,0|8,0:0|0:0,0:0:0:0:
231,157,48663,5,2,0:0:0:0:
122,86,48840,1,2,1:2:0:0:
177,354,49016,1,0,0:0:0:0:
382,173,49193,1,10,0:0:0:0:
204,247,49369,6,0,B|250:232|287:263|266:272|302:303|352:290,1,165,2|2,0:0|0:0,0:0:0:0:
353,290,49899,1,8,0:0:0:0:
463,159,50075,2,0,L|381:173,1,82.5,2|0,0:0|1:2,0:0:0:0:
451,295,50428,5,2,0:0:0:0:
451,295,50604,1,8,0:0:0:0:
204,247,50781,2,0,L|122:233,1,82.5,2|2,0:0|1:2,0:0:0:0:
108,230,51046,1,2,0:0:0:0:
94,227,51134,1,2,0:0:0:0:
292,192,51310,1,10,0:0:0:0:
220,72,51487,6,0,P|194:113|199:153,1,82.5,2|2,0:0|1:2,0:0:0:0:
329,366,51840,1,0,0:0:0:0:
329,366,52016,2,0,P|352:333|352:292,1,82.5,10|0,0:0|0:0,0:0:0:0:
8,205,52369,5,2,1:2:0:0:
220,72,52546,1,0,0:0:0:0:
135,309,52722,1,10,0:0:0:0:
65,66,52899,1,0,0:0:0:0:
263,222,53075,2,0,B|318:211|318:211|329:206|329:206|385:196,1,123.75,2|0,1:2|0:0,0:0:0:0:
482,193,53428,6,0,B|483:168|460:157|460:157|471:174|468:194,1,82.5,8|0,0:0|0:0,0:0:0:0:
323,68,53781,2,0,P|356:104|400:106,1,82.5,2|0,1:2|0:0,0:0:0:0:
427,349,54134,2,0,P|441:302|421:263,1,82.5,8|0,0:0|0:0,0:0:0:0:
263,222,54487,6,0,P|206:242|185:300,1,123.75,2|0,1:2|0:0,0:0:0:0:
188,313,54840,2,0,L|106:299,1,82.5,8|0,0:0|0:0,0:0:0:0:
259,381,55193,6,0,L|341:367,1,82.5,2|0,1:2|0:0,0:0:0:0:
122,210,55546,2,0,L|40:196,1,82.5,8|0,0:0|0:0,0:0:0:0:
226,142,55899,6,0,B|298:127|298:127|312:120|312:120|386:107,1,165,6|8,1:2|0:0,0:0:0:0:
254,42,56428,1,0,0:0:0:0:
368,272,56604,2,0,P|370:231|346:199,1,82.5,2|0,1:2|0:0,0:0:0:0:
480,101,56957,2,0,P|481:141|457:173,1,82.5,8|0,0:0|0:0,0:0:0:0:
276,268,57310,6,0,B|220:258|220:258|210:253|210:253|155:242,1,123.75,2|0,1:2|0:0,0:0:0:0:
147,256,57663,2,0,L|65:242,1,82.5,10|0,0:0|0:0,0:0:0:0:
254,340,58016,6,0,P|278:307|275:267,1,82.5,2|0,1:2|0:0,0:0:0:0:
134,87,58369,2,0,P|109:119|112:159,1,82.5,10|0,0:0|0:0,0:0:0:0:
226,144,58722,5,2,1:2:0:0:
229,123,58810,1,2,0:0:0:0:
232,103,58898,1,2,0:0:0:0:
65,269,59075,2,0,L|147:255,1,82.5,10|0,0:0|0:0,0:0:0:0:
327,29,59428,2,0,L|245:15,1,82.5,2|0,1:2|0:0,0:0:0:0:
318,181,59781,2,0,B|383:194|383:194|395:200|395:200|461:211,1,148.49999546814,10|0,0:0|0:0,0:0:0:0:
477,215,60134,5,0,1:2:0:0:
364,348,60310,1,2,0:0:0:0:
364,348,60399,1,2,0:0:0:0:
364,348,60487,2,0,P|339:315|342:275,1,82.5,10|0,0:0|0:0,0:0:0:0:
418,46,60840,2,0,P|442:78|439:118,1,82.5,2|0,1:2|0:0,0:0:0:0:
232,164,61193,2,0,L|150:150,1,82.5,10|0,0:0|0:0,0:0:0:0:
364,348,61546,5,2,1:2:0:0:
445,334,61722,1,0,0:0:0:0:
232,164,61899,5,10,0:0:0:0:
204,326,62075,1,0,0:0:0:0:
445,334,62252,5,2,1:2:0:0:
403,91,62428,1,0,0:0:0:0:
308,276,62604,5,10,0:0:0:0:
389,262,62780,1,0,0:0:0:0:
143,142,62957,6,0,B|97:130|65:157|84:165|51:193|8:181,1,148.49999546814,2|0,1:2|0:0,0:0:0:0:
0,195,63310,1,8,0:0:0:0:
207,79,63487,1,0,0:0:0:0:
62,0,63663,6,0,L|144:14,1,82.5,2|0,1:2|0:0,0:0:0:0:
313,150,64016,2,0,L|231:164,1,82.5,10|0,0:0|0:0,0:0:0:0:
115,314,64369,5,2,1:2:0:0:
128,232,64545,1,0,0:0:0:0:
259,327,64722,5,10,0:0:0:0:
231,163,64898,1,0,0:0:0:0:
373,377,65075,5,2,1:2:0:0:
415,130,65251,1,0,0:0:0:0:
503,301,65428,5,10,0:0:0:0:
487,202,65604,1,0,0:0:0:0:
259,327,65781,6,0,B|202:317|202:317|192:312|192:312|137:303,1,123.75,2|0,1:2|0:0,0:0:0:0:
120,315,66134,1,8,0:0:0:0:
231,163,66310,1,2,0:0:0:0:
231,163,66399,1,2,0:0:0:0:
231,163,66487,2,0,P|252:199|240:242,1,82.5,2|0,1:2|0:0,0:0:0:0:
120,315,66840,5,8,0:0:0:0:
38,302,67016,1,0,0:0:0:0:
231,163,67193,5,2,1:2:0:0:
231,163,67369,2,0,L|329:147,1,82.5,0|8,0:0|0:0,0:0:0:0:
479,123,67722,5,2,0:0:0:0:
479,123,67899,1,2,1:2:0:0:
407,6,68075,2,0,P|382:40|391:83,1,82.5,0|8,0:0|0:0,0:0:0:0:
495,222,68428,1,0,0:0:0:0:
511,26,68604,1,2,1:2:0:0:
397,186,68781,1,0,0:0:0:0:
511,26,68957,5,8,0:0:0:0:
309,137,69134,2,0,L|227:149,1,82.5,2|2,0:0|1:2,0:0:0:0:
383,302,69487,5,0,0:0:0:0:
310,237,69663,2,0,P|285:268|287:310,1,82.5,8|0,0:0|0:0,0:0:0:0:
473,328,70016,1,2,1:2:0:0:
397,186,70193,6,0,P|428:210|470:208,1,82.5,0|10,0:0|0:0,0:0:0:0:
453,119,70546,1,0,0:0:0:0:
140,162,70722,6,0,L|58:174,1,82.5,2|0,1:2|0:0,0:0:0:0:
227,148,71075,1,10,0:0:0:0:
98,3,71252,6,0,L|86:85,1,82.5,2|2,0:0|1:2,0:0:0:0:
252,319,71604,1,0,0:0:0:0:
252,319,71781,2,0,L|240:237,1,82.5,10|0,0:0|0:0,0:0:0:0:
377,17,72134,5,2,1:2:0:0:
453,119,72310,1,0,0:0:0:0:
466,30,72487,1,10,0:0:0:0:
364,106,72663,1,0,0:0:0:0:
510,280,72840,6,0,P|512:239|487:207,1,82.5,2|0,1:2|0:0,0:0:0:0:
364,106,73193,2,0,P|366:146|341:178,1,82.5,8|0,0:0|0:0,0:0:0:0:
193,129,73546,2,0,P|225:104|265:106,1,82.5,2|0,1:2|0:0,0:0:0:0:
420,316,73899,2,0,P|395:284|355:275,1,82.5,10|0,0:0|0:0,0:0:0:0:
122,322,74252,6,0,P|167:340|227:284,1,123.75,2|0,1:2|0:0,0:0:0:0:
237,314,74604,2,0,P|260:280|252:227,1,82.5,10|0,0:0|0:0,0:0:0:0:
125,69,74957,2,0,P|102:103|110:156,1,82.5,2|0,1:2|0:0,0:0:0:0:
420,316,75310,5,0,0:0:0:0:
465,77,75663,6,0,B|430:67|406:87|420:93|395:114|363:105,1,111.375000424862,6|0,1:2|0:0,0:0:0:0:
301,38,75928,2,0,B|266:47|242:27|256:21|231:0|199:9,1,111.375000424862,2|0,0:0|0:0,0:0:0:0:
185,17,76193,1,2,0:0:0:0:
248,206,76369,6,0,L|260:124,1,82.5,2|2,1:2|0:0,0:0:0:0:
455,0,76722,2,0,L|467:82,1,82.5,10|2,0:0|0:0,0:0:0:0:
497,368,77075,6,0,P|470:319|401:327,1,111.375000424862,2|0,1:2|0:0,0:0:0:0:
360,254,77340,2,0,P|306:274|293:326,1,111.375000424862,2|0,0:0|0:0,0:0:0:0:
294,335,77604,1,2,0:0:0:0:
478,163,77781,6,0,L|466:81,1,82.5,2|2,1:2|0:0,0:0:0:0:
271,42,78134,2,0,L|259:124,1,82.5,10|2,0:0|0:0,0:0:0:0:
212,369,78487,6,0,B|139:357|139:357|183:345,1,111.375000424862,2|0,1:2|0:0,0:0:0:0:
74,297,78752,2,0,B|1:309|1:309|37:318,1,111.375000424862,2|0,0:0|0:0,0:0:0:0:
56,327,79016,1,2,0:0:0:0:
163,259,79193,6,0,P|183:223|171:171,1,82.5,2|2,1:2|0:0,0:0:0:0:
40,85,79546,2,0,P|20:121|32:173,1,82.5,10|2,0:0|0:0,0:0:0:0:
297,366,79899,6,0,B|317:345|312:314|312:314|333:339|363:339,1,111.375000424862,2|0,1:2|0:0,0:0:0:0:
455,268,80163,2,0,B|435:247|440:216|440:216|419:241|389:241,1,111.375000424862,2|0,0:0|0:0,0:0:0:0:
377,254,80428,1,2,0:0:0:0:
284,138,80604,6,0,L|366:150,1,82.5,2|2,1:2|0:0,0:0:0:0:
481,363,80957,2,0,L|469:281,1,82.5,10|2,0:0|0:0,0:0:0:0:
195,120,81310,6,0,B|142:111|142:111|132:106|132:106|81:97,1,111.375000424862,2|0,1:2|0:0,0:0:0:0:
126,194,81575,2,0,B|73:202|73:202|63:207|63:207|12:217,1,111.375000424862,2|0,0:0|0:0,0:0:0:0:
3,218,81840,1,2,0:0:0:0:
201,292,82016,6,0,P|226:259|225:219,1,82.5,2|2,1:2|0:0,0:0:0:0:
111,26,82369,2,0,P|85:58|86:98,1,82.5,10|2,0:0|0:0,0:0:0:0:
320,294,82722,6,0,P|379:299|427:228,1,111.375000424862,2|0,1:2|0:0,0:0:0:0:
497,178,82987,2,0,P|438:183|390:112,1,111.375000424862,2|0,0:0|0:0,0:0:0:0:
394,137,83252,1,2,0:0:0:0:
446,24,83428,6,0,P|471:56|470:96,1,82.5,2|2,1:2|0:0,0:0:0:0:
326,199,83781,2,0,P|300:166|301:126,1,82.5,10|2,0:0|0:0,0:0:0:0:
430,359,84134,6,0,L|416:267,2,92.812503540516,2|0|0,0:0|0:0|0:0,0:0:0:0:
202,256,84840,2,0,L|212:186,1,61.875002360344,0|2,0:0|0:0,0:0:0:0:
394,137,85193,2,0,L|383:67,1,61.875002360344,2|2,0:0|0:0,0:0:0:0:
204,22,85546,6,0,L|112:8,2,92.812503540516,2|0|2,0:0|0:0|0:0,0:0:0:0:
382,60,86252,1,2,0:0:0:0:
172,196,86428,5,2,0:0:0:0:
188,109,86604,1,2,0:0:0:0:
275,125,86781,1,2,0:0:0:0:
259,212,86957,1,2,1:2:0:0:
