osu file format v14

[General]
AudioFilename: audio.mp3
AudioLeadIn: 0
PreviewTime: 151035
Countdown: 0
SampleSet: Soft
StackLeniency: 0.7
Mode: 3
LetterboxInBreaks: 0
SpecialStyle: 0
WidescreenStoryboard: 0

[Editor]
Bookmarks: 2094,13300,24682,35977,55741,64212,86800,98094,109388,120682,131977,143271,171506,191271,202565
DistanceSpacing: 0.2
BeatDivisor: 4
GridSize: 32
TimelineZoom: 2

[Metadata]
Title:Kaibutsu
TitleUnicode:怪物
Artist:YOASOBI
ArtistUnicode:YOASOBI
Creator:Lude
Version:Instinctive Attraction
Source:BEASTARS
Tags:ビースターズ 幾田りら アニメ 2期 2nd Second Season Ikura Ikuta Rira Lilas Ayase Monster Japanese Anime J-Pop JPOP Opening Furry Hoto Cocoa
BeatmapID:3031860
BeatmapSetID:1477776

[Difficulty]
HPDrainRate:8.9
CircleSize:5
OverallDifficulty:8.5
ApproachRate:5
SliderMultiplier:1.4
SliderTickRate:1

[Events]
//Background and Video events
0,0,"reversemeow.jpg",0,0
//Break Periods
//Storyboard Layer 0 (Background)
//Storyboard Layer 1 (Fail)
//Storyboard Layer 2 (Pass)
//Storyboard Layer 3 (Foreground)
//Storyboard Layer 4 (Overlay)
//Storyboard Sound Samples

[TimingPoints]
683,352.941176470588,4,2,1,60,1,0
683,-142.857142857143,4,2,1,60,0,0
1918,-100,4,2,1,60,0,0
2094,-66.6666666666667,4,2,1,60,0,0
2138,-200,4,2,1,60,0,0
2182,-111.111111111111,4,2,1,60,0,0
2447,-66.6666666666667,4,2,1,60,0,0
2491,-200,4,2,1,60,0,0
2535,-111.111111111111,4,2,1,60,0,0
2800,-66.6666666666667,4,2,1,60,0,0
2844,-200,4,2,1,60,0,0
2888,-111.111111111111,4,2,1,60,0,0
3153,-66.6666666666667,4,2,1,60,0,0
3197,-200,4,2,1,60,0,0
3241,-111.111111111111,4,2,1,60,0,0
3506,-66.6666666666667,4,2,1,60,0,0
3550,-200,4,2,1,60,0,0
3594,-111.111111111111,4,2,1,60,0,0
3859,-66.6666666666667,4,2,1,60,0,0
3903,-200,4,2,1,60,0,0
3947,-111.111111111111,4,2,1,60,0,0
4212,-66.6666666666667,4,2,1,60,0,0
4256,-200,4,2,1,60,0,0
4300,-111.111111111111,4,2,1,60,0,0
4565,-66.6666666666667,4,2,1,60,0,0
4609,-200,4,2,1,60,0,0
4653,-111.111111111111,4,2,1,60,0,0
4918,-66.6666666666667,4,2,1,60,0,0
4962,-200,4,2,1,60,0,0
5006,-111.111111111111,4,2,1,60,0,0
5271,-66.6666666666667,4,2,1,60,0,0
5315,-200,4,2,1,60,0,0
5359,-111.111111111111,4,2,1,60,0,0
5624,-66.6666666666667,4,2,1,60,0,0
5668,-200,4,2,1,60,0,0
5712,-111.111111111111,4,2,1,60,0,0
5977,-66.6666666666667,4,2,1,60,0,0
6021,-200,4,2,1,60,0,0
6065,-111.111111111111,4,2,1,60,0,0
6330,-66.6666666666667,4,2,1,60,0,0
6374,-200,4,2,1,60,0,0
6418,-111.111111111111,4,2,1,60,0,0
6683,-66.6666666666667,4,2,1,60,0,0
6727,-200,4,2,1,60,0,0
6771,-111.111111111111,4,2,1,60,0,0
7036,-66.6666666666667,4,2,1,60,0,0
7080,-200,4,2,1,60,0,0
7124,-111.111111111111,4,2,1,60,0,0
7389,-66.6666666666667,4,2,1,60,0,0
7433,-200,4,2,1,60,0,0
7477,-111.111111111111,4,2,1,60,0,0
7741,-66.6666666666667,4,2,1,60,0,0
7785,-200,4,2,1,60,0,0
7829,-111.111111111111,4,2,1,60,0,0
8094,-66.6666666666667,4,2,1,60,0,0
8138,-200,4,2,1,60,0,0
8182,-111.111111111111,4,2,1,60,0,0
8447,-66.6666666666667,4,2,1,60,0,0
8491,-200,4,2,1,60,0,0
8535,-111.111111111111,4,2,1,60,0,0
8800,-66.6666666666667,4,2,1,60,0,0
8844,-200,4,2,1,60,0,0
8888,-111.111111111111,4,2,1,60,0,0
9153,-66.6666666666667,4,2,1,60,0,0
9197,-200,4,2,1,60,0,0
9241,-111.111111111111,4,2,1,60,0,0
9506,-66.6666666666667,4,2,1,60,0,0
9550,-200,4,2,1,60,0,0
9594,-111.111111111111,4,2,1,60,0,0
9859,-66.6666666666667,4,2,1,60,0,0
9903,-200,4,2,1,60,0,0
9947,-111.111111111111,4,2,1,60,0,0
10212,-66.6666666666667,4,2,1,60,0,0
10256,-200,4,2,1,60,0,0
10300,-111.111111111111,4,2,1,60,0,0
10565,-66.6666666666667,4,2,1,60,0,0
10609,-200,4,2,1,60,0,0
10653,-111.111111111111,4,2,1,60,0,0
10918,-66.6666666666667,4,2,1,60,0,0
10962,-200,4,2,1,60,0,0
11006,-111.111111111111,4,2,1,60,0,0
11271,-66.6666666666667,4,2,1,60,0,0
11315,-200,4,2,1,60,0,0
11359,-111.111111111111,4,2,1,60,0,0
11624,-66.6666666666667,4,2,1,60,0,0
11668,-200,4,2,1,60,0,0
11712,-111.111111111111,4,2,1,60,0,0
11977,-125,4,2,1,60,0,0
13388,-66.6666666666667,4,2,1,60,0,0
13432,-200,4,2,1,60,0,0
13476,-111.111111111111,4,2,1,60,0,0
13741,-66.6666666666667,4,2,1,60,0,0
13785,-200,4,2,1,60,0,0
13829,-111.111111111111,4,2,1,60,0,0
14094,-66.6666666666667,4,2,1,60,0,0
14138,-200,4,2,1,60,0,0
14182,-111.111111111111,4,2,1,60,0,0
14447,-66.6666666666667,4,2,1,60,0,0
14491,-200,4,2,1,60,0,0
14535,-111.111111111111,4,2,1,60,0,0
14800,-66.6666666666667,4,2,1,60,0,0
14844,-200,4,2,1,60,0,0
14888,-111.111111111111,4,2,1,60,0,0
15153,-66.6666666666667,4,2,1,60,0,0
15197,-200,4,2,1,60,0,0
15241,-111.111111111111,4,2,1,60,0,0
15506,-66.6666666666667,4,2,1,60,0,0
15550,-200,4,2,1,60,0,0
15594,-111.111111111111,4,2,1,60,0,0
15859,-66.6666666666667,4,2,1,60,0,0
15903,-200,4,2,1,60,0,0
15947,-111.111111111111,4,2,1,60,0,0
16212,-66.6666666666667,4,2,1,60,0,0
16256,-200,4,2,1,60,0,0
16300,-111.111111111111,4,2,1,60,0,0
16565,-66.6666666666667,4,2,1,60,0,0
16609,-200,4,2,1,60,0,0
16653,-111.111111111111,4,2,1,60,0,0
16918,-66.6666666666667,4,2,1,60,0,0
16962,-200,4,2,1,60,0,0
17006,-111.111111111111,4,2,1,60,0,0
17271,-66.6666666666667,4,2,1,60,0,0
17315,-200,4,2,1,60,0,0
17359,-111.111111111111,4,2,1,60,0,0
17624,-66.6666666666667,4,2,1,60,0,0
17668,-200,4,2,1,60,0,0
17712,-111.111111111111,4,2,1,60,0,0
17977,-66.6666666666667,4,2,1,60,0,0
18021,-200,4,2,1,60,0,0
18065,-111.111111111111,4,2,1,60,0,0
18330,-66.6666666666667,4,2,1,60,0,0
18374,-200,4,2,1,60,0,0
18418,-111.111111111111,4,2,1,60,0,0
18683,-66.6666666666667,4,2,1,60,0,0
18727,-200,4,2,1,60,0,0
18771,-111.111111111111,4,2,1,60,0,0
19035,-66.6666666666667,4,2,1,60,0,0
19079,-200,4,2,1,60,0,0
19123,-111.111111111111,4,2,1,60,0,0
19388,-66.6666666666667,4,2,1,60,0,0
19432,-200,4,2,1,60,0,0
19476,-111.111111111111,4,2,1,60,0,0
19741,-66.6666666666667,4,2,1,60,0,0
19785,-200,4,2,1,60,0,0
19829,-111.111111111111,4,2,1,60,0,0
20094,-66.6666666666667,4,2,1,60,0,0
20138,-200,4,2,1,60,0,0
20182,-111.111111111111,4,2,1,60,0,0
20447,-66.6666666666667,4,2,1,60,0,0
20491,-200,4,2,1,60,0,0
20535,-111.111111111111,4,2,1,60,0,0
20800,-66.6666666666667,4,2,1,60,0,0
20844,-200,4,2,1,60,0,0
20888,-111.111111111111,4,2,1,60,0,0
21153,-66.6666666666667,4,2,1,60,0,0
21197,-200,4,2,1,60,0,0
21241,-111.111111111111,4,2,1,60,0,0
21506,-66.6666666666667,4,2,1,60,0,0
21550,-200,4,2,1,60,0,0
21594,-111.111111111111,4,2,1,60,0,0
21859,-66.6666666666667,4,2,1,60,0,0
21903,-200,4,2,1,60,0,0
21947,-111.111111111111,4,2,1,60,0,0
22212,-66.6666666666667,4,2,1,60,0,0
22256,-200,4,2,1,60,0,0
22300,-111.111111111111,4,2,1,60,0,0
22565,-66.6666666666667,4,2,1,60,0,0
22609,-200,4,2,1,60,0,0
22653,-111.111111111111,4,2,1,60,0,0
22918,-66.6666666666667,4,2,1,60,0,0
22962,-200,4,2,1,60,0,0
23006,-111.111111111111,4,2,1,60,0,0
23271,-66.6666666666667,4,2,1,60,0,0
23315,-200,4,2,1,60,0,0
23359,-111.111111111111,4,2,1,60,0,0
23624,-66.6666666666667,4,2,1,60,0,0
23668,-200,4,2,1,60,0,0
23712,-111.111111111111,4,2,1,60,0,0
23977,-66.6666666666667,4,2,1,60,0,0
24021,-200,4,2,1,60,0,0
24065,-111.111111111111,4,2,1,60,0,0
24330,-66.6666666666667,4,2,1,60,0,0
24374,-200,4,2,1,60,0,0
24418,-111.111111111111,4,2,1,60,0,0
24682,-200,4,2,1,60,0,0
24947,-80,4,2,1,60,0,0
25035,-100,4,2,1,60,0,0
25212,-200,4,2,1,60,0,0
25477,-80,4,2,1,60,0,0
25565,-100,4,2,1,60,0,0
25918,-133.333333333333,4,2,1,60,0,0
26359,-80,4,2,1,60,0,0
26447,-100,4,2,1,60,0,0
26624,-200,4,2,1,60,0,0
26888,-80,4,2,1,60,0,0
26977,-100,4,2,1,60,0,0
27506,-200,4,2,1,60,0,0
27771,-80,4,2,1,60,0,0
27859,-100,4,2,1,60,0,0
28035,-200,4,2,1,60,0,0
28300,-80,4,2,1,60,0,0
28388,-100,4,2,1,60,0,0
28741,-133.333333333333,4,2,1,60,0,0
29182,-80,4,2,1,60,0,0
29271,-100,4,2,1,60,0,0
34565,-125,4,2,1,60,0,0
35624,-200,4,2,1,60,0,0
35712,-133.333333333333,4,2,1,60,0,0
35800,-100,4,2,1,60,0,0
35844,-90.9090909090909,4,2,1,60,0,0
35888,-83.3333333333333,4,2,1,60,0,0
35910,-76.9230769230769,4,2,1,60,0,0
35932,-71.4285714285714,4,2,1,60,0,0
35955,-66.6666666666667,4,2,1,60,0,0
35977,-100,4,2,1,60,0,1
55741,-66.6666666666667,4,2,1,60,0,0
55830,-80,4,2,1,60,0,0
55918,-133.333333333333,4,2,1,60,0,0
56006,-200,4,2,1,60,0,0
56094,-100,4,2,1,60,0,0
58565,-66.6666666666667,4,2,1,60,0,0
58654,-80,4,2,1,60,0,0
58742,-133.333333333333,4,2,1,60,0,0
58830,-200,4,2,1,60,0,0
58918,-100,4,2,1,60,0,0
86800,-200,4,2,1,60,0,0
86977,-80,4,2,1,60,0,0
87065,-100,4,2,1,60,0,0
88212,-200,4,2,1,60,0,0
88389,-80,4,2,1,60,0,0
88477,-100,4,2,1,60,0,0
89624,-200,4,2,1,60,0,0
89801,-80,4,2,1,60,0,0
89889,-100,4,2,1,60,0,0
91035,-200,4,2,1,60,0,0
91212,-80,4,2,1,60,0,0
91300,-100,4,2,1,60,0,0
97741,-66.6666666666667,4,2,1,60,0,0
97830,-80,4,2,1,60,0,0
97918,-133.333333333333,4,2,1,60,0,0
98006,-200,4,2,1,60,0,0
98094,-66.6666666666667,4,2,1,60,0,0
98116,-500,4,2,1,60,0,0
98138,-66.6666666666667,4,2,1,60,0,0
98160,-500,4,2,1,60,0,0
98182,-66.6666666666667,4,2,1,60,0,0
98204,-500,4,2,1,60,0,0
98227,-66.6666666666667,4,2,1,60,0,0
98249,-500,4,2,1,60,0,0
98271,-66.6666666666667,4,2,1,60,0,0
98293,-500,4,2,1,60,0,0
98315,-66.6666666666667,4,2,1,60,0,0
98337,-500,4,2,1,60,0,0
98359,-66.6666666666667,4,2,1,60,0,0
98381,-500,4,2,1,60,0,0
98403,-66.6666666666667,4,2,1,60,0,0
98425,-500,4,2,1,60,0,0
98447,-66.6666666666667,4,2,1,60,0,0
98469,-500,4,2,1,60,0,0
98491,-66.6666666666667,4,2,1,60,0,0
98513,-500,4,2,1,60,0,0
98535,-66.6666666666667,4,2,1,60,0,0
98557,-500,4,2,1,60,0,0
98580,-66.6666666666667,4,2,1,60,0,0
98602,-500,4,2,1,60,0,0
98624,-66.6666666666667,4,2,1,60,0,0
98646,-500,4,2,1,60,0,0
98668,-66.6666666666667,4,2,1,60,0,0
98690,-500,4,2,1,60,0,0
98712,-66.6666666666667,4,2,1,60,0,0
98734,-500,4,2,1,60,0,0
98756,-66.6666666666667,4,2,1,60,0,0
98778,-500,4,2,1,60,0,0
98800,-111.111111111111,4,2,1,60,0,0
99153,-66.6666666666667,4,2,1,60,0,0
99197,-133.333333333333,4,2,1,60,0,0
99241,-111.111111111111,4,2,1,60,0,0
99859,-66.6666666666667,4,2,1,60,0,0
99903,-133.333333333333,4,2,1,60,0,0
99947,-111.111111111111,4,2,1,60,0,0
100565,-66.6666666666667,4,2,1,60,0,0
100609,-133.333333333333,4,2,1,60,0,0
100653,-111.111111111111,4,2,1,60,0,0
100918,-66.6666666666667,4,2,1,60,0,0
100940,-500,4,2,1,60,0,0
100962,-66.6666666666667,4,2,1,60,0,0
100984,-500,4,2,1,60,0,0
101006,-66.6666666666667,4,2,1,60,0,0
101028,-500,4,2,1,60,0,0
101050,-66.6666666666667,4,2,1,60,0,0
101072,-500,4,2,1,60,0,0
101094,-66.6666666666667,4,2,1,60,0,0
101116,-500,4,2,1,60,0,0
101138,-66.6666666666667,4,2,1,60,0,0
101160,-500,4,2,1,60,0,0
101182,-66.6666666666667,4,2,1,60,0,0
101204,-500,4,2,1,60,0,0
101226,-66.6666666666667,4,2,1,60,0,0
101248,-500,4,2,1,60,0,0
101271,-66.6666666666667,4,2,1,60,0,0
101293,-500,4,2,1,60,0,0
101315,-66.6666666666667,4,2,1,60,0,0
101337,-500,4,2,1,60,0,0
101359,-66.6666666666667,4,2,1,60,0,0
101381,-500,4,2,1,60,0,0
101403,-66.6666666666667,4,2,1,60,0,0
101425,-500,4,2,1,60,0,0
101447,-66.6666666666667,4,2,1,60,0,0
101469,-500,4,2,1,60,0,0
101491,-66.6666666666667,4,2,1,60,0,0
101513,-500,4,2,1,60,0,0
101535,-66.6666666666667,4,2,1,60,0,0
101557,-500,4,2,1,60,0,0
101579,-66.6666666666667,4,2,1,60,0,0
101601,-500,4,2,1,60,0,0
101624,-111.111111111111,4,2,1,60,0,0
101977,-66.6666666666667,4,2,1,60,0,0
102021,-133.333333333333,4,2,1,60,0,0
102065,-111.111111111111,4,2,1,60,0,0
102682,-66.6666666666667,4,2,1,60,0,0
102726,-133.333333333333,4,2,1,60,0,0
102770,-111.111111111111,4,2,1,60,0,0
103388,-66.6666666666667,4,2,1,60,0,0
103432,-133.333333333333,4,2,1,60,0,0
103476,-111.111111111111,4,2,1,60,0,0
103741,-66.6666666666667,4,2,1,60,0,0
103763,-500,4,2,1,60,0,0
103785,-66.6666666666667,4,2,1,60,0,0
103807,-500,4,2,1,60,0,0
103829,-66.6666666666667,4,2,1,60,0,0
103851,-500,4,2,1,60,0,0
103873,-66.6666666666667,4,2,1,60,0,0
103895,-500,4,2,1,60,0,0
103917,-66.6666666666667,4,2,1,60,0,0
103939,-500,4,2,1,60,0,0
103961,-66.6666666666667,4,2,1,60,0,0
103983,-500,4,2,1,60,0,0
104005,-66.6666666666667,4,2,1,60,0,0
104027,-500,4,2,1,60,0,0
104049,-66.6666666666667,4,2,1,60,0,0
104071,-500,4,2,1,60,0,0
104094,-66.6666666666667,4,2,1,60,0,0
104116,-500,4,2,1,60,0,0
104138,-66.6666666666667,4,2,1,60,0,0
104160,-500,4,2,1,60,0,0
104182,-66.6666666666667,4,2,1,60,0,0
104204,-500,4,2,1,60,0,0
104226,-66.6666666666667,4,2,1,60,0,0
104248,-500,4,2,1,60,0,0
104270,-66.6666666666667,4,2,1,60,0,0
104292,-500,4,2,1,60,0,0
104314,-66.6666666666667,4,2,1,60,0,0
104336,-500,4,2,1,60,0,0
104358,-66.6666666666667,4,2,1,60,0,0
104380,-500,4,2,1,60,0,0
104402,-66.6666666666667,4,2,1,60,0,0
104424,-500,4,2,1,60,0,0
104447,-111.111111111111,4,2,1,60,0,0
104800,-66.6666666666667,4,2,1,60,0,0
104844,-133.333333333333,4,2,1,60,0,0
104888,-111.111111111111,4,2,1,60,0,0
105506,-66.6666666666667,4,2,1,60,0,0
105550,-133.333333333333,4,2,1,60,0,0
105594,-111.111111111111,4,2,1,60,0,0
106212,-66.6666666666667,4,2,1,60,0,0
106256,-133.333333333333,4,2,1,60,0,0
106300,-111.111111111111,4,2,1,60,0,0
106565,-66.6666666666667,4,2,1,60,0,0
106587,-500,4,2,1,60,0,0
106609,-66.6666666666667,4,2,1,60,0,0
106631,-500,4,2,1,60,0,0
106653,-66.6666666666667,4,2,1,60,0,0
106675,-500,4,2,1,60,0,0
106697,-66.6666666666667,4,2,1,60,0,0
106719,-500,4,2,1,60,0,0
106741,-66.6666666666667,4,2,1,60,0,0
106763,-500,4,2,1,60,0,0
106785,-66.6666666666667,4,2,1,60,0,0
106807,-500,4,2,1,60,0,0
106829,-66.6666666666667,4,2,1,60,0,0
106851,-500,4,2,1,60,0,0
106873,-66.6666666666667,4,2,1,60,0,0
106895,-500,4,2,1,60,0,0
106918,-66.6666666666667,4,2,1,60,0,0
106940,-500,4,2,1,60,0,0
106962,-66.6666666666667,4,2,1,60,0,0
106984,-500,4,2,1,60,0,0
107006,-66.6666666666667,4,2,1,60,0,0
107028,-500,4,2,1,60,0,0
107050,-66.6666666666667,4,2,1,60,0,0
107072,-500,4,2,1,60,0,0
107094,-66.6666666666667,4,2,1,60,0,0
107116,-500,4,2,1,60,0,0
107138,-66.6666666666667,4,2,1,60,0,0
107160,-500,4,2,1,60,0,0
107182,-66.6666666666667,4,2,1,60,0,0
107204,-500,4,2,1,60,0,0
107226,-66.6666666666667,4,2,1,60,0,0
107248,-500,4,2,1,60,0,0
107271,-111.111111111111,4,2,1,60,0,0
107624,-66.6666666666667,4,2,1,60,0,0
107668,-133.333333333333,4,2,1,60,0,0
107712,-111.111111111111,4,2,1,60,0,0
108330,-66.6666666666667,4,2,1,60,0,0
108374,-133.333333333333,4,2,1,60,0,0
108418,-111.111111111111,4,2,1,60,0,0
108682,-50,4,2,1,60,0,0
108705,-200,4,2,1,60,0,0
108727,-50,4,2,1,60,0,0
108750,-200,4,2,1,60,0,0
108771,-50,4,2,1,60,0,0
108815,-200,4,2,1,60,0,0
108859,-66.6666666666667,4,2,1,60,0,0
108903,-200,4,2,1,60,0,0
109035,-66.6666666666667,4,2,1,60,0,0
109080,-200,4,2,1,60,0,0
109212,-66.6666666666667,4,2,1,60,0,0
109256,-200,4,2,1,60,0,0
109388,-66.6666666666667,4,2,1,60,0,0
109410,-500,4,2,1,60,0,0
109432,-66.6666666666667,4,2,1,60,0,0
109454,-500,4,2,1,60,0,0
109477,-66.6666666666667,4,2,1,60,0,0
109499,-500,4,2,1,60,0,0
109521,-66.6666666666667,4,2,1,60,0,0
109543,-500,4,2,1,60,0,0
109565,-66.6666666666667,4,2,1,60,0,0
109587,-500,4,2,1,60,0,0
109609,-66.6666666666667,4,2,1,60,0,0
109631,-500,4,2,1,60,0,0
109653,-66.6666666666667,4,2,1,60,0,0
109675,-500,4,2,1,60,0,0
109697,-66.6666666666667,4,2,1,60,0,0
109719,-500,4,2,1,60,0,0
109741,-66.6666666666667,4,2,1,60,0,0
109763,-500,4,2,1,60,0,0
109785,-66.6666666666667,4,2,1,60,0,0
109807,-500,4,2,1,60,0,0
109830,-66.6666666666667,4,2,1,60,0,0
109852,-500,4,2,1,60,0,0
109874,-66.6666666666667,4,2,1,60,0,0
109896,-500,4,2,1,60,0,0
109918,-66.6666666666667,4,2,1,60,0,0
109940,-500,4,2,1,60,0,0
109962,-66.6666666666667,4,2,1,60,0,0
109984,-500,4,2,1,60,0,0
110006,-66.6666666666667,4,2,1,60,0,0
110028,-500,4,2,1,60,0,0
110050,-66.6666666666667,4,2,1,60,0,0
110072,-500,4,2,1,60,0,0
110094,-111.111111111111,4,2,1,60,0,0
110447,-66.6666666666667,4,2,1,60,0,0
110469,-500,4,2,1,60,0,0
110491,-66.6666666666667,4,2,1,60,0,0
110513,-500,4,2,1,60,0,0
110535,-66.6666666666667,4,2,1,60,0,0
110557,-500,4,2,1,60,0,0
110579,-66.6666666666667,4,2,1,60,0,0
110601,-500,4,2,1,60,0,0
110624,-66.6666666666667,4,2,1,60,0,0
110646,-500,4,2,1,60,0,0
110668,-66.6666666666667,4,2,1,60,0,0
110690,-500,4,2,1,60,0,0
110712,-66.6666666666667,4,2,1,60,0,0
110734,-500,4,2,1,60,0,0
110756,-66.6666666666667,4,2,1,60,0,0
110778,-500,4,2,1,60,0,0
110800,-66.6666666666667,4,2,1,60,0,0
110822,-500,4,2,1,60,0,0
110844,-66.6666666666667,4,2,1,60,0,0
110866,-500,4,2,1,60,0,0
110888,-66.6666666666667,4,2,1,60,0,0
110910,-500,4,2,1,60,0,0
110932,-66.6666666666667,4,2,1,60,0,0
110954,-500,4,2,1,60,0,0
110977,-66.6666666666667,4,2,1,60,0,0
110999,-500,4,2,1,60,0,0
111021,-66.6666666666667,4,2,1,60,0,0
111043,-500,4,2,1,60,0,0
111065,-66.6666666666667,4,2,1,60,0,0
111087,-500,4,2,1,60,0,0
111109,-66.6666666666667,4,2,1,60,0,0
111131,-500,4,2,1,60,0,0
111153,-111.111111111111,4,2,1,60,0,0
112212,-66.6666666666667,4,2,1,60,0,0
112234,-500,4,2,1,60,0,0
112256,-66.6666666666667,4,2,1,60,0,0
112278,-500,4,2,1,60,0,0
112300,-66.6666666666667,4,2,1,60,0,0
112322,-500,4,2,1,60,0,0
112344,-66.6666666666667,4,2,1,60,0,0
112366,-500,4,2,1,60,0,0
112388,-66.6666666666667,4,2,1,60,0,0
112410,-500,4,2,1,60,0,0
112432,-66.6666666666667,4,2,1,60,0,0
112454,-500,4,2,1,60,0,0
112477,-66.6666666666667,4,2,1,60,0,0
112499,-500,4,2,1,60,0,0
112521,-66.6666666666667,4,2,1,60,0,0
112543,-500,4,2,1,60,0,0
112565,-66.6666666666667,4,2,1,60,0,0
112587,-500,4,2,1,60,0,0
112609,-66.6666666666667,4,2,1,60,0,0
112631,-500,4,2,1,60,0,0
112653,-66.6666666666667,4,2,1,60,0,0
112675,-500,4,2,1,60,0,0
112697,-66.6666666666667,4,2,1,60,0,0
112719,-500,4,2,1,60,0,0
112741,-66.6666666666667,4,2,1,60,0,0
112763,-500,4,2,1,60,0,0
112785,-66.6666666666667,4,2,1,60,0,0
112807,-500,4,2,1,60,0,0
112830,-66.6666666666667,4,2,1,60,0,0
112852,-500,4,2,1,60,0,0
112874,-66.6666666666667,4,2,1,60,0,0
112896,-500,4,2,1,60,0,0
112918,-111.111111111111,4,2,1,60,0,0
113447,-66.6666666666667,4,2,1,60,0,0
113469,-500,4,2,1,60,0,0
113491,-66.6666666666667,4,2,1,60,0,0
113513,-500,4,2,1,60,0,0
113535,-66.6666666666667,4,2,1,60,0,0
113557,-500,4,2,1,60,0,0
113579,-66.6666666666667,4,2,1,60,0,0
113601,-500,4,2,1,60,0,0
113624,-66.6666666666667,4,2,1,60,0,0
113646,-500,4,2,1,60,0,0
113668,-66.6666666666667,4,2,1,60,0,0
113690,-500,4,2,1,60,0,0
113712,-66.6666666666667,4,2,1,60,0,0
113734,-500,4,2,1,60,0,0
113756,-66.6666666666667,4,2,1,60,0,0
113778,-500,4,2,1,60,0,0
113800,-66.6666666666667,4,2,1,60,0,0
113822,-500,4,2,1,60,0,0
113844,-66.6666666666667,4,2,1,60,0,0
113866,-500,4,2,1,60,0,0
113888,-66.6666666666667,4,2,1,60,0,0
113910,-500,4,2,1,60,0,0
113932,-66.6666666666667,4,2,1,60,0,0
113954,-500,4,2,1,60,0,0
113977,-66.6666666666667,4,2,1,60,0,0
113999,-500,4,2,1,60,0,0
114021,-66.6666666666667,4,2,1,60,0,0
114043,-500,4,2,1,60,0,0
114065,-66.6666666666667,4,2,1,60,0,0
114087,-500,4,2,1,60,0,0
114109,-66.6666666666667,4,2,1,60,0,0
114131,-500,4,2,1,60,0,0
114153,-66.6666666666667,4,2,1,60,0,0
114175,-500,4,2,1,60,0,0
114197,-66.6666666666667,4,2,1,60,0,0
114219,-500,4,2,1,60,0,0
114241,-66.6666666666667,4,2,1,60,0,0
114263,-500,4,2,1,60,0,0
114285,-66.6666666666667,4,2,1,60,0,0
114307,-500,4,2,1,60,0,0
114330,-111.111111111111,4,2,1,60,0,0
114506,-66.6666666666667,4,2,1,60,0,0
114528,-500,4,2,1,60,0,0
114550,-66.6666666666667,4,2,1,60,0,0
114572,-500,4,2,1,60,0,0
114594,-66.6666666666667,4,2,1,60,0,0
114616,-500,4,2,1,60,0,0
114638,-66.6666666666667,4,2,1,60,0,0
114660,-500,4,2,1,60,0,0
114682,-66.6666666666667,4,2,1,60,0,0
114704,-500,4,2,1,60,0,0
114726,-66.6666666666667,4,2,1,60,0,0
114748,-500,4,2,1,60,0,0
114771,-66.6666666666667,4,2,1,60,0,0
114793,-500,4,2,1,60,0,0
114815,-66.6666666666667,4,2,1,60,0,0
114837,-500,4,2,1,60,0,0
114859,-66.6666666666667,4,2,1,60,0,0
114881,-500,4,2,1,60,0,0
114903,-66.6666666666667,4,2,1,60,0,0
114925,-500,4,2,1,60,0,0
114947,-66.6666666666667,4,2,1,60,0,0
114969,-500,4,2,1,60,0,0
114991,-66.6666666666667,4,2,1,60,0,0
115013,-500,4,2,1,60,0,0
115035,-66.6666666666667,4,2,1,60,0,0
115057,-500,4,2,1,60,0,0
115079,-66.6666666666667,4,2,1,60,0,0
115101,-500,4,2,1,60,0,0
115124,-66.6666666666667,4,2,1,60,0,0
115146,-500,4,2,1,60,0,0
115168,-66.6666666666667,4,2,1,60,0,0
115190,-500,4,2,1,60,0,0
115212,-66.6666666666667,4,2,1,60,0,0
115234,-500,4,2,1,60,0,0
115256,-66.6666666666667,4,2,1,60,0,0
115278,-500,4,2,1,60,0,0
115300,-66.6666666666667,4,2,1,60,0,0
115322,-500,4,2,1,60,0,0
115344,-66.6666666666667,4,2,1,60,0,0
115366,-500,4,2,1,60,0,0
115388,-66.6666666666667,4,2,1,60,0,0
115410,-500,4,2,1,60,0,0
115432,-66.6666666666667,4,2,1,60,0,0
115454,-500,4,2,1,60,0,0
115477,-66.6666666666667,4,2,1,60,0,0
115499,-500,4,2,1,60,0,0
115521,-66.6666666666667,4,2,1,60,0,0
115543,-500,4,2,1,60,0,0
115565,-66.6666666666667,4,2,1,60,0,0
115587,-500,4,2,1,60,0,0
115609,-66.6666666666667,4,2,1,60,0,0
115631,-500,4,2,1,60,0,0
115653,-66.6666666666667,4,2,1,60,0,0
115675,-500,4,2,1,60,0,0
115697,-66.6666666666667,4,2,1,60,0,0
115719,-500,4,2,1,60,0,0
115741,-111.111111111111,4,2,1,60,0,0
116094,-66.6666666666667,4,2,1,60,0,0
116116,-500,4,2,1,60,0,0
116138,-66.6666666666667,4,2,1,60,0,0
116160,-500,4,2,1,60,0,0
116182,-66.6666666666667,4,2,1,60,0,0
116204,-500,4,2,1,60,0,0
116226,-66.6666666666667,4,2,1,60,0,0
116248,-500,4,2,1,60,0,0
116271,-66.6666666666667,4,2,1,60,0,0
116293,-500,4,2,1,60,0,0
116315,-66.6666666666667,4,2,1,60,0,0
116337,-500,4,2,1,60,0,0
116359,-66.6666666666667,4,2,1,60,0,0
116381,-500,4,2,1,60,0,0
116403,-66.6666666666667,4,2,1,60,0,0
116425,-500,4,2,1,60,0,0
116447,-66.6666666666667,4,2,1,60,0,0
116469,-500,4,2,1,60,0,0
116491,-66.6666666666667,4,2,1,60,0,0
116513,-500,4,2,1,60,0,0
116535,-66.6666666666667,4,2,1,60,0,0
116557,-500,4,2,1,60,0,0
116579,-66.6666666666667,4,2,1,60,0,0
116601,-500,4,2,1,60,0,0
116624,-66.6666666666667,4,2,1,60,0,0
116646,-500,4,2,1,60,0,0
116668,-66.6666666666667,4,2,1,60,0,0
116690,-500,4,2,1,60,0,0
116712,-66.6666666666667,4,2,1,60,0,0
116734,-500,4,2,1,60,0,0
116756,-66.6666666666667,4,2,1,60,0,0
116778,-500,4,2,1,60,0,0
116800,-66.6666666666667,4,2,1,60,0,0
116822,-500,4,2,1,60,0,0
116844,-66.6666666666667,4,2,1,60,0,0
116866,-500,4,2,1,60,0,0
116888,-66.6666666666667,4,2,1,60,0,0
116910,-500,4,2,1,60,0,0
116932,-66.6666666666667,4,2,1,60,0,0
116954,-500,4,2,1,60,0,0
116977,-66.6666666666667,4,2,1,60,0,0
116999,-500,4,2,1,60,0,0
117021,-66.6666666666667,4,2,1,60,0,0
117043,-500,4,2,1,60,0,0
117065,-66.6666666666667,4,2,1,60,0,0
117087,-500,4,2,1,60,0,0
117109,-66.6666666666667,4,2,1,60,0,0
117131,-500,4,2,1,60,0,0
117153,-111.111111111111,4,2,1,60,0,0
117859,-66.6666666666667,4,2,1,60,0,0
117881,-500,4,2,1,60,0,0
117903,-66.6666666666667,4,2,1,60,0,0
117925,-500,4,2,1,60,0,0
117947,-66.6666666666667,4,2,1,60,0,0
117969,-500,4,2,1,60,0,0
117991,-66.6666666666667,4,2,1,60,0,0
118013,-500,4,2,1,60,0,0
118035,-66.6666666666667,4,2,1,60,0,0
118057,-500,4,2,1,60,0,0
118079,-66.6666666666667,4,2,1,60,0,0
118101,-500,4,2,1,60,0,0
118124,-66.6666666666667,4,2,1,60,0,0
118146,-500,4,2,1,60,0,0
118168,-66.6666666666667,4,2,1,60,0,0
118190,-500,4,2,1,60,0,0
118212,-66.6666666666667,4,2,1,60,0,0
118234,-500,4,2,1,60,0,0
118256,-66.6666666666667,4,2,1,60,0,0
118278,-500,4,2,1,60,0,0
118300,-66.6666666666667,4,2,1,60,0,0
118322,-500,4,2,1,60,0,0
118344,-66.6666666666667,4,2,1,60,0,0
118366,-500,4,2,1,60,0,0
118388,-66.6666666666667,4,2,1,60,0,0
118410,-500,4,2,1,60,0,0
118432,-66.6666666666667,4,2,1,60,0,0
118454,-500,4,2,1,60,0,0
118477,-66.6666666666667,4,2,1,60,0,0
118499,-500,4,2,1,60,0,0
118521,-66.6666666666667,4,2,1,60,0,0
118543,-500,4,2,1,60,0,0
118565,-111.111111111111,4,2,1,60,0,0
119094,-66.6666666666667,4,2,1,60,0,0
119116,-500,4,2,1,60,0,0
119138,-66.6666666666667,4,2,1,60,0,0
119160,-500,4,2,1,60,0,0
119182,-66.6666666666667,4,2,1,60,0,0
119204,-500,4,2,1,60,0,0
119226,-66.6666666666667,4,2,1,60,0,0
119248,-500,4,2,1,60,0,0
119271,-66.6666666666667,4,2,1,60,0,0
119293,-500,4,2,1,60,0,0
119315,-66.6666666666667,4,2,1,60,0,0
119337,-500,4,2,1,60,0,0
119359,-66.6666666666667,4,2,1,60,0,0
119381,-500,4,2,1,60,0,0
119403,-66.6666666666667,4,2,1,60,0,0
119425,-500,4,2,1,60,0,0
119447,-66.6666666666667,4,2,1,60,0,0
119469,-500,4,2,1,60,0,0
119491,-66.6666666666667,4,2,1,60,0,0
119513,-500,4,2,1,60,0,0
119535,-66.6666666666667,4,2,1,60,0,0
119557,-500,4,2,1,60,0,0
119579,-66.6666666666667,4,2,1,60,0,0
119601,-500,4,2,1,60,0,0
119624,-66.6666666666667,4,2,1,60,0,0
119646,-500,4,2,1,60,0,0
119668,-66.6666666666667,4,2,1,60,0,0
119690,-500,4,2,1,60,0,0
119712,-66.6666666666667,4,2,1,60,0,0
119734,-500,4,2,1,60,0,0
119756,-66.6666666666667,4,2,1,60,0,0
119778,-500,4,2,1,60,0,0
119800,-66.6666666666667,4,2,1,60,0,0
119822,-500,4,2,1,60,0,0
119844,-66.6666666666667,4,2,1,60,0,0
119866,-500,4,2,1,60,0,0
119888,-66.6666666666667,4,2,1,60,0,0
119910,-500,4,2,1,60,0,0
119932,-66.6666666666667,4,2,1,60,0,0
119954,-500,4,2,1,60,0,0
119977,-66.6666666666667,4,2,1,60,0,0
120065,-200,4,2,1,60,0,0
120153,-66.6666666666667,4,2,1,60,0,0
120241,-200,4,2,1,60,0,0
120330,-66.6666666666667,4,2,1,60,0,0
120418,-200,4,2,1,60,0,0
120506,-66.6666666666667,4,2,1,60,0,0
120594,-200,4,2,1,60,0,0
120682,-100,4,2,1,60,0,0
131977,-125,4,2,1,40,0,0
143271,-111.111111111111,4,2,1,40,0,0
151212,-200,4,2,1,40,0,0
151477,-133.333333333333,4,2,1,40,0,0
151565,-100,4,2,1,40,0,0
151609,-90.9090909090909,4,2,1,40,0,0
151653,-83.3333333333333,4,2,1,40,0,0
151675,-76.9230769230769,4,2,1,40,0,0
151697,-71.4285714285714,4,2,1,40,0,0
151719,-66.6666666666667,4,2,1,40,0,0
151741,-100,4,2,1,60,0,1
171506,-100,4,2,1,60,0,0
190918,-66.6666666666667,4,2,1,60,0,0
191007,-80,4,2,1,60,0,0
191095,-133.333333333333,4,2,1,60,0,0
191183,-200,4,2,1,60,0,0
191271,-100,4,2,1,60,0,0
191977,-66.6666666666667,4,2,1,60,0,0
192065,-200,4,2,1,60,0,0
192153,-66.6666666666667,4,2,1,60,0,0
192241,-200,4,2,1,60,0,0
192330,-66.6666666666667,4,2,1,60,0,0
192418,-200,4,2,1,60,0,0
192506,-66.6666666666667,4,2,1,60,0,0
192594,-200,4,2,1,60,0,0
192682,-100,4,2,1,60,0,0
193388,-66.6666666666667,4,2,1,60,0,0
193476,-200,4,2,1,60,0,0
193564,-66.6666666666667,4,2,1,60,0,0
193652,-200,4,2,1,60,0,0
193741,-66.6666666666667,4,2,1,60,0,0
193829,-200,4,2,1,60,0,0
193917,-66.6666666666667,4,2,1,60,0,0
194005,-200,4,2,1,60,0,0
194094,-100,4,2,1,60,0,0
194800,-66.6666666666667,4,2,1,60,0,0
194888,-200,4,2,1,60,0,0
194976,-66.6666666666667,4,2,1,60,0,0
195064,-200,4,2,1,60,0,0
195153,-66.6666666666667,4,2,1,60,0,0
195241,-200,4,2,1,60,0,0
195329,-66.6666666666667,4,2,1,60,0,0
195417,-200,4,2,1,60,0,0
195506,-100,4,2,1,60,0,0
196212,-66.6666666666667,4,2,1,60,0,0
196300,-200,4,2,1,60,0,0
196388,-66.6666666666667,4,2,1,60,0,0
196476,-200,4,2,1,60,0,0
196565,-66.6666666666667,4,2,1,60,0,0
196653,-200,4,2,1,60,0,0
196741,-66.6666666666667,4,2,1,60,0,0
196829,-200,4,2,1,60,0,0
196918,-100,4,2,1,60,0,0
197624,-66.6666666666667,4,2,1,60,0,0
197712,-200,4,2,1,60,0,0
197800,-66.6666666666667,4,2,1,60,0,0
197888,-200,4,2,1,60,0,0
197977,-66.6666666666667,4,2,1,60,0,0
198065,-200,4,2,1,60,0,0
198153,-66.6666666666667,4,2,1,60,0,0
198241,-200,4,2,1,60,0,0
198330,-100,4,2,1,60,0,0
199035,-66.6666666666667,4,2,1,60,0,0
199123,-200,4,2,1,60,0,0
199212,-71.4285714285714,4,2,1,60,0,0
199300,-166.666666666667,4,2,1,60,0,0
199388,-76.9230769230769,4,2,1,60,0,0
199477,-142.857142857143,4,2,1,60,0,0
199565,-83.3333333333333,4,2,1,60,0,0
199653,-125,4,2,1,60,0,0
199741,-111.111111111111,4,2,1,60,0,0

[HitObjects]
153,192,1388,128,0,1918:0:0:0:0:
358,192,1918,128,0,2094:0:0:0:0:
153,192,2094,1,2,0:0:0:0:
51,192,2094,1,0,0:0:0:0:
460,192,2094,1,0,0:0:0:0:
153,192,2271,1,0,0:0:0:0:
51,192,2447,1,0,0:0:0:0:
358,192,2447,1,2,0:0:0:0:
358,192,2624,1,0,0:0:0:0:
153,192,2800,1,2,0:0:0:0:
460,192,2800,1,0,0:0:0:0:
256,192,2977,1,0,0:0:0:0:
153,192,3153,1,2,0:0:0:0:
460,192,3153,1,0,0:0:0:0:
256,192,3330,1,0,0:0:0:0:
51,192,3506,1,2,0:0:0:0:
358,192,3506,1,0,0:0:0:0:
153,192,3682,1,0,0:0:0:0:
51,192,3859,1,2,0:0:0:0:
460,192,3859,1,0,0:0:0:0:
358,192,4035,1,0,0:0:0:0:
153,192,4212,1,2,0:0:0:0:
460,192,4212,1,0,0:0:0:0:
256,192,4388,1,0,0:0:0:0:
358,192,4565,1,0,0:0:0:0:
51,192,4565,1,2,0:0:0:0:
153,192,4741,1,0,0:0:0:0:
51,192,4918,1,0,0:0:0:0:
460,192,4918,1,2,0:0:0:0:
358,192,5094,1,0,0:0:0:0:
358,192,5271,1,2,0:0:0:0:
51,192,5271,1,0,0:0:0:0:
153,192,5447,1,0,0:0:0:0:
153,192,5624,1,0,0:0:0:0:
460,192,5624,1,2,0:0:0:0:
256,192,5800,1,0,0:0:0:0:
51,192,5977,1,0,0:0:0:0:
256,192,5977,1,2,0:0:0:0:
358,192,6153,1,0,0:0:0:0:
358,192,6330,1,0,0:0:0:0:
153,192,6330,128,2,6682:0:0:0:0:
460,192,6506,128,0,6682:0:0:0:0:
256,192,6682,1,2,0:0:0:0:
51,192,6682,1,0,0:0:0:0:
358,192,6859,128,0,7212:0:0:0:0:
460,192,7035,1,0,0:0:0:0:
153,192,7035,128,2,7212:0:0:0:0:
256,192,7212,128,0,7388:0:0:0:0:
51,192,7388,1,0,0:0:0:0:
358,192,7388,128,2,7741:0:0:0:0:
153,192,7565,128,0,7741:0:0:0:0:
256,192,7741,1,2,0:0:0:0:
460,192,7741,1,0,0:0:0:0:
256,192,7918,1,0,0:0:0:0:
51,192,8094,1,0,0:0:0:0:
358,192,8094,1,2,0:0:0:0:
51,192,8271,1,0,0:0:0:0:
153,192,8447,1,2,0:0:0:0:
460,192,8447,1,0,0:0:0:0:
460,192,8624,1,0,0:0:0:0:
358,192,8800,1,2,0:0:0:0:
51,192,8800,1,0,0:0:0:0:
51,192,8977,1,0,0:0:0:0:
153,192,9153,1,2,0:0:0:0:
460,192,9153,1,0,0:0:0:0:
256,192,9330,1,0,0:0:0:0:
358,192,9506,1,2,0:0:0:0:
51,192,9506,1,0,0:0:0:0:
256,192,9682,1,0,0:0:0:0:
153,192,9859,1,2,0:0:0:0:
460,192,9859,1,0,0:0:0:0:
358,192,10035,1,0,0:0:0:0:
358,192,10212,1,2,0:0:0:0:
51,192,10212,1,0,0:0:0:0:
153,192,10388,1,0,0:0:0:0:
153,192,10565,1,0,0:0:0:0:
460,192,10565,1,2,0:0:0:0:
256,192,10741,1,0,0:0:0:0:
51,192,10918,1,0,0:0:0:0:
358,192,10918,1,2,0:0:0:0:
153,192,11094,1,0,0:0:0:0:
460,192,11271,1,2,0:0:0:0:
256,192,11271,1,0,0:0:0:0:
51,192,11447,1,0,0:0:0:0:
153,192,11624,1,2,0:0:0:0:
460,192,11624,1,0,0:0:0:0:
358,192,11800,1,0,0:0:0:0:
51,192,11977,1,0,0:0:0:0:
153,192,11977,1,2,0:0:0:0:
256,192,12153,128,0,12330:0:0:0:0:
51,192,12330,1,0,0:0:0:0:
153,192,12330,1,2,0:0:0:0:
358,192,12506,128,0,12859:0:0:0:0:
51,192,12682,1,0,0:0:0:0:
153,192,12682,1,2,0:0:0:0:
460,192,12682,128,0,12859:0:0:0:0:
256,192,12859,1,0,0:0:0:0:
153,192,13035,1,0,0:0:0:0:
358,192,13124,1,0,0:0:0:0:
153,192,13212,1,0,0:0:0:0:
153,192,13388,1,0,0:0:0:0:
460,192,13388,1,0,0:0:0:70:climax.wav
256,192,13565,1,0,0:0:0:0:
51,192,13741,1,0,0:0:0:0:
256,192,13741,1,0,0:0:0:0:
460,192,13741,1,0,0:0:0:70:flick.wav
358,192,13918,1,0,0:0:0:0:
358,192,14094,1,0,0:0:0:0:
153,192,14094,1,0,0:0:0:0:
460,192,14271,1,0,0:0:0:0:
460,192,14447,1,0,0:0:0:70:flick.wav
51,192,14447,1,0,0:0:0:0:
256,192,14447,1,0,0:0:0:0:
153,192,14624,1,0,0:0:0:0:
51,192,14800,1,0,0:0:0:0:
358,192,14800,1,0,0:0:0:0:
256,192,14977,1,0,0:0:0:0:
153,192,15153,1,0,0:0:0:0:
460,192,15153,1,0,0:0:0:70:flick.wav
358,192,15153,1,0,0:0:0:0:
51,192,15330,128,0,15682:0:0:0:0:
460,192,15506,1,0,0:0:0:0:
256,192,15506,128,0,15682:0:0:0:0:
153,192,15682,128,0,15859:0:0:0:0:
51,192,15859,1,0,0:0:0:0:
358,192,15859,1,0,0:0:0:70:flick.wav
460,192,15859,1,0,0:0:0:0:
256,192,16035,1,0,0:0:0:0:
51,192,16212,1,0,0:0:0:0:
358,192,16212,1,0,0:0:0:0:
153,192,16388,1,0,0:0:0:0:
153,192,16565,1,0,0:0:0:0:
358,192,16565,1,0,0:0:0:0:
460,192,16565,1,0,0:0:0:70:flick.wav
256,192,16741,1,0,0:0:0:0:
256,192,16918,1,0,0:0:0:0:
51,192,16918,1,0,0:0:0:0:
358,192,17094,1,0,0:0:0:0:
358,192,17271,1,0,0:0:0:70:flick.wav
460,192,17271,1,0,0:0:0:0:
153,192,17271,1,0,0:0:0:0:
256,192,17447,1,0,0:0:0:0:
51,192,17624,1,0,0:0:0:0:
460,192,17624,1,0,0:0:0:0:
153,192,17800,1,0,0:0:0:0:
51,192,17977,1,0,0:0:0:0:
358,192,17977,1,0,0:0:0:70:flick.wav
460,192,17977,1,0,0:0:0:0:
256,192,18153,128,0,18506:0:0:0:0:
153,192,18330,128,0,18506:0:0:0:0:
460,192,18330,1,0,0:0:0:0:
358,192,18506,128,0,18682:0:0:0:0:
51,192,18682,1,0,0:0:0:0:
460,192,18682,1,0,0:0:0:0:
256,192,18682,128,0,18859:0:0:0:70:flick.wav
153,192,18859,128,0,19035:0:0:0:0:
51,192,19035,1,0,0:0:0:0:
358,192,19035,128,0,19388:0:0:0:0:
256,192,19212,128,0,19388:0:0:0:0:
153,192,19388,1,0,0:0:0:70:flick.wav
51,192,19388,1,0,0:0:0:0:
460,192,19388,128,0,19741:0:0:0:0:
358,192,19565,128,0,19741:0:0:0:0:
51,192,19741,1,0,0:0:0:0:
153,192,19741,128,0,19918:0:0:0:0:
358,192,19918,128,0,20094:0:0:0:0:
51,192,20094,1,0,0:0:0:0:
460,192,20094,1,0,0:0:0:0:
153,192,20094,128,0,20271:0:0:0:70:flick.wav
256,192,20271,128,0,20624:0:0:0:0:
51,192,20447,1,0,0:0:0:0:
460,192,20447,1,0,0:0:0:0:
153,192,20624,128,0,20800:0:0:0:0:
51,192,20800,1,0,0:0:0:0:
460,192,20800,1,0,0:0:0:0:
256,192,20800,128,0,20977:0:0:0:70:flick.wav
358,192,20977,128,0,21153:0:0:0:0:
153,192,21153,1,0,0:0:0:0:
460,192,21153,1,0,0:0:0:0:
358,192,21330,1,0,0:0:0:0:
358,192,21506,1,0,0:0:0:0:
51,192,21506,1,0,0:0:0:0:
153,192,21506,1,0,0:0:0:70:flick.wav
256,192,21682,128,0,21859:0:0:0:0:
153,192,21859,1,0,0:0:0:0:
460,192,21859,1,0,0:0:0:0:
51,192,22035,128,0,22212:0:0:0:0:
153,192,22212,1,0,0:0:0:0:
358,192,22212,1,0,0:0:0:70:flick.wav
460,192,22212,1,0,0:0:0:0:
256,192,22388,1,0,0:0:0:0:
153,192,22565,1,0,0:0:0:0:
358,192,22565,1,0,0:0:0:0:
51,192,22741,1,0,0:0:0:0:
256,192,22918,1,0,0:0:0:70:flick.wav
460,192,22918,1,0,0:0:0:0:
358,192,22918,1,0,0:0:0:0:
153,192,23094,1,0,0:0:0:0:
153,192,23271,1,0,0:0:0:0:
460,192,23271,1,0,0:0:0:0:
358,192,23447,1,0,0:0:0:0:
358,192,23624,1,0,0:0:0:70:flick.wav
460,192,23624,1,0,0:0:0:0:
153,192,23624,1,0,0:0:0:0:
51,192,23800,1,0,0:0:0:0:
51,192,23977,1,0,0:0:0:0:
358,192,23977,1,0,0:0:0:0:
460,192,24153,1,0,0:0:0:0:
51,192,24330,1,0,0:0:0:0:
460,192,24330,1,0,0:0:0:0:
153,192,24330,1,0,0:0:0:70:flick.wav
256,192,24506,1,0,0:0:0:0:
51,192,24682,1,0,0:0:0:0:
460,192,24682,1,0,0:0:0:0:
153,192,25035,1,0,0:0:0:0:
256,192,25035,1,0,0:0:0:0:
358,192,25035,1,0,0:0:0:70:clap.wav
153,192,25212,1,2,0:0:0:0:
256,192,25212,1,0,0:0:0:0:
358,192,25212,1,0,0:0:0:70:clap.wav
51,192,25565,1,2,0:0:0:0:
256,192,25565,1,0,0:0:0:0:
153,192,25741,1,0,0:0:0:0:
358,192,25741,1,0,0:0:0:70:clap.wav
460,192,25741,1,0,0:0:0:0:
51,192,25918,1,2,0:0:0:0:
256,192,25918,1,0,0:0:0:0:
256,192,26447,1,0,0:0:0:70:clap.wav
358,192,26447,1,0,0:0:0:0:
460,192,26447,1,0,0:0:0:0:
358,192,26624,1,0,0:0:0:0:
256,192,26624,1,0,0:0:0:70:clap.wav
460,192,26624,1,0,0:0:0:0:
153,192,26977,1,2,0:0:0:0:
358,192,26977,1,0,0:0:0:0:
51,192,27153,1,0,0:0:0:0:
256,192,27153,1,0,0:0:0:0:
460,192,27153,1,0,0:0:0:70:clap.wav
153,192,27330,1,0,0:0:0:0:
358,192,27330,1,0,0:0:0:0:
460,192,27506,1,0,0:0:0:0:
51,192,27506,1,2,0:0:0:0:
153,192,27859,1,0,0:0:0:0:
256,192,27859,1,0,0:0:0:0:
358,192,27859,1,0,0:0:0:70:clap.wav
358,192,28035,1,0,0:0:0:70:clap.wav
256,192,28035,1,0,0:0:0:0:
153,192,28035,1,2,0:0:0:0:
256,192,28388,1,2,0:0:0:0:
460,192,28388,1,0,0:0:0:0:
358,192,28565,1,0,0:0:0:0:
51,192,28565,1,0,0:0:0:0:
153,192,28565,1,0,0:0:0:70:clap.wav
256,192,28741,1,2,0:0:0:0:
460,192,28741,1,0,0:0:0:0:
51,192,29271,1,0,0:0:0:0:
256,192,29271,1,0,0:0:0:0:
153,192,29271,1,0,0:0:0:70:clap.wav
256,192,29447,1,0,0:0:0:0:
153,192,29447,1,0,0:0:0:70:clap.wav
51,192,29447,1,0,0:0:0:0:
358,192,29624,128,2,29800:0:0:0:0:
460,192,29624,128,0,29800:0:0:0:0:
153,192,29800,1,0,0:0:0:0:
358,192,29977,128,2,30153:0:0:0:0:
460,192,29977,128,0,30153:0:0:0:70:clap.wav
256,192,29977,1,0,0:0:0:0:
51,192,30153,1,0,0:0:0:0:
153,192,30197,1,0,0:0:0:0:
256,192,30241,1,0,0:0:0:0:
358,192,30285,1,0,0:0:0:0:
460,192,30330,1,0,0:0:0:70:open_highhat.wav
51,192,30330,1,2,0:0:0:0:
153,192,30330,1,0,0:0:0:0:
256,192,30506,1,0,0:0:0:0:
460,192,30506,1,0,0:0:0:0:
153,192,30594,1,0,0:0:0:0:
51,192,30682,1,2,0:0:0:0:
358,192,30682,1,0,0:0:0:70:clap.wav
256,192,30682,1,0,0:0:0:0:
51,192,30859,1,0,0:0:0:0:
358,192,30859,1,0,0:0:0:70:clap.wav
256,192,30859,1,0,0:0:0:0:
460,192,31035,1,2,0:0:0:0:
153,192,31035,1,0,0:0:0:0:
51,192,31124,1,0,0:0:0:0:
153,192,31212,1,0,0:0:0:0:
358,192,31300,1,0,0:0:0:0:
256,192,31388,1,0,0:0:0:70:clap.wav
51,192,31388,1,0,0:0:0:0:
460,192,31388,1,2,0:0:0:0:
153,192,31565,1,0,0:0:0:0:
358,192,31565,1,0,0:0:0:0:
256,192,31741,1,0,0:0:0:0:
460,192,31741,1,2,0:0:0:0:
51,192,31741,1,0,0:0:0:0:
358,192,31830,1,0,0:0:0:0:
153,192,31918,1,0,0:0:0:0:
256,192,32006,1,0,0:0:0:0:
153,192,32094,1,0,0:0:0:0:
51,192,32094,1,2,0:0:0:0:
358,192,32094,1,0,0:0:0:70:clap.wav
153,192,32271,1,0,0:0:0:0:
51,192,32271,1,0,0:0:0:0:
358,192,32271,1,0,0:0:0:70:clap.wav
256,192,32447,1,0,0:0:0:0:
460,192,32447,1,2,0:0:0:0:
51,192,32535,1,0,0:0:0:0:
153,192,32624,1,0,0:0:0:0:
358,192,32624,1,0,0:0:0:0:
256,192,32712,1,0,0:0:0:0:
153,192,32800,1,0,0:0:0:70:clap.wav
460,192,32800,1,2,0:0:0:0:
51,192,32800,1,0,0:0:0:0:
256,192,32977,1,0,0:0:0:0:
358,192,32977,1,0,0:0:0:0:
153,192,33153,1,0,0:0:0:0:
51,192,33153,1,2,0:0:0:0:
358,192,33241,1,0,0:0:0:0:
153,192,33330,1,0,0:0:0:0:
256,192,33418,1,0,0:0:0:0:
358,192,33506,1,0,0:0:0:0:
460,192,33506,1,0,0:0:0:70:clap.wav
51,192,33506,1,2,0:0:0:0:
51,192,33682,1,0,0:0:0:0:
358,192,33682,1,0,0:0:0:0:
460,192,33682,1,0,0:0:0:70:clap.wav
358,192,33859,1,0,0:0:0:0:
153,192,33859,1,2,0:0:0:0:
51,192,33947,1,0,0:0:0:0:
256,192,34035,1,0,0:0:0:0:
460,192,34035,1,0,0:0:0:0:
153,192,34124,1,0,0:0:0:0:
51,192,34212,1,2,0:0:0:0:
358,192,34212,1,0,0:0:0:70:clap.wav
460,192,34212,1,0,0:0:0:0:
256,192,34300,1,0,0:0:0:0:
51,192,34388,1,0,0:0:0:0:
153,192,34388,1,0,0:0:0:0:
256,192,34477,1,0,0:0:0:0:
358,192,34565,1,0,0:0:0:0:
460,192,34565,1,2,0:0:0:0:
153,192,34741,128,0,34918:0:0:0:0:
358,192,34918,1,0,0:0:0:0:
460,192,34918,1,2,0:0:0:0:
51,192,34918,128,0,35094:0:0:0:0:
153,192,35094,128,0,35447:0:0:0:0:
358,192,35271,1,0,0:0:0:0:
460,192,35271,1,2,0:0:0:0:
51,192,35271,128,0,35447:0:0:0:0:
256,192,35624,128,0,35977:0:0:0:70:whistle.wav
153,192,35977,1,4,0:0:0:0:
51,192,35977,1,2,0:0:0:0:
358,192,35977,1,0,0:0:0:0:
460,192,35977,1,0,0:0:0:0:
51,192,36153,1,0,0:0:0:0:
256,192,36153,1,0,0:0:0:0:
358,192,36153,1,0,0:0:0:0:
153,192,36330,1,8,0:0:0:0:
51,192,36330,1,0,0:0:0:0:
358,192,36330,1,0,0:0:0:0:
460,192,36330,1,0,0:0:0:0:
256,192,36506,1,0,0:0:0:0:
460,192,36506,1,0,0:0:0:0:
153,192,36506,1,0,0:0:0:0:
51,192,36682,1,2,0:0:0:0:
358,192,36682,1,0,0:0:0:0:
460,192,36682,1,0,0:0:0:0:
153,192,36859,1,0,0:0:0:0:
51,192,36859,1,0,0:0:0:0:
256,192,36859,1,0,0:0:0:0:
153,192,37035,1,8,0:0:0:0:
358,192,37035,1,0,0:0:0:0:
460,192,37035,1,0,0:0:0:0:
256,192,37035,1,0,0:0:0:0:
51,192,37212,128,0,37565:0:0:0:0:
358,192,37212,1,0,0:0:0:0:
460,192,37212,1,0,0:0:0:0:
460,192,37388,1,0,0:0:0:0:
153,192,37388,1,2,0:0:0:0:
256,192,37388,1,0,0:0:0:0:
153,192,37565,128,0,37741:0:0:0:0:
358,192,37565,1,0,0:0:0:0:
460,192,37565,1,0,0:0:0:0:
256,192,37741,128,8,37918:0:0:0:0:
51,192,37741,1,0,0:0:0:0:
460,192,37741,1,0,0:0:0:0:
358,192,37741,1,0,0:0:0:0:
358,192,37918,128,0,38094:0:0:0:0:
153,192,37918,1,0,0:0:0:0:
51,192,37918,1,0,0:0:0:0:
460,192,38094,128,0,38624:0:0:0:0:
256,192,38094,1,0,0:0:0:0:
153,192,38094,1,2,0:0:0:0:
51,192,38271,1,0,0:0:0:0:
358,192,38271,1,0,0:0:0:0:
51,192,38447,128,0,38624:0:0:0:0:
153,192,38447,1,0,0:0:0:0:
256,192,38447,1,8,0:0:0:0:
358,192,38447,1,0,0:0:0:0:
153,192,38624,1,0,0:0:0:0:
358,192,38624,1,0,0:0:0:0:
256,192,38800,1,2,0:0:0:0:
460,192,38800,1,0,0:0:0:0:
51,192,38800,1,0,0:0:0:0:
51,192,38977,1,0,0:0:0:0:
358,192,38977,1,0,0:0:0:0:
153,192,38977,1,0,0:0:0:0:
256,192,39153,1,8,0:0:0:0:
358,192,39153,1,0,0:0:0:0:
460,192,39153,1,0,0:0:0:0:
153,192,39153,1,0,0:0:0:0:
51,192,39330,1,0,0:0:0:0:
256,192,39330,1,0,0:0:0:0:
460,192,39330,1,0,0:0:0:0:
153,192,39506,1,2,0:0:0:0:
51,192,39506,1,0,0:0:0:0:
358,192,39506,1,0,0:0:0:0:
460,192,39682,1,0,0:0:0:0:
256,192,39682,1,0,0:0:0:0:
51,192,39859,1,0,0:0:0:0:
460,192,39859,1,0,0:0:0:0:
153,192,39859,128,8,39947:0:0:0:0:
358,192,39859,128,0,39947:0:0:0:0:
51,192,40035,1,0,0:0:0:0:
153,192,40035,128,0,40124:0:0:0:0:
358,192,40035,128,0,40124:0:0:0:0:
256,192,40212,1,2,0:0:0:0:
358,192,40212,1,0,0:0:0:0:
460,192,40212,1,0,0:0:0:0:
256,192,40388,1,0,0:0:0:0:
51,192,40388,128,0,40477:0:0:0:0:
153,192,40388,128,0,40477:0:0:0:0:
460,192,40565,1,0,0:0:0:0:
358,192,40565,1,0,0:0:0:0:
153,192,40565,128,8,40653:0:0:0:0:
51,192,40565,128,0,40653:0:0:0:0:
256,192,40741,1,0,0:0:0:0:
358,192,40741,128,0,40830:0:0:0:0:
460,192,40741,128,0,40830:0:0:0:0:
460,192,40918,1,0,0:0:0:0:
153,192,40918,1,2,0:0:0:0:
358,192,40918,1,0,0:0:0:0:
256,192,41094,1,0,0:0:0:0:
51,192,41094,128,0,41182:0:0:0:0:
153,192,41094,128,0,41182:0:0:0:0:
358,192,41271,1,0,0:0:0:0:
460,192,41271,1,0,0:0:0:0:
153,192,41271,128,8,41359:0:0:0:0:
51,192,41271,128,0,41359:0:0:0:0:
256,192,41447,1,0,0:0:0:0:
358,192,41447,128,0,41535:0:0:0:0:
460,192,41447,128,0,41535:0:0:0:0:
51,192,41624,128,2,41888:0:0:0:0:
358,192,41624,1,0,0:0:0:0:
460,192,41624,1,0,0:0:0:0:
256,192,41800,1,0,0:0:0:0:
51,192,41977,128,8,42241:0:0:0:0:
153,192,41977,128,0,42241:0:0:0:0:
358,192,41977,1,0,0:0:0:0:
460,192,41977,1,0,0:0:0:0:
358,192,42153,1,0,0:0:0:0:
51,192,42330,128,2,42594:0:0:0:0:
256,192,42330,128,0,42594:0:0:0:0:
460,192,42330,128,0,42594:0:0:0:0:
153,192,42506,1,0,0:0:0:0:
153,192,42682,128,0,42947:0:0:0:0:
51,192,42682,128,8,42947:0:0:0:0:
358,192,42682,128,0,42947:0:0:0:0:
460,192,42682,128,0,42947:0:0:0:0:
256,192,42859,1,0,0:0:0:0:
358,192,43035,128,0,43300:0:0:0:0:
256,192,43035,128,0,43300:0:0:0:0:
460,192,43035,128,0,43300:0:0:0:0:
51,192,43035,128,2,43300:0:0:0:0:
153,192,43212,1,0,0:0:0:0:
153,192,43388,128,8,43653:0:0:0:0:
358,192,43388,128,0,43653:0:0:0:0:
460,192,43388,128,0,43653:0:0:0:0:
51,192,43388,1,0,0:0:0:0:
256,192,43565,1,0,0:0:0:0:
256,192,43741,128,2,44006:0:0:0:0:
460,192,43741,128,0,44006:0:0:0:0:
51,192,43741,1,0,0:0:0:0:
153,192,43918,1,0,0:0:0:0:
358,192,44094,128,8,44359:0:0:0:0:
51,192,44094,1,0,0:0:0:0:
256,192,44094,1,0,0:0:0:0:
460,192,44094,1,0,0:0:0:0:
153,192,44271,1,0,0:0:0:0:
51,192,44447,1,0,0:0:0:0:
256,192,44447,1,2,0:0:0:0:
460,192,44447,1,0,0:0:0:0:
153,192,44624,1,0,0:0:0:0:
358,192,44624,1,0,0:0:0:0:
51,192,44800,1,0,0:0:0:0:
256,192,44800,1,8,0:0:0:0:
460,192,44800,1,0,0:0:0:0:
358,192,44800,1,0,0:0:0:0:
153,192,44977,1,0,0:0:0:0:
51,192,44977,1,0,0:0:0:0:
256,192,45153,1,2,0:0:0:0:
460,192,45153,1,0,0:0:0:0:
358,192,45153,1,0,0:0:0:0:
153,192,45330,1,0,0:0:0:0:
358,192,45330,1,0,0:0:0:0:
51,192,45506,1,0,0:0:0:0:
153,192,45506,1,0,0:0:0:0:
256,192,45506,1,8,0:0:0:0:
460,192,45506,1,0,0:0:0:0:
358,192,45682,1,0,0:0:0:0:
460,192,45682,1,0,0:0:0:0:
51,192,45682,1,0,0:0:0:0:
153,192,45859,1,2,0:0:0:0:
256,192,45859,1,0,0:0:0:0:
358,192,45859,1,0,0:0:0:0:
51,192,46035,1,0,0:0:0:0:
256,192,46035,1,0,0:0:0:0:
460,192,46035,1,0,0:0:0:0:
51,192,46212,1,0,0:0:0:0:
153,192,46212,1,8,0:0:0:0:
358,192,46212,1,0,0:0:0:0:
460,192,46212,1,0,0:0:0:0:
256,192,46388,1,0,0:0:0:0:
153,192,46388,1,0,0:0:0:0:
358,192,46388,1,0,0:0:0:0:
51,192,46477,1,0,0:0:0:0:
460,192,46477,1,0,0:0:0:0:
358,192,46565,1,0,0:0:0:0:
153,192,46565,1,2,0:0:0:0:
256,192,46565,1,0,0:0:0:0:
51,192,46741,1,0,0:0:0:0:
153,192,46741,1,8,0:0:0:0:
460,192,46741,1,0,0:0:0:0:
256,192,46918,1,8,0:0:0:0:
358,192,46918,1,0,0:0:0:0:
460,192,46918,1,0,0:0:0:0:
51,192,46918,1,0,0:0:0:0:
153,192,47094,1,8,0:0:0:0:
51,192,47094,1,0,0:0:0:0:
358,192,47094,1,0,0:0:0:0:
256,192,47182,1,8,0:0:0:0:
460,192,47182,1,0,0:0:0:0:
51,192,47271,128,2,47535:0:0:0:0:
153,192,47271,128,4,47535:0:0:0:0:
358,192,47271,128,0,47535:0:0:0:0:
460,192,47447,1,0,0:0:0:0:
358,192,47624,1,0,0:0:0:0:
460,192,47624,1,0,0:0:0:0:
153,192,47624,1,8,0:0:0:0:
51,192,47624,1,0,0:0:0:0:
51,192,47800,1,0,0:0:0:0:
256,192,47800,128,0,47888:0:0:0:0:
358,192,47800,128,0,47888:0:0:0:0:
460,192,47977,1,0,0:0:0:0:
51,192,47977,128,0,48065:0:0:0:0:
153,192,47977,128,2,48065:0:0:0:0:
153,192,48153,1,0,0:0:0:0:
256,192,48153,128,0,48241:0:0:0:0:
358,192,48153,128,0,48241:0:0:0:0:
51,192,48330,1,0,0:0:0:0:
358,192,48330,1,0,0:0:0:0:
460,192,48330,1,0,0:0:0:0:
256,192,48330,1,8,0:0:0:0:
358,192,48506,1,0,0:0:0:0:
51,192,48506,128,0,48594:0:0:0:0:
153,192,48506,128,0,48594:0:0:0:0:
460,192,48682,1,0,0:0:0:0:
153,192,48682,128,2,48771:0:0:0:0:
256,192,48682,128,0,48771:0:0:0:0:
51,192,48859,1,0,0:0:0:0:
256,192,48859,128,0,48947:0:0:0:0:
358,192,48859,128,0,48947:0:0:0:0:
153,192,49035,1,8,0:0:0:0:
51,192,49035,1,0,0:0:0:0:
358,192,49035,128,0,49124:0:0:0:0:
460,192,49035,128,0,49124:0:0:0:0:
460,192,49212,1,0,0:0:0:0:
153,192,49212,128,0,49300:0:0:0:0:
256,192,49212,128,0,49300:0:0:0:0:
51,192,49388,1,0,0:0:0:0:
153,192,49388,1,2,0:0:0:0:
358,192,49388,1,0,0:0:0:0:
358,192,49565,1,0,0:0:0:0:
256,192,49565,128,0,49653:0:0:0:0:
460,192,49565,128,0,49653:0:0:0:0:
256,192,49741,1,0,0:0:0:0:
51,192,49741,1,8,0:0:0:0:
358,192,49741,128,0,49830:0:0:0:0:
153,192,49741,128,0,49830:0:0:0:0:
153,192,49918,1,0,0:0:0:0:
51,192,49918,128,0,50006:0:0:0:0:
256,192,49918,128,0,50006:0:0:0:0:
256,192,50094,1,2,0:0:0:0:
460,192,50094,1,0,0:0:0:0:
51,192,50094,1,0,0:0:0:0:
460,192,50271,1,0,0:0:0:0:
153,192,50271,128,0,50359:0:0:0:0:
358,192,50271,128,0,50359:0:0:0:0:
153,192,50447,1,0,0:0:0:0:
358,192,50447,1,0,0:0:0:0:
460,192,50447,128,0,50535:0:0:0:0:
51,192,50447,128,8,50535:0:0:0:0:
153,192,50624,128,0,50712:0:0:0:0:
358,192,50624,128,0,50712:0:0:0:0:
51,192,50800,1,0,0:0:0:0:
256,192,50800,1,2,0:0:0:0:
460,192,50800,1,0,0:0:0:0:
358,192,50977,1,0,0:0:0:0:
51,192,50977,128,0,51065:0:0:0:0:
153,192,50977,128,0,51065:0:0:0:0:
256,192,51153,1,8,0:0:0:0:
153,192,51153,1,0,0:0:0:0:
358,192,51153,128,0,51241:0:0:0:0:
460,192,51153,128,0,51241:0:0:0:0:
460,192,51330,1,0,0:0:0:0:
51,192,51330,128,0,51418:0:0:0:0:
256,192,51330,128,0,51418:0:0:0:0:
153,192,51506,1,2,0:0:0:0:
51,192,51506,1,0,0:0:0:0:
358,192,51506,1,0,0:0:0:0:
460,192,51682,1,0,0:0:0:0:
153,192,51682,128,0,51771:0:0:0:0:
256,192,51682,128,0,51771:0:0:0:0:
51,192,51859,1,0,0:0:0:0:
256,192,51859,1,8,0:0:0:0:
358,192,51859,128,0,51947:0:0:0:0:
460,192,51859,128,0,51947:0:0:0:0:
153,192,52035,1,0,0:0:0:0:
358,192,52035,1,0,0:0:0:0:
256,192,52212,1,0,0:0:0:0:
460,192,52212,1,0,0:0:0:0:
51,192,52212,128,2,52300:0:0:0:0:
51,192,52388,1,0,0:0:0:0:
358,192,52388,1,0,0:0:0:0:
153,192,52388,128,0,52477:0:0:0:0:
460,192,52565,1,0,0:0:0:0:
153,192,52565,1,0,0:0:0:0:
256,192,52565,128,8,52653:0:0:0:0:
358,192,52565,1,0,0:0:0:0:
51,192,52741,1,0,0:0:0:0:
460,192,52741,1,0,0:0:0:0:
358,192,52741,128,0,52830:0:0:0:0:
153,192,52918,128,2,53182:0:0:0:0:
51,192,52918,1,0,0:0:0:0:
460,192,52918,1,0,0:0:0:0:
256,192,53094,1,0,0:0:0:0:
358,192,53094,1,0,0:0:0:0:
256,192,53271,128,8,53535:0:0:0:0:
358,192,53271,1,0,0:0:0:0:
51,192,53271,1,0,0:0:0:0:
460,192,53271,1,0,0:0:0:0:
153,192,53447,1,0,0:0:0:0:
51,192,53447,1,0,0:0:0:0:
358,192,53624,128,2,53888:0:0:0:0:
460,192,53624,1,0,0:0:0:0:
153,192,53624,1,0,0:0:0:0:
256,192,53800,1,0,0:0:0:0:
51,192,53800,1,0,0:0:0:0:
460,192,53977,128,8,54241:0:0:0:0:
51,192,53977,1,0,0:0:0:0:
256,192,53977,1,0,0:0:0:0:
153,192,53977,1,0,0:0:0:0:
153,192,54153,1,0,0:0:0:0:
358,192,54153,1,0,0:0:0:0:
358,192,54330,128,2,54594:0:0:0:0:
51,192,54330,1,0,0:0:0:0:
256,192,54330,1,0,0:0:0:0:
51,192,54506,1,0,0:0:0:0:
153,192,54506,1,0,0:0:0:0:
256,192,54682,128,8,54947:0:0:0:0:
51,192,54682,1,0,0:0:0:0:
153,192,54682,1,0,0:0:0:0:
460,192,54682,1,0,0:0:0:0:
460,192,54859,1,0,0:0:0:0:
358,192,54859,1,0,0:0:0:0:
51,192,55035,128,2,55300:0:0:0:0:
153,192,55035,1,0,0:0:0:0:
460,192,55035,1,0,0:0:0:0:
358,192,55212,1,0,0:0:0:0:
256,192,55212,1,0,0:0:0:0:
153,192,55388,128,0,55653:0:0:0:0:
51,192,55388,1,0,0:0:0:0:
460,192,55388,1,0,0:0:0:0:
256,192,55477,128,0,55653:0:0:0:0:
358,192,55565,128,0,55653:0:0:0:0:
153,192,55741,1,2,0:0:0:0:
51,192,55741,1,0,0:0:0:0:
358,192,55741,1,0,0:0:0:0:
460,192,55741,1,0,0:0:0:0:
256,192,55741,1,4,0:0:0:0:
51,192,56094,128,0,56359:0:0:0:0:
153,192,56094,128,8,56359:0:0:0:0:
358,192,56094,128,0,56182:0:0:0:0:
460,192,56271,128,0,56359:0:0:0:0:
256,192,56271,128,0,56359:0:0:0:0:
153,192,56447,1,2,0:0:0:0:
358,192,56447,1,0,0:0:0:0:
256,192,56447,1,0,0:0:0:0:
51,192,56535,1,0,0:0:0:0:
460,192,56624,1,0,0:0:0:0:
51,192,56712,1,0,0:0:0:0:
358,192,56712,1,0,0:0:0:0:
153,192,56712,1,0,0:0:0:0:
256,192,56800,1,8,0:0:0:0:
460,192,56800,1,0,0:0:0:0:
51,192,56888,1,0,0:0:0:0:
153,192,56977,1,0,0:0:0:0:
256,192,56977,1,0,0:0:0:0:
460,192,56977,1,0,0:0:0:0:
51,192,57065,1,0,0:0:0:0:
358,192,57153,1,0,0:0:0:0:
460,192,57153,1,0,0:0:0:0:
153,192,57153,1,2,0:0:0:0:
153,192,57330,128,0,57418:0:0:0:0:
51,192,57330,128,0,57594:0:0:0:0:
256,192,57330,128,0,57418:0:0:0:0:
256,192,57506,128,8,57594:0:0:0:0:
460,192,57506,128,0,57594:0:0:0:0:
358,192,57506,128,0,57594:0:0:0:0:
153,192,57682,128,0,57771:0:0:0:0:
358,192,57682,128,0,57771:0:0:0:0:
51,192,57682,128,0,57771:0:0:0:0:
51,192,57859,128,0,58124:0:0:0:0:
460,192,57859,128,0,58124:0:0:0:0:
256,192,57859,128,2,57947:0:0:0:0:
153,192,58035,128,0,58124:0:0:0:0:
358,192,58035,128,0,58124:0:0:0:0:
256,192,58212,128,8,58300:0:0:0:0:
460,192,58212,128,0,58300:0:0:0:0:
51,192,58212,1,0,0:0:0:0:
358,192,58300,128,0,58388:0:0:0:0:
153,192,58300,128,0,58388:0:0:0:0:
51,192,58388,128,0,58477:0:0:0:0:
256,192,58388,128,0,58477:0:0:0:0:
51,192,58565,1,0,0:0:0:0:
256,192,58565,1,2,0:0:0:0:
460,192,58565,1,0,0:0:0:0:
358,192,58918,128,8,59182:0:0:0:0:
460,192,58918,128,0,59182:0:0:0:0:
153,192,58918,128,0,59006:0:0:0:0:
51,192,59094,128,0,59182:0:0:0:0:
256,192,59094,128,0,59182:0:0:0:0:
460,192,59271,1,0,0:0:0:0:
51,192,59271,1,0,0:0:0:0:
256,192,59271,1,2,0:0:0:0:
153,192,59359,1,0,0:0:0:0:
358,192,59447,1,0,0:0:0:0:
51,192,59535,1,0,0:0:0:0:
153,192,59535,1,0,0:0:0:0:
460,192,59535,1,0,0:0:0:0:
256,192,59624,1,8,0:0:0:0:
358,192,59624,1,0,0:0:0:0:
153,192,59712,1,0,0:0:0:0:
51,192,59800,1,0,0:0:0:0:
460,192,59800,1,0,0:0:0:0:
358,192,59800,1,0,0:0:0:0:
153,192,59888,1,0,0:0:0:0:
51,192,59977,1,0,0:0:0:0:
460,192,59977,1,0,0:0:0:0:
256,192,59977,1,2,0:0:0:0:
51,192,60153,128,0,60418:0:0:0:0:
153,192,60153,128,0,60241:0:0:0:0:
358,192,60153,128,0,60241:0:0:0:0:
153,192,60330,128,8,60418:0:0:0:0:
256,192,60330,128,0,60418:0:0:0:0:
460,192,60330,128,0,60418:0:0:0:0:
153,192,60506,128,0,60594:0:0:0:0:
358,192,60506,128,0,60594:0:0:0:0:
51,192,60506,128,0,60594:0:0:0:0:
460,192,60682,128,2,60947:0:0:0:0:
256,192,60682,128,0,60771:0:0:0:0:
51,192,60682,128,0,60771:0:0:0:0:
153,192,60859,128,0,60947:0:0:0:0:
358,192,60859,128,0,60947:0:0:0:0:
51,192,60859,128,0,60947:0:0:0:0:
51,192,61035,128,8,61124:0:0:0:0:
256,192,61035,128,0,61124:0:0:0:0:
460,192,61035,1,0,0:0:0:0:
153,192,61124,128,0,61212:0:0:0:0:
358,192,61124,128,0,61212:0:0:0:0:
256,192,61212,128,0,61300:0:0:0:0:
460,192,61212,128,0,61300:0:0:0:0:
51,192,61388,128,2,61653:0:0:0:0:
153,192,61388,1,0,0:0:0:0:
358,192,61388,1,0,0:0:0:0:
256,192,61565,1,0,0:0:0:0:
460,192,61565,1,0,0:0:0:0:
153,192,61653,128,0,61918:0:0:0:0:
358,192,61653,1,0,0:0:0:0:
51,192,61741,1,0,0:0:0:0:
460,192,61741,1,0,0:0:0:0:
256,192,61741,1,8,0:0:0:0:
256,192,61918,128,0,62094:0:0:0:0:
358,192,61918,1,0,0:0:0:0:
358,192,62094,128,2,62447:0:0:0:0:
51,192,62094,1,0,0:0:0:0:
460,192,62094,1,0,0:0:0:0:
51,192,62271,1,0,0:0:0:0:
460,192,62447,128,8,62800:0:0:0:0:
153,192,62447,1,0,0:0:0:0:
256,192,62447,1,0,0:0:0:0:
153,192,62624,1,0,0:0:0:0:
358,192,62800,128,2,63065:0:0:0:0:
51,192,62800,1,0,0:0:0:0:
256,192,62800,1,0,0:0:0:0:
153,192,62977,1,0,0:0:0:0:
51,192,62977,1,0,0:0:0:0:
460,192,63065,1,0,0:0:0:0:
256,192,63065,128,0,63330:0:0:0:0:
153,192,63153,1,0,0:0:0:0:
358,192,63153,1,8,0:0:0:0:
51,192,63153,1,0,0:0:0:0:
153,192,63330,128,0,63506:0:0:0:0:
460,192,63330,1,0,0:0:0:0:
51,192,63506,128,2,63859:0:0:0:0:
256,192,63506,1,0,0:0:0:0:
358,192,63506,1,0,0:0:0:0:
460,192,63682,1,0,0:0:0:0:
256,192,63859,128,8,64212:0:0:0:0:
153,192,63859,1,0,0:0:0:0:
358,192,63859,1,0,0:0:0:0:
460,192,64035,1,0,0:0:0:0:
358,192,64212,1,2,0:0:0:0:
51,192,64212,1,0,0:0:0:0:
460,192,64212,1,0,0:0:0:70:climax.wav
153,192,64388,1,0,0:0:0:0:
51,192,64565,1,0,0:0:0:0:
153,192,64565,1,0,0:0:0:0:
358,192,64565,1,8,0:0:0:0:
256,192,64741,1,0,0:0:0:0:
256,192,64918,1,0,0:0:0:0:
51,192,64918,1,2,0:0:0:0:
358,192,65094,1,0,0:0:0:0:
358,192,65271,1,0,0:0:0:0:
460,192,65271,1,0,0:0:0:0:
153,192,65271,1,8,0:0:0:0:
51,192,65447,1,0,0:0:0:0:
51,192,65624,1,0,0:0:0:0:
256,192,65624,1,2,0:0:0:0:
460,192,65624,1,0,0:0:0:0:
153,192,65800,1,0,0:0:0:0:
51,192,65977,1,0,0:0:0:0:
358,192,65977,1,8,0:0:0:0:
460,192,65977,1,0,0:0:0:0:
256,192,66153,128,0,66330:0:0:0:0:
51,192,66330,1,2,0:0:0:0:
460,192,66330,1,0,0:0:0:0:
358,192,66506,128,0,66682:0:0:0:0:
51,192,66682,1,8,0:0:0:0:
256,192,66682,1,0,0:0:0:0:
153,192,66682,1,0,0:0:0:0:
460,192,66859,128,0,67035:0:0:0:0:
51,192,67035,128,0,67212:0:0:0:70:whistle.wav
256,192,67035,1,0,0:0:0:0:
153,192,67035,128,2,67212:0:0:0:0:
358,192,67212,1,0,0:0:0:0:
358,192,67388,1,0,0:0:0:0:
51,192,67388,1,0,0:0:0:0:
153,192,67388,1,8,0:0:0:0:
256,192,67565,1,0,0:0:0:0:
256,192,67741,1,2,0:0:0:0:
460,192,67741,1,0,0:0:0:0:
153,192,67918,1,0,0:0:0:0:
153,192,68094,1,0,0:0:0:0:
51,192,68094,1,0,0:0:0:0:
358,192,68094,1,8,0:0:0:0:
256,192,68271,1,0,0:0:0:0:
153,192,68447,128,2,68624:0:0:0:0:
460,192,68447,128,0,68624:0:0:0:70:whistle.wav
256,192,68624,128,0,68800:0:0:0:0:
51,192,68800,1,0,0:0:0:0:
460,192,68800,1,0,0:0:0:0:
153,192,68800,1,8,0:0:0:0:
358,192,68977,128,0,69330:0:0:0:0:
51,192,69153,128,2,69330:0:0:0:0:
460,192,69153,128,0,69330:0:0:0:70:whistle.wav
153,192,69330,128,0,69506:0:0:0:0:
358,192,69506,128,8,69859:0:0:0:0:
51,192,69506,1,0,0:0:0:0:
460,192,69506,1,0,0:0:0:0:
153,192,69682,128,0,69859:0:0:0:0:
51,192,69859,128,0,70035:0:0:0:0:
256,192,69859,128,2,70035:0:0:0:0:
460,192,69859,128,0,70035:0:0:0:70:whistle.wav
153,192,70035,128,0,70388:0:0:0:0:
51,192,70212,128,0,70388:0:0:0:0:
358,192,70212,1,8,0:0:0:0:
460,192,70212,128,0,70388:0:0:0:0:
256,192,70388,1,0,0:0:0:0:
460,192,70565,128,2,70741:0:0:0:0:
153,192,70565,1,0,0:0:0:0:
358,192,70741,128,0,71094:0:0:0:0:
460,192,70918,128,8,71094:0:0:0:0:
153,192,70918,1,0,0:0:0:0:
51,192,70918,128,0,71094:0:0:0:0:
256,192,71094,1,0,0:0:0:0:
51,192,71271,1,0,0:0:0:0:
358,192,71271,128,2,71447:0:0:0:0:
460,192,71271,128,0,71447:0:0:0:70:whistle.wav
51,192,71447,1,0,0:0:0:0:
153,192,71624,1,0,0:0:0:0:
256,192,71624,1,8,0:0:0:0:
460,192,71624,1,0,0:0:0:0:
153,192,71800,1,0,0:0:0:0:
51,192,71977,128,2,72153:0:0:0:0:
358,192,71977,128,0,72153:0:0:0:70:whistle.wav
256,192,72153,1,0,0:0:0:0:
153,192,72330,1,8,0:0:0:0:
460,192,72330,1,0,0:0:0:0:
358,192,72330,1,0,0:0:0:0:
256,192,72506,1,0,0:0:0:0:
358,192,72594,1,0,0:0:0:0:
51,192,72682,128,2,72859:0:0:0:0:
460,192,72682,128,0,72859:0:0:0:70:whistle.wav
153,192,72859,1,0,0:0:0:0:
51,192,73035,1,8,0:0:0:0:
358,192,73035,1,0,0:0:0:0:
460,192,73035,1,0,0:0:0:0:
256,192,73212,1,0,0:0:0:0:
153,192,73388,1,2,0:0:0:0:
460,192,73388,1,0,0:0:0:0:
358,192,73565,1,0,0:0:0:0:
256,192,73741,1,8,0:0:0:0:
460,192,73741,1,0,0:0:0:0:
51,192,73741,1,0,0:0:0:0:
51,192,73918,128,0,74006:0:0:0:0:
153,192,73918,128,0,74006:0:0:0:0:
358,192,74094,128,2,74271:0:0:0:0:
460,192,74094,128,0,74271:0:0:0:70:whistle.wav
51,192,74271,128,0,74359:0:0:0:0:
256,192,74271,128,0,74359:0:0:0:0:
153,192,74447,128,0,74535:0:0:0:0:
358,192,74447,128,8,74535:0:0:0:0:
460,192,74447,1,0,0:0:0:0:
256,192,74624,128,0,74712:0:0:0:0:
460,192,74624,128,0,74712:0:0:0:0:
51,192,74800,128,0,74888:0:0:0:0:
358,192,74800,128,2,74888:0:0:0:0:
256,192,74977,128,0,75065:0:0:0:0:
51,192,74977,128,0,75065:0:0:0:0:
153,192,75153,128,8,75241:0:0:0:0:
460,192,75153,128,0,75241:0:0:0:0:
358,192,75153,1,0,0:0:0:0:
256,192,75330,128,0,75418:0:0:0:0:
460,192,75330,128,0,75418:0:0:0:0:
51,192,75506,1,2,0:0:0:0:
358,192,75506,1,0,0:0:0:0:
51,192,75859,1,0,0:0:0:0:
358,192,75859,1,0,0:0:0:0:
153,192,75859,128,8,76035:0:0:0:0:
460,192,76035,1,0,0:0:0:0:
256,192,76035,128,0,76212:0:0:0:0:
51,192,76212,1,0,0:0:0:0:
358,192,76212,128,2,76388:0:0:0:0:
256,192,76388,1,0,0:0:0:0:
460,192,76388,128,0,76565:0:0:0:0:
153,192,76565,1,8,0:0:0:0:
51,192,76565,1,0,0:0:0:0:
358,192,76565,1,0,0:0:0:0:
460,192,76741,1,0,0:0:0:0:
256,192,76741,128,0,76918:0:0:0:0:
51,192,76918,1,0,0:0:0:0:
358,192,76918,1,2,0:0:0:0:
256,192,77094,1,0,0:0:0:0:
153,192,77271,1,8,0:0:0:0:
51,192,77271,1,0,0:0:0:0:
460,192,77271,1,0,0:0:0:0:
256,192,77447,1,0,0:0:0:0:
460,192,77447,128,0,77624:0:0:0:0:
51,192,77624,1,0,0:0:0:0:
153,192,77624,128,2,77800:0:0:0:0:
256,192,77800,1,0,0:0:0:0:
358,192,77800,128,0,77977:0:0:0:0:
153,192,77977,1,0,0:0:0:0:
460,192,77977,1,0,0:0:0:0:
51,192,77977,128,8,78153:0:0:0:0:
358,192,78153,1,0,0:0:0:0:
256,192,78153,128,0,78330:0:0:0:0:
460,192,78330,1,0,0:0:0:0:
51,192,78330,128,2,78506:0:0:0:0:
153,192,78506,1,0,0:0:0:0:
358,192,78506,1,0,0:0:0:0:
256,192,78682,1,0,0:0:0:0:
51,192,78682,1,0,0:0:0:0:
460,192,78682,128,8,78859:0:0:0:0:
358,192,78859,1,0,0:0:0:0:
153,192,78859,1,0,0:0:0:0:
51,192,79035,1,0,0:0:0:0:
256,192,79035,128,2,79212:0:0:0:0:
358,192,79212,1,0,0:0:0:0:
460,192,79212,128,0,79388:0:0:0:0:
153,192,79388,1,0,0:0:0:0:
256,192,79388,1,8,0:0:0:0:
51,192,79388,1,0,0:0:0:0:
460,192,79565,1,0,0:0:0:0:
358,192,79565,128,0,79741:0:0:0:0:
51,192,79741,1,0,0:0:0:0:
256,192,79741,1,2,0:0:0:0:
460,192,79918,1,0,0:0:0:0:
153,192,79918,128,0,80094:0:0:0:0:
358,192,80094,1,0,0:0:0:0:
256,192,80094,1,8,0:0:0:0:
51,192,80094,1,0,0:0:0:0:
460,192,80271,1,0,0:0:0:0:
153,192,80271,128,0,80447:0:0:0:0:
51,192,80447,1,0,0:0:0:0:
256,192,80447,128,2,80624:0:0:0:0:
358,192,80624,1,0,0:0:0:0:
460,192,80624,128,0,80712:0:0:0:0:
153,192,80800,1,8,0:0:0:0:
51,192,80800,1,0,0:0:0:0:
460,192,80800,128,0,80888:0:0:0:0:
256,192,80977,1,0,0:0:0:0:
460,192,80977,128,0,81065:0:0:0:0:
153,192,81153,1,2,0:0:0:0:
358,192,81153,128,0,81330:0:0:0:0:
51,192,81153,1,0,0:0:0:0:
51,192,81330,1,0,0:0:0:0:
153,192,81330,128,0,81506:0:0:0:0:
256,192,81506,1,0,0:0:0:0:
358,192,81506,128,8,81682:0:0:0:0:
460,192,81506,128,0,81682:0:0:0:0:
51,192,81682,1,0,0:0:0:0:
460,192,81859,1,0,0:0:0:0:
358,192,81859,1,2,0:0:0:0:
153,192,81859,128,0,82035:0:0:0:0:
460,192,82035,1,0,0:0:0:0:
358,192,82035,128,0,82212:0:0:0:0:
256,192,82212,1,0,0:0:0:0:
51,192,82212,128,0,82388:0:0:0:0:
153,192,82212,128,8,82388:0:0:0:0:
460,192,82388,128,0,82565:0:0:0:0:
256,192,82565,1,2,0:0:0:0:
51,192,82565,1,0,0:0:0:0:
460,192,82741,1,0,0:0:0:0:
358,192,82741,128,0,82918:0:0:0:0:
153,192,82918,1,8,0:0:0:0:
51,192,82918,1,0,0:0:0:0:
256,192,82918,1,0,0:0:0:0:
460,192,83094,1,0,0:0:0:0:
358,192,83094,128,0,83271:0:0:0:0:
51,192,83271,1,0,0:0:0:0:
256,192,83271,128,2,83447:0:0:0:0:
460,192,83447,1,0,0:0:0:0:
153,192,83447,128,0,83624:0:0:0:0:
358,192,83624,1,0,0:0:0:0:
51,192,83624,1,0,0:0:0:0:
256,192,83624,128,8,83800:0:0:0:0:
460,192,83800,1,0,0:0:0:0:
153,192,83800,128,0,83977:0:0:0:0:
256,192,83977,1,0,0:0:0:0:
51,192,83977,128,2,84153:0:0:0:0:
358,192,84153,1,0,0:0:0:0:
460,192,84153,1,0,0:0:0:0:
256,192,84330,1,8,0:0:0:0:
51,192,84330,1,0,0:0:0:0:
153,192,84330,128,0,84506:0:0:0:0:
358,192,84506,1,0,0:0:0:0:
460,192,84506,1,0,0:0:0:0:
153,192,84682,1,0,0:0:0:0:
51,192,84682,128,2,84859:0:0:0:0:
460,192,84859,1,0,0:0:0:0:
256,192,84859,128,0,85035:0:0:0:0:
358,192,85035,1,0,0:0:0:0:
153,192,85035,1,8,0:0:0:0:
51,192,85035,1,0,0:0:0:0:
256,192,85212,1,0,0:0:0:0:
460,192,85212,1,0,0:0:0:0:
51,192,85388,1,2,0:0:0:0:
358,192,85388,1,0,0:0:0:0:
51,192,85565,1,0,0:0:0:0:
358,192,85565,1,0,0:0:0:0:
153,192,85741,1,0,0:0:0:0:
460,192,85741,1,0,0:0:0:0:
256,192,85741,1,8,0:0:0:0:
153,192,85918,1,0,0:0:0:0:
460,192,85918,1,0,0:0:0:0:
51,192,86094,1,0,0:0:0:0:
256,192,86094,1,2,0:0:0:0:
51,192,86271,1,0,0:0:0:0:
256,192,86271,1,0,0:0:0:0:
460,192,86447,1,0,0:0:0:0:
358,192,86447,128,8,86535:0:0:0:0:
153,192,86447,128,0,86712:0:0:0:0:
358,192,86624,128,0,86712:0:0:0:0:
358,192,86800,1,0,0:0:0:0:
153,192,86800,1,0,0:0:0:70:whistle.wav
358,192,87065,1,0,0:0:0:0:
51,192,87153,1,0,0:0:0:0:
153,192,87153,1,0,0:0:0:70:clap.wav
358,192,87330,1,0,0:0:0:0:
256,192,87506,1,0,0:0:0:0:
358,192,87682,1,0,0:0:0:0:
51,192,87859,1,0,0:0:0:0:
153,192,87859,1,0,0:0:0:70:clap.wav
460,192,87859,1,0,0:0:0:0:
256,192,88035,1,0,0:0:0:0:
358,192,88212,1,0,0:0:0:70:whistle.wav
358,192,88477,1,0,0:0:0:0:
153,192,88565,1,0,0:0:0:70:clap.wav
51,192,88565,1,0,0:0:0:0:
358,192,88741,1,0,0:0:0:0:
256,192,88918,1,0,0:0:0:0:
358,192,89094,1,0,0:0:0:0:
51,192,89271,1,0,0:0:0:0:
153,192,89271,1,0,0:0:0:70:clap.wav
460,192,89271,1,0,0:0:0:0:
358,192,89447,1,0,0:0:0:0:
153,192,89624,1,0,0:0:0:70:whistle.wav
153,192,89888,1,0,0:0:0:0:
358,192,89977,1,0,0:0:0:70:clap.wav
460,192,89977,1,0,0:0:0:0:
153,192,90153,1,0,0:0:0:0:
51,192,90330,1,0,0:0:0:0:
153,192,90506,1,0,0:0:0:0:
358,192,90682,1,0,0:0:0:70:clap.wav
460,192,90682,1,0,0:0:0:0:
51,192,90682,1,0,0:0:0:0:
256,192,90859,1,0,0:0:0:0:
153,192,91035,1,0,0:0:0:70:whistle.wav
153,192,91300,1,0,0:0:0:0:
358,192,91388,1,0,0:0:0:70:clap.wav
460,192,91388,1,0,0:0:0:0:
153,192,91565,1,0,0:0:0:0:
51,192,91741,1,0,0:0:0:0:
153,192,91918,1,0,0:0:0:0:
358,192,92094,1,0,0:0:0:70:clap.wav
460,192,92094,1,0,0:0:0:0:
51,192,92094,1,0,0:0:0:0:
256,192,92271,1,0,0:0:0:0:
51,192,92447,1,2,0:0:0:0:
460,192,92447,1,0,0:0:0:0:
256,192,92624,1,0,0:0:0:0:
153,192,92712,1,0,0:0:0:0:
51,192,92712,1,0,0:0:0:0:
460,192,92800,1,2,0:0:0:0:
358,192,92800,1,0,0:0:0:70:clap.wav
153,192,92977,1,0,0:0:0:0:
51,192,92977,1,0,0:0:0:0:
256,192,93153,1,0,0:0:0:0:
460,192,93153,1,2,0:0:0:0:
51,192,93330,1,0,0:0:0:0:
358,192,93330,1,0,0:0:0:0:
256,192,93506,1,0,0:0:0:70:clap.wav
460,192,93506,1,2,0:0:0:0:
51,192,93682,1,0,0:0:0:0:
153,192,93682,1,0,0:0:0:0:
358,192,93859,1,0,0:0:0:0:
460,192,93859,1,2,0:0:0:0:
153,192,94035,1,0,0:0:0:0:
358,192,94124,1,0,0:0:0:0:
460,192,94124,1,0,0:0:0:0:
256,192,94212,1,0,0:0:0:70:clap.wav
51,192,94212,1,2,0:0:0:0:
358,192,94388,1,0,0:0:0:0:
460,192,94388,1,0,0:0:0:0:
256,192,94565,1,0,0:0:0:0:
51,192,94565,1,2,0:0:0:0:
358,192,94741,1,0,0:0:0:70:clap.wav
460,192,94741,1,0,0:0:0:0:
153,192,94918,1,0,0:0:0:70:clap.wav
51,192,94918,1,2,0:0:0:0:
256,192,95094,1,0,0:0:0:0:
460,192,95094,1,0,0:0:0:0:
51,192,95271,1,2,0:0:0:0:
358,192,95271,1,0,0:0:0:0:
256,192,95359,1,0,0:0:0:0:
153,192,95447,1,0,0:0:0:0:
358,192,95535,1,0,0:0:0:0:
460,192,95535,1,0,0:0:0:0:
256,192,95624,1,0,0:0:0:0:
51,192,95624,1,8,0:0:0:0:
153,192,95800,1,0,0:0:0:0:
358,192,95800,1,0,0:0:0:0:
460,192,95888,1,0,0:0:0:0:
51,192,95977,1,2,0:0:0:0:
153,192,95977,1,0,0:0:0:0:
256,192,96065,1,0,0:0:0:0:
358,192,96153,1,8,0:0:0:0:
460,192,96153,1,0,0:0:0:0:
153,192,96241,1,0,0:0:0:0:
358,192,96330,1,0,0:0:0:0:
460,192,96330,1,8,0:0:0:0:
51,192,96418,1,0,0:0:0:0:
256,192,96506,1,0,0:0:0:0:
460,192,96506,1,0,0:0:0:0:
153,192,96594,1,0,0:0:0:0:
51,192,96682,1,2,0:0:0:0:
256,192,96682,1,0,0:0:0:0:
358,192,96771,1,0,0:0:0:0:
153,192,96859,1,0,0:0:0:0:
51,192,96859,1,2,0:0:0:0:
460,192,96947,1,0,0:0:0:0:
256,192,97035,1,0,0:0:0:0:
51,192,97035,1,8,0:0:0:0:
460,192,97124,1,0,0:0:0:0:
51,192,97212,1,2,0:0:0:0:
153,192,97212,1,0,0:0:0:0:
358,192,97300,1,0,0:0:0:0:
51,192,97388,1,0,0:0:0:0:
153,192,97388,1,2,0:0:0:0:
358,192,97477,1,2,0:0:0:0:
460,192,97477,1,0,0:0:0:0:
153,192,97565,1,2,0:0:0:0:
51,192,97565,1,0,0:0:0:0:
256,192,97653,1,0,0:0:0:0:
358,192,97653,1,2,0:0:0:0:
460,192,97741,1,0,0:0:0:0:
153,192,97741,1,8,0:0:0:0:
51,192,97741,1,0,0:0:0:0:
51,192,98094,128,2,98800:0:0:0:0:
153,192,98094,128,4,98447:0:0:0:70:climax.wav
256,192,98094,1,0,0:0:0:0:
358,192,98138,1,0,0:0:0:0:
460,192,98182,1,0,0:0:0:0:
256,192,98271,1,0,0:0:0:0:
358,192,98447,128,0,98624:0:0:0:0:
460,192,98447,128,0,98624:0:0:0:0:
153,192,98624,1,0,0:0:0:0:
153,192,98800,1,0,0:0:0:0:
358,192,98800,1,8,0:0:0:0:
460,192,98800,1,0,0:0:0:0:
358,192,98977,1,0,0:0:0:0:
153,192,99153,128,2,99330:0:0:0:0:
51,192,99153,128,0,99330:0:0:0:0:
460,192,99153,1,0,0:0:0:0:
256,192,99330,1,0,0:0:0:0:
460,192,99330,1,0,0:0:0:0:
51,192,99506,1,0,0:0:0:0:
153,192,99506,1,0,0:0:0:0:
358,192,99682,1,0,0:0:0:0:
460,192,99682,1,0,0:0:0:0:
153,192,99859,128,2,100035:0:0:0:0:
51,192,99859,128,0,100035:0:0:0:0:
256,192,100035,1,0,0:0:0:0:
460,192,100035,1,0,0:0:0:0:
358,192,100212,1,8,0:0:0:0:
153,192,100212,1,0,0:0:0:0:
460,192,100212,1,0,0:0:0:0:
51,192,100388,1,0,0:0:0:0:
51,192,100565,1,0,0:0:0:0:
358,192,100565,128,0,100741:0:0:0:0:
460,192,100565,128,0,100741:0:0:0:0:
51,192,100741,1,0,0:0:0:0:
358,192,100918,128,2,101271:0:0:0:0:
460,192,100918,128,0,101624:0:0:0:0:
153,192,100918,1,0,0:0:0:0:
153,192,101094,1,0,0:0:0:0:
51,192,101271,128,0,101447:0:0:0:0:
153,192,101271,128,0,101447:0:0:0:0:
256,192,101447,1,0,0:0:0:0:
358,192,101624,1,0,0:0:0:0:
153,192,101624,1,8,0:0:0:0:
51,192,101624,1,0,0:0:0:0:
51,192,101800,1,0,0:0:0:0:
153,192,101977,1,0,0:0:0:0:
358,192,101977,128,0,102153:0:0:0:0:
460,192,101977,128,0,102153:0:0:0:0:
153,192,102153,1,2,0:0:0:0:
256,192,102153,1,0,0:0:0:0:
460,192,102330,1,0,0:0:0:0:
51,192,102330,1,0,0:0:0:0:
460,192,102506,1,0,0:0:0:0:
51,192,102682,128,0,102859:0:0:0:0:
153,192,102682,128,2,102859:0:0:0:0:
358,192,102682,1,0,0:0:0:0:
358,192,102859,1,0,0:0:0:0:
256,192,103035,1,8,0:0:0:0:
51,192,103035,1,0,0:0:0:0:
460,192,103035,1,0,0:0:0:0:
153,192,103212,1,0,0:0:0:0:
358,192,103388,128,0,103565:0:0:0:0:
460,192,103388,128,0,103565:0:0:0:0:
153,192,103388,1,0,0:0:0:0:
256,192,103565,1,0,0:0:0:0:
460,192,103741,128,0,104447:0:0:0:0:
358,192,103741,128,2,104094:0:0:0:0:
51,192,103741,1,0,0:0:0:0:
153,192,103785,1,0,0:0:0:0:
256,192,103830,1,0,0:0:0:0:
51,192,103918,1,0,0:0:0:0:
153,192,104094,128,0,104271:0:0:0:0:
51,192,104094,128,0,104271:0:0:0:0:
256,192,104271,1,0,0:0:0:0:
51,192,104447,1,0,0:0:0:0:
153,192,104447,1,8,0:0:0:0:
358,192,104447,1,0,0:0:0:0:
256,192,104624,1,0,0:0:0:0:
358,192,104800,128,2,104977:0:0:0:0:
460,192,104800,128,0,104977:0:0:0:0:
51,192,104800,1,0,0:0:0:0:
153,192,104977,1,0,0:0:0:0:
51,192,105153,1,0,0:0:0:0:
256,192,105153,1,0,0:0:0:0:
256,192,105330,1,0,0:0:0:0:
51,192,105506,128,0,105682:0:0:0:0:
153,192,105506,128,2,105682:0:0:0:0:
358,192,105506,1,0,0:0:0:0:
358,192,105682,1,0,0:0:0:0:
153,192,105859,1,8,0:0:0:0:
51,192,105859,1,0,0:0:0:0:
460,192,105859,1,0,0:0:0:0:
256,192,106035,1,0,0:0:0:0:
358,192,106212,128,0,106388:0:0:0:0:
460,192,106212,128,0,106388:0:0:0:0:
153,192,106212,1,0,0:0:0:0:
51,192,106388,1,0,0:0:0:0:
460,192,106565,128,0,107271:0:0:0:0:
358,192,106565,128,2,106918:0:0:0:0:
153,192,106565,1,0,0:0:0:0:
256,192,106741,1,0,0:0:0:0:
51,192,106918,128,0,107094:0:0:0:0:
153,192,106918,128,0,107094:0:0:0:0:
256,192,107094,1,0,0:0:0:0:
358,192,107271,1,0,0:0:0:0:
153,192,107271,1,8,0:0:0:0:
51,192,107271,1,0,0:0:0:0:
153,192,107447,1,0,0:0:0:0:
358,192,107624,128,0,107800:0:0:0:0:
460,192,107624,128,0,107800:0:0:0:0:
51,192,107624,1,0,0:0:0:0:
51,192,107800,1,0,0:0:0:0:
256,192,107800,1,2,0:0:0:0:
153,192,107977,1,0,0:0:0:0:
358,192,107977,1,0,0:0:0:0:
358,192,108153,1,0,0:0:0:0:
51,192,108330,128,0,108506:0:0:0:0:
153,192,108330,128,2,108506:0:0:0:0:
460,192,108330,1,0,0:0:0:0:
460,192,108506,1,0,0:0:0:0:
153,192,108682,1,0,0:0:0:40:tick.wav
256,192,108727,1,0,0:0:0:40:tick.wav
358,192,108771,1,0,0:0:0:40:tick.wav
153,192,108859,1,0,0:0:0:40:tick.wav
153,192,109035,1,0,0:0:0:40:tick.wav
153,192,109212,1,0,0:0:0:40:tick.wav
51,192,109388,128,2,110094:0:0:0:0:
460,192,109388,1,0,0:0:0:0:
358,192,109388,1,0,0:0:0:0:
256,192,109388,1,4,0:0:0:0:
256,192,109565,1,0,0:0:0:0:
358,192,109741,128,0,109918:0:0:0:0:
460,192,109741,128,0,109918:0:0:0:0:
153,192,109741,1,0,0:0:0:0:
153,192,109918,1,0,0:0:0:0:
460,192,110094,1,0,0:0:0:0:
358,192,110094,1,0,0:0:0:0:
256,192,110094,1,8,0:0:0:0:
153,192,110271,1,0,0:0:0:0:
358,192,110447,128,0,110624:0:0:0:0:
460,192,110447,128,0,110624:0:0:0:0:
51,192,110447,128,2,111153:0:0:0:0:
256,192,110624,1,0,0:0:0:0:
460,192,110800,1,0,0:0:0:0:
153,192,110800,1,0,0:0:0:0:
256,192,110977,1,0,0:0:0:0:
358,192,111153,128,2,111330:0:0:0:0:
460,192,111153,128,0,111330:0:0:0:0:
153,192,111153,1,0,0:0:0:0:
153,192,111330,1,0,0:0:0:0:
256,192,111506,1,8,0:0:0:0:
460,192,111506,1,0,0:0:0:0:
358,192,111506,1,0,0:0:0:0:
153,192,111682,1,0,0:0:0:0:
358,192,111859,128,0,112035:0:0:0:0:
460,192,111859,128,0,112035:0:0:0:0:
153,192,111859,1,0,0:0:0:0:
153,192,112035,1,0,0:0:0:0:
358,192,112212,1,2,0:0:0:0:
51,192,112212,1,0,0:0:0:0:
460,192,112212,128,0,112918:0:0:0:0:
358,192,112388,1,0,0:0:0:0:
51,192,112565,128,0,112741:0:0:0:0:
153,192,112565,128,0,112741:0:0:0:0:
358,192,112565,1,0,0:0:0:0:
256,192,112741,1,0,0:0:0:0:
358,192,112918,1,0,0:0:0:0:
153,192,112918,1,8,0:0:0:0:
51,192,112918,1,0,0:0:0:0:
256,192,113094,1,0,0:0:0:0:
51,192,113271,128,0,113447:0:0:0:0:
153,192,113271,128,0,113447:0:0:0:0:
460,192,113447,128,0,114330:0:0:0:0:
256,192,113447,1,2,0:0:0:0:
51,192,113624,1,0,0:0:0:0:
153,192,113624,1,0,0:0:0:0:
256,192,113800,1,0,0:0:0:0:
51,192,113977,128,0,114153:0:0:0:0:
153,192,113977,128,2,114153:0:0:0:0:
358,192,113977,1,0,0:0:0:0:
358,192,114153,1,0,0:0:0:0:
51,192,114330,1,0,0:0:0:0:
153,192,114330,1,8,0:0:0:0:
256,192,114330,1,0,0:0:0:0:
460,192,114506,128,2,115035:0:0:0:0:
358,192,114506,1,0,0:0:0:0:
51,192,114682,128,0,114859:0:0:0:0:
153,192,114682,128,0,114859:0:0:0:0:
358,192,114682,1,0,0:0:0:0:
358,192,114859,1,0,0:0:0:0:
153,192,115035,1,0,0:0:0:0:
51,192,115035,128,2,115741:0:0:0:0:
256,192,115080,1,0,0:0:0:0:
358,192,115124,1,0,0:0:0:0:
153,192,115212,1,0,0:0:0:0:
460,192,115388,128,0,115565:0:0:0:0:
358,192,115388,128,0,115565:0:0:0:0:
256,192,115388,1,0,0:0:0:0:
153,192,115565,1,0,0:0:0:0:
256,192,115741,1,8,0:0:0:0:
358,192,115741,1,0,0:0:0:0:
460,192,115741,1,0,0:0:0:0:
256,192,115918,1,0,0:0:0:0:
460,192,116094,128,0,116271:0:0:0:0:
358,192,116094,128,0,116271:0:0:0:0:
51,192,116094,128,2,116624:0:0:0:0:
153,192,116271,1,0,0:0:0:0:
460,192,116447,1,0,0:0:0:0:
358,192,116447,1,0,0:0:0:0:
256,192,116624,128,0,117153:0:0:0:0:
51,192,116800,128,2,116977:0:0:0:0:
460,192,116800,128,0,116977:0:0:0:0:
153,192,116800,1,0,0:0:0:0:
358,192,116977,128,0,117153:0:0:0:0:
153,192,117153,1,8,0:0:0:0:
51,192,117153,1,0,0:0:0:0:
460,192,117153,1,0,0:0:0:0:
358,192,117330,128,0,117506:0:0:0:0:
460,192,117506,128,0,117859:0:0:0:0:
51,192,117506,1,0,0:0:0:0:
153,192,117506,1,0,0:0:0:0:
358,192,117682,128,0,117859:0:0:0:0:
51,192,117859,128,2,117947:0:0:0:0:
256,192,117859,1,0,0:0:0:0:
51,192,118035,128,0,118124:0:0:0:0:
153,192,118212,128,0,118300:0:0:0:0:
358,192,118212,1,0,0:0:0:0:
153,192,118388,128,0,118477:0:0:0:0:
256,192,118565,128,8,118653:0:0:0:0:
460,192,118565,1,0,0:0:0:0:
51,192,118565,1,0,0:0:0:0:
256,192,118741,128,0,118830:0:0:0:0:
358,192,118918,128,0,119006:0:0:0:0:
153,192,118918,1,0,0:0:0:0:
358,192,119094,128,2,119182:0:0:0:0:
51,192,119094,1,0,0:0:0:0:
460,192,119271,128,0,119447:0:0:0:0:
256,192,119271,1,0,0:0:0:0:
51,192,119447,128,0,119800:0:0:0:0:
153,192,119447,1,0,0:0:0:0:
460,192,119624,128,2,119800:0:0:0:0:
358,192,119624,1,0,0:0:0:0:
153,192,119800,1,0,0:0:0:0:
256,192,119800,128,0,119977:0:0:0:0:
51,192,119977,1,0,0:0:0:0:
358,192,119977,1,8,0:0:0:0:
460,192,119977,1,0,0:0:0:0:
153,192,120153,1,2,0:0:0:0:
358,192,120153,1,0,0:0:0:0:
153,192,120330,1,8,0:0:0:0:
51,192,120330,1,0,0:0:0:0:
460,192,120330,1,0,0:0:0:0:
256,192,120506,1,0,0:0:0:0:
358,192,120506,1,0,0:0:0:0:
460,192,120682,1,0,0:0:0:0:
153,192,120682,1,4,0:0:0:0:
358,192,120682,1,0,0:0:0:0:
51,192,120682,1,2,0:0:0:0:
256,192,120947,1,0,0:0:0:0:
460,192,120947,1,0,0:0:0:0:
358,192,121035,1,0,0:0:0:0:
153,192,121035,1,0,0:0:0:70:snare-alt.wav
51,192,121035,1,2,0:0:0:0:
51,192,121212,1,0,0:0:0:0:
256,192,121212,1,0,0:0:0:0:
153,192,121388,1,2,0:0:0:0:
460,192,121388,1,0,0:0:0:0:
51,192,121565,1,0,0:0:0:0:
256,192,121565,1,0,0:0:0:70:snare-alt.wav
358,192,121741,1,2,0:0:0:0:
460,192,121741,1,0,0:0:0:0:
153,192,121741,1,0,0:0:0:0:
256,192,121918,1,0,0:0:0:70:snare-alt.wav
51,192,121918,1,0,0:0:0:0:
358,192,122094,1,2,0:0:0:0:
460,192,122094,1,0,0:0:0:0:
256,192,122271,1,0,0:0:0:0:
51,192,122359,1,0,0:0:0:0:
153,192,122359,1,0,0:0:0:0:
256,192,122447,1,0,0:0:0:70:snare-alt.wav
358,192,122447,1,0,0:0:0:0:
460,192,122447,1,2,0:0:0:0:
153,192,122624,1,0,0:0:0:0:
358,192,122624,1,0,0:0:0:0:
51,192,122800,1,0,0:0:0:0:
460,192,122800,1,2,0:0:0:0:
256,192,122977,1,0,0:0:0:70:snare-alt.wav
358,192,122977,1,0,0:0:0:0:
51,192,123153,1,0,0:0:0:0:
460,192,123153,1,2,0:0:0:0:
153,192,123153,1,0,0:0:0:0:
256,192,123330,1,0,0:0:0:70:snare-alt.wav
358,192,123330,1,0,0:0:0:0:
51,192,123506,1,0,0:0:0:0:
460,192,123506,1,2,0:0:0:0:
256,192,123682,1,0,0:0:0:0:
460,192,123771,1,0,0:0:0:0:
153,192,123771,1,0,0:0:0:0:
51,192,123859,1,0,0:0:0:0:
358,192,123859,1,2,0:0:0:0:
256,192,123859,1,0,0:0:0:70:snare-alt.wav
153,192,124035,1,0,0:0:0:0:
460,192,124035,1,0,0:0:0:0:
51,192,124212,1,2,0:0:0:0:
256,192,124212,1,0,0:0:0:0:
358,192,124388,1,0,0:0:0:70:snare-alt.wav
460,192,124388,1,0,0:0:0:0:
256,192,124565,1,0,0:0:0:0:
153,192,124565,1,0,0:0:0:0:
51,192,124565,1,2,0:0:0:0:
358,192,124741,1,0,0:0:0:70:snare-alt.wav
460,192,124741,1,0,0:0:0:0:
153,192,124918,1,0,0:0:0:0:
51,192,124918,1,2,0:0:0:0:
358,192,125094,1,0,0:0:0:0:
153,192,125182,1,0,0:0:0:0:
51,192,125182,1,0,0:0:0:0:
256,192,125271,1,0,0:0:0:70:snare-alt.wav
358,192,125271,1,0,0:0:0:0:
460,192,125271,1,2,0:0:0:0:
153,192,125447,1,0,0:0:0:0:
358,192,125447,1,0,0:0:0:0:
51,192,125624,1,2,0:0:0:0:
256,192,125624,1,0,0:0:0:0:
358,192,125800,1,0,0:0:0:70:snare-alt.wav
153,192,125800,1,0,0:0:0:0:
51,192,125977,1,2,0:0:0:0:
460,192,125977,1,0,0:0:0:0:
256,192,125977,1,0,0:0:0:0:
153,192,126153,1,0,0:0:0:0:
358,192,126153,1,0,0:0:0:70:snare-alt.wav
51,192,126330,1,2,0:0:0:0:
256,192,126330,1,0,0:0:0:0:
460,192,126330,1,0,0:0:0:0:
358,192,126418,1,0,0:0:0:0:
153,192,126506,1,0,0:0:0:0:
256,192,126594,1,0,0:0:0:0:
460,192,126594,1,0,0:0:0:0:
358,192,126682,1,0,0:0:0:0:
153,192,126682,1,0,0:0:0:0:
51,192,126682,1,8,0:0:0:0:
256,192,126859,1,0,0:0:0:0:
460,192,126859,1,0,0:0:0:0:
153,192,127035,1,2,0:0:0:0:
51,192,127035,1,0,0:0:0:0:
358,192,127124,1,0,0:0:0:0:
153,192,127212,1,0,0:0:0:70:snare-alt.wav
51,192,127212,1,0,0:0:0:0:
358,192,127300,1,0,0:0:0:0:
51,192,127388,1,8,0:0:0:0:
256,192,127388,1,0,0:0:0:0:
460,192,127388,1,0,0:0:0:0:
153,192,127565,1,0,0:0:0:70:snare-alt.wav
358,192,127565,1,0,0:0:0:0:
51,192,127741,1,2,0:0:0:0:
460,192,127741,1,0,0:0:0:0:
358,192,127830,1,0,0:0:0:0:
51,192,127918,1,0,0:0:0:0:
256,192,128006,1,0,0:0:0:0:
460,192,128006,1,0,0:0:0:0:
358,192,128094,1,0,0:0:0:0:
153,192,128094,1,0,0:0:0:0:
51,192,128094,1,8,0:0:0:0:
256,192,128271,1,0,0:0:0:0:
460,192,128271,1,0,0:0:0:0:
51,192,128447,1,0,0:0:0:0:
153,192,128447,1,2,0:0:0:0:
256,192,128624,1,0,0:0:0:70:snare-alt.wav
460,192,128624,1,0,0:0:0:0:
358,192,128624,1,0,0:0:0:0:
153,192,128800,1,0,0:0:0:0:
51,192,128800,1,8,0:0:0:0:
256,192,128800,1,0,0:0:0:0:
460,192,128977,1,0,0:0:0:0:
358,192,128977,1,0,0:0:0:70:snare-alt.wav
51,192,129153,1,2,0:0:0:0:
256,192,129153,1,0,0:0:0:0:
358,192,129241,1,0,0:0:0:0:
153,192,129330,1,0,0:0:0:0:
256,192,129418,1,0,0:0:0:0:
51,192,129418,1,0,0:0:0:0:
358,192,129506,1,0,0:0:0:0:
460,192,129506,1,0,0:0:0:0:
153,192,129506,1,8,0:0:0:0:
51,192,129682,1,0,0:0:0:0:
256,192,129682,1,0,0:0:0:0:
153,192,129859,1,0,0:0:0:0:
51,192,129859,1,2,0:0:0:0:
358,192,129947,1,0,0:0:0:0:
256,192,130035,1,0,0:0:0:70:snare-alt.wav
460,192,130035,1,0,0:0:0:0:
153,192,130124,1,0,0:0:0:0:
51,192,130212,1,0,0:0:0:0:
358,192,130212,1,8,0:0:0:0:
460,192,130212,1,0,0:0:0:0:
256,192,130388,1,0,0:0:0:0:
153,192,130388,1,0,0:0:0:70:snare-alt.wav
358,192,130565,1,0,0:0:0:0:
358,192,130741,1,0,0:0:0:0:
153,192,130918,1,0,0:0:0:0:
51,192,130918,1,0,0:0:0:0:
358,192,131094,1,0,0:0:0:0:
153,192,131182,1,0,0:0:0:0:
358,192,131271,1,0,0:0:0:0:
51,192,131359,1,0,0:0:0:0:
256,192,131359,1,0,0:0:0:0:
358,192,131447,1,0,0:0:0:0:
460,192,131447,1,0,0:0:0:0:
153,192,131624,1,0,0:0:0:0:
460,192,131624,1,0,0:0:0:0:
256,192,131844,128,0,131932:0:0:0:40:tick.wav
153,192,131888,128,0,131977:0:0:0:40:tick.wav
51,192,131932,128,0,132021:0:0:0:40:tick.wav
358,192,131977,128,0,132065:0:0:0:40:whistle.wav
460,192,131977,128,0,132065:0:0:0:70:twinkling.wav
460,192,132153,128,0,132241:0:0:0:0:
460,192,132330,128,0,132418:0:0:0:0:
358,192,132506,128,0,132594:0:0:0:0:
460,192,132682,128,0,132947:0:0:0:0:
358,192,132859,128,0,132947:0:0:0:0:
358,192,133035,128,0,133124:0:0:0:0:
256,192,133212,128,0,133477:0:0:0:0:
460,192,133388,128,0,133477:0:0:0:0:
51,192,133388,128,0,133477:0:0:0:0:
153,192,133388,128,0,133477:0:0:0:40:whistle.wav
358,192,133565,128,0,133653:0:0:0:0:
256,192,133741,128,0,133830:0:0:0:0:
358,192,133918,128,0,134006:0:0:0:0:
153,192,134094,128,0,134182:0:0:0:0:
358,192,134447,128,0,134712:0:0:0:0:
51,192,134800,128,0,134888:0:0:0:0:
358,192,134800,128,0,134888:0:0:0:40:whistle.wav
460,192,134800,128,0,134888:0:0:0:0:
153,192,134977,128,0,135065:0:0:0:0:
51,192,135330,128,0,135418:0:0:0:0:
153,192,135506,128,0,135771:0:0:0:0:
51,192,135859,128,0,135947:0:0:0:0:
153,192,136035,128,0,136124:0:0:0:0:
256,192,136212,128,0,136300:0:0:0:40:whistle.wav
460,192,136212,128,0,136300:0:0:0:0:
51,192,136388,128,0,136477:0:0:0:0:
153,192,136565,128,0,136653:0:0:0:0:
460,192,136741,128,0,136830:0:0:0:0:
358,192,136918,128,0,137006:0:0:0:40:whistle.wav
51,192,136918,128,0,137006:0:0:0:0:
153,192,136918,128,0,137006:0:0:0:0:
256,192,137094,128,0,137182:0:0:0:0:
153,192,137271,128,0,137359:0:0:0:0:
51,192,137447,128,0,137535:0:0:0:0:
153,192,137624,128,0,137712:0:0:0:0:
358,192,137624,128,0,137712:0:0:0:40:whistle.wav
460,192,137624,128,0,137712:0:0:0:0:
51,192,138153,128,0,138241:0:0:0:0:
153,192,138330,128,0,138594:0:0:0:0:
358,192,138682,128,0,138947:0:0:0:0:
460,192,138859,128,0,138947:0:0:0:0:
358,192,139035,128,0,139300:0:0:0:40:whistle.wav
51,192,139035,128,0,139124:0:0:0:0:
256,192,139035,128,0,139124:0:0:0:0:
256,192,139388,128,0,139653:0:0:0:0:
358,192,139741,128,0,140006:0:0:0:40:whistle.wav
51,192,139741,128,0,139830:0:0:0:0:
153,192,139741,128,0,139830:0:0:0:0:
460,192,140094,128,0,140359:0:0:0:0:
358,192,140271,128,0,140359:0:0:0:0:
256,192,140447,128,0,140712:0:0:0:40:whistle.wav
51,192,140447,128,0,140535:0:0:0:0:
460,192,140447,128,0,140535:0:0:0:0:
153,192,140800,128,0,141065:0:0:0:0:
51,192,141153,128,0,141418:0:0:0:0:
153,192,141506,128,0,141771:0:0:0:0:
358,192,141682,128,0,141771:0:0:0:0:
51,192,141859,128,0,141947:0:0:0:0:
256,192,141859,128,0,141947:0:0:0:40:whistle.wav
460,192,142035,128,0,142124:0:0:0:0:
358,192,142212,128,0,142300:0:0:0:0:
256,192,142388,128,0,142653:0:0:0:0:
460,192,142565,128,0,142653:0:0:0:0:
51,192,142565,128,0,142653:0:0:0:0:
153,192,142565,128,0,142653:0:0:0:40:whistle.wav
358,192,142741,128,0,142830:0:0:0:0:
256,192,142918,128,0,143182:0:0:0:0:
51,192,143271,1,2,0:0:0:0:
256,192,143271,1,0,0:0:0:0:
51,192,143447,1,0,0:0:0:0:
153,192,143624,1,0,0:0:0:40:snare-alt.wav
358,192,143624,1,0,0:0:0:0:
460,192,143624,1,0,0:0:0:0:
460,192,143800,1,0,0:0:0:0:
256,192,143800,1,0,0:0:0:0:
358,192,143977,1,0,0:0:0:0:
153,192,143977,1,0,0:0:0:0:
256,192,144153,1,0,0:0:0:0:
51,192,144153,1,2,0:0:0:0:
153,192,144330,1,0,0:0:0:40:snare-alt.wav
460,192,144330,1,0,0:0:0:0:
358,192,144330,1,0,0:0:0:0:
51,192,144506,1,0,0:0:0:0:
256,192,144506,1,0,0:0:0:0:
358,192,144682,1,2,0:0:0:0:
460,192,144682,1,0,0:0:0:0:
153,192,144859,1,0,0:0:0:0:
51,192,144859,1,0,0:0:0:0:
256,192,145035,1,0,0:0:0:40:snare-alt.wav
460,192,145035,1,0,0:0:0:0:
358,192,145035,1,0,0:0:0:0:
153,192,145212,1,0,0:0:0:0:
358,192,145212,1,0,0:0:0:0:
51,192,145388,1,0,0:0:0:0:
256,192,145565,1,2,0:0:0:0:
460,192,145565,1,0,0:0:0:0:
358,192,145741,1,0,0:0:0:0:
153,192,145741,1,0,0:0:0:40:snare-alt.wav
51,192,145741,1,0,0:0:0:0:
460,192,145918,1,2,0:0:0:0:
153,192,145918,1,0,0:0:0:0:
51,192,146094,1,0,0:0:0:0:
256,192,146094,1,2,0:0:0:0:
460,192,146271,1,0,0:0:0:0:
153,192,146271,1,0,0:0:0:0:
51,192,146447,1,0,0:0:0:40:snare-alt.wav
460,192,146447,1,0,0:0:0:0:
256,192,146447,1,0,0:0:0:0:
358,192,146624,1,0,0:0:0:0:
153,192,146624,1,0,0:0:0:0:
51,192,146800,1,0,0:0:0:0:
256,192,146977,1,2,0:0:0:0:
460,192,146977,1,0,0:0:0:0:
358,192,147153,1,0,0:0:0:0:
51,192,147153,1,0,0:0:0:0:
153,192,147153,1,0,0:0:0:40:snare-alt.wav
460,192,147330,1,0,0:0:0:0:
51,192,147506,1,0,0:0:0:0:
153,192,147506,1,2,0:0:0:0:
358,192,147682,1,0,0:0:0:0:
460,192,147682,1,0,0:0:0:0:
153,192,147859,1,0,0:0:0:0:
358,192,147859,1,0,0:0:0:40:snare-alt.wav
51,192,147859,1,0,0:0:0:0:
256,192,148035,1,0,0:0:0:0:
153,192,148212,1,0,0:0:0:0:
460,192,148212,1,0,0:0:0:0:
256,192,148388,1,2,0:0:0:0:
51,192,148388,1,0,0:0:0:0:
358,192,148565,1,0,0:0:0:40:snare-alt.wav
460,192,148565,1,0,0:0:0:0:
153,192,148565,1,0,0:0:0:0:
51,192,148741,1,0,0:0:0:0:
256,192,148741,1,0,0:0:0:0:
51,192,148830,1,0,0:0:0:0:
153,192,148918,1,2,0:0:0:0:
358,192,148918,1,0,0:0:0:0:
153,192,149094,1,0,0:0:0:0:
256,192,149271,1,0,0:0:0:40:snare-alt.wav
460,192,149271,1,0,0:0:0:0:
51,192,149271,1,0,0:0:0:0:
460,192,149447,1,0,0:0:0:0:
358,192,149624,1,0,0:0:0:0:
153,192,149624,1,0,0:0:0:0:
51,192,149800,1,0,0:0:0:0:
256,192,149800,1,2,0:0:0:0:
153,192,149977,1,0,0:0:0:0:
51,192,149977,1,0,0:0:0:0:
358,192,149977,1,0,0:0:0:40:snare-alt.wav
256,192,150153,1,0,0:0:0:0:
153,192,150330,1,2,0:0:0:0:
460,192,150330,1,0,0:0:0:0:
256,192,150506,1,0,0:0:0:0:
358,192,150682,1,0,0:0:0:40:snare-alt.wav
460,192,150682,1,0,0:0:0:0:
51,192,150682,1,0,0:0:0:0:
256,192,150859,1,0,0:0:0:0:
153,192,151035,128,0,151653:0:0:0:40:whistle.wav
358,192,151212,128,0,151653:0:0:0:0:
153,192,151741,1,4,0:0:0:0:
51,192,151741,1,2,0:0:0:0:
358,192,151741,1,0,0:0:0:0:
460,192,151741,1,0,0:0:0:0:
256,192,151741,1,0,0:0:0:0:
51,192,151918,1,0,0:0:0:0:
256,192,151918,1,0,0:0:0:0:
460,192,151918,1,0,0:0:0:0:
153,192,152094,1,8,0:0:0:0:
51,192,152094,1,0,0:0:0:0:
358,192,152094,1,0,0:0:0:0:
460,192,152094,1,0,0:0:0:0:
256,192,152271,1,0,0:0:0:0:
153,192,152271,1,0,0:0:0:0:
358,192,152271,1,0,0:0:0:0:
51,192,152447,1,0,0:0:0:0:
256,192,152447,1,2,0:0:0:0:
460,192,152447,1,0,0:0:0:0:
153,192,152624,1,0,0:0:0:0:
51,192,152624,1,0,0:0:0:0:
153,192,152800,1,0,0:0:0:0:
256,192,152800,1,8,0:0:0:0:
358,192,152800,1,0,0:0:0:0:
460,192,152800,1,0,0:0:0:0:
460,192,152977,128,0,153330:0:0:0:0:
51,192,152977,1,0,0:0:0:0:
256,192,152977,1,0,0:0:0:0:
153,192,153153,1,2,0:0:0:0:
51,192,153153,1,0,0:0:0:0:
358,192,153153,1,0,0:0:0:0:
51,192,153330,128,0,153506:0:0:0:0:
256,192,153330,1,0,0:0:0:0:
358,192,153330,1,0,0:0:0:0:
153,192,153506,128,8,153682:0:0:0:0:
358,192,153506,1,0,0:0:0:0:
460,192,153506,1,0,0:0:0:0:
256,192,153506,1,0,0:0:0:0:
256,192,153682,128,0,153859:0:0:0:0:
51,192,153682,1,0,0:0:0:0:
460,192,153682,1,0,0:0:0:0:
358,192,153859,128,2,154388:0:0:0:0:
51,192,153859,1,0,0:0:0:0:
153,192,153859,1,0,0:0:0:0:
256,192,154035,1,0,0:0:0:0:
460,192,154035,1,0,0:0:0:0:
460,192,154212,128,0,154388:0:0:0:0:
51,192,154212,1,0,0:0:0:0:
153,192,154212,1,0,0:0:0:0:
256,192,154212,1,8,0:0:0:0:
153,192,154388,1,0,0:0:0:0:
51,192,154388,1,0,0:0:0:0:
256,192,154565,1,2,0:0:0:0:
358,192,154565,1,0,0:0:0:0:
460,192,154565,1,0,0:0:0:0:
153,192,154741,1,0,0:0:0:0:
51,192,154741,1,0,0:0:0:0:
358,192,154741,1,0,0:0:0:0:
256,192,154918,1,8,0:0:0:0:
460,192,154918,1,0,0:0:0:0:
51,192,154918,1,0,0:0:0:0:
153,192,154918,1,0,0:0:0:0:
256,192,155094,1,0,0:0:0:0:
358,192,155094,1,0,0:0:0:0:
460,192,155094,1,0,0:0:0:0:
153,192,155271,1,2,0:0:0:0:
51,192,155271,1,0,0:0:0:0:
358,192,155271,1,0,0:0:0:0:
256,192,155447,1,0,0:0:0:0:
460,192,155447,1,0,0:0:0:0:
358,192,155624,1,0,0:0:0:0:
460,192,155624,1,0,0:0:0:0:
51,192,155624,128,0,155712:0:0:0:0:
153,192,155624,128,8,155712:0:0:0:0:
358,192,155800,1,0,0:0:0:0:
153,192,155800,128,0,155888:0:0:0:0:
51,192,155800,128,0,155888:0:0:0:0:
256,192,155977,1,2,0:0:0:0:
51,192,155977,1,0,0:0:0:0:
460,192,155977,1,0,0:0:0:0:
358,192,156153,128,0,156241:0:0:0:0:
460,192,156153,128,0,156241:0:0:0:0:
153,192,156153,1,0,0:0:0:0:
256,192,156330,128,8,156418:0:0:0:0:
460,192,156330,128,0,156418:0:0:0:0:
51,192,156330,1,0,0:0:0:0:
153,192,156330,1,0,0:0:0:0:
153,192,156506,128,0,156594:0:0:0:0:
358,192,156506,128,0,156594:0:0:0:0:
460,192,156506,1,0,0:0:0:0:
51,192,156682,128,0,156771:0:0:0:0:
256,192,156682,128,2,156771:0:0:0:0:
358,192,156682,1,0,0:0:0:0:
153,192,156859,128,0,156947:0:0:0:0:
51,192,156859,128,0,156947:0:0:0:0:
460,192,156859,1,0,0:0:0:0:
256,192,157035,128,8,157124:0:0:0:0:
460,192,157035,128,0,157124:0:0:0:0:
153,192,157035,1,0,0:0:0:0:
51,192,157035,1,0,0:0:0:0:
358,192,157212,128,0,157300:0:0:0:0:
153,192,157212,128,0,157300:0:0:0:0:
256,192,157212,1,0,0:0:0:0:
51,192,157388,128,2,157653:0:0:0:0:
256,192,157388,1,0,0:0:0:0:
460,192,157388,1,0,0:0:0:0:
153,192,157565,1,0,0:0:0:0:
358,192,157565,1,0,0:0:0:0:
51,192,157741,128,0,158006:0:0:0:0:
153,192,157741,128,8,158006:0:0:0:0:
256,192,157741,1,0,0:0:0:0:
460,192,157741,1,0,0:0:0:0:
358,192,157918,1,0,0:0:0:0:
51,192,158094,128,0,158359:0:0:0:0:
256,192,158094,128,2,158359:0:0:0:0:
358,192,158094,128,0,158359:0:0:0:0:
460,192,158271,1,0,0:0:0:0:
153,192,158447,128,0,158712:0:0:0:0:
51,192,158447,128,0,158712:0:0:0:0:
256,192,158447,128,8,158712:0:0:0:0:
460,192,158447,128,0,158712:0:0:0:0:
358,192,158624,1,0,0:0:0:0:
153,192,158800,128,0,159065:0:0:0:0:
358,192,158800,128,2,159065:0:0:0:0:
51,192,158800,128,0,159065:0:0:0:0:
460,192,158800,128,0,159065:0:0:0:0:
256,192,158977,1,0,0:0:0:0:
256,192,159153,128,8,159418:0:0:0:0:
153,192,159153,128,0,159418:0:0:0:0:
460,192,159153,128,0,159418:0:0:0:0:
51,192,159153,1,0,0:0:0:0:
358,192,159330,1,0,0:0:0:0:
256,192,159506,128,2,159771:0:0:0:0:
358,192,159506,128,0,159771:0:0:0:0:
51,192,159506,1,0,0:0:0:0:
153,192,159682,1,0,0:0:0:0:
460,192,159859,128,8,160124:0:0:0:0:
51,192,159859,1,0,0:0:0:0:
256,192,159859,1,0,0:0:0:0:
358,192,159859,1,0,0:0:0:0:
153,192,160035,1,0,0:0:0:0:
256,192,160212,1,0,0:0:0:0:
51,192,160212,128,0,160477:0:0:0:0:
460,192,160212,128,2,160477:0:0:0:0:
153,192,160388,1,0,0:0:0:0:
51,192,160565,128,0,160830:0:0:0:0:
358,192,160565,128,8,160830:0:0:0:0:
256,192,160565,1,0,0:0:0:0:
460,192,160565,1,0,0:0:0:0:
153,192,160741,1,0,0:0:0:0:
51,192,160918,128,0,161182:0:0:0:0:
256,192,160918,128,2,161182:0:0:0:0:
460,192,160918,1,0,0:0:0:0:
358,192,161094,1,0,0:0:0:0:
358,192,161271,1,0,0:0:0:0:
460,192,161271,1,0,0:0:0:0:
51,192,161271,1,0,0:0:0:0:
153,192,161271,1,8,0:0:0:0:
51,192,161447,1,0,0:0:0:0:
256,192,161447,1,0,0:0:0:0:
460,192,161447,1,0,0:0:0:0:
153,192,161624,1,2,0:0:0:0:
51,192,161624,1,0,0:0:0:0:
358,192,161624,1,0,0:0:0:0:
256,192,161800,1,0,0:0:0:0:
460,192,161800,1,0,0:0:0:0:
153,192,161800,1,0,0:0:0:0:
51,192,161977,1,0,0:0:0:0:
358,192,161977,1,0,0:0:0:0:
460,192,161977,1,0,0:0:0:0:
256,192,161977,1,8,0:0:0:0:
51,192,162153,1,0,0:0:0:0:
153,192,162153,1,0,0:0:0:0:
358,192,162153,1,0,0:0:0:0:
256,192,162241,1,0,0:0:0:0:
460,192,162241,1,0,0:0:0:0:
358,192,162330,1,0,0:0:0:0:
153,192,162330,1,2,0:0:0:0:
51,192,162330,1,0,0:0:0:0:
256,192,162506,1,8,0:0:0:0:
153,192,162506,1,0,0:0:0:0:
460,192,162506,1,0,0:0:0:0:
358,192,162682,1,0,0:0:0:0:
460,192,162682,1,0,0:0:0:0:
51,192,162682,1,0,0:0:0:0:
256,192,162682,1,8,0:0:0:0:
153,192,162859,1,8,0:0:0:0:
51,192,162859,1,0,0:0:0:0:
460,192,162859,1,0,0:0:0:0:
256,192,162947,1,8,0:0:0:0:
358,192,162947,1,0,0:0:0:0:
51,192,163035,128,4,163300:0:0:0:0:
153,192,163035,128,2,163300:0:0:0:0:
460,192,163035,128,0,163300:0:0:0:0:
256,192,163212,1,0,0:0:0:0:
153,192,163388,1,8,0:0:0:0:
51,192,163388,1,0,0:0:0:0:
358,192,163388,1,0,0:0:0:0:
460,192,163388,1,0,0:0:0:0:
358,192,163565,128,0,163653:0:0:0:0:
256,192,163565,128,0,163653:0:0:0:0:
460,192,163565,128,0,163653:0:0:0:0:
51,192,163741,128,0,164006:0:0:0:0:
460,192,163741,128,0,164006:0:0:0:0:
153,192,163741,128,2,163830:0:0:0:0:
256,192,163918,128,0,164006:0:0:0:0:
358,192,163918,128,0,164006:0:0:0:0:
153,192,163918,128,0,164006:0:0:0:0:
153,192,164094,1,8,0:0:0:0:
51,192,164094,1,0,0:0:0:0:
358,192,164094,1,0,0:0:0:0:
460,192,164094,1,0,0:0:0:0:
51,192,164271,128,0,164359:0:0:0:0:
153,192,164271,128,0,164359:0:0:0:0:
358,192,164271,128,0,164359:0:0:0:0:
256,192,164447,128,0,164535:0:0:0:0:
153,192,164447,128,2,164535:0:0:0:0:
460,192,164447,128,0,164535:0:0:0:0:
256,192,164624,128,0,164712:0:0:0:0:
358,192,164624,128,0,164712:0:0:0:0:
51,192,164624,128,0,164712:0:0:0:0:
51,192,164800,128,0,164888:0:0:0:0:
153,192,164800,128,8,164888:0:0:0:0:
358,192,164800,128,0,164888:0:0:0:0:
460,192,164800,128,0,164888:0:0:0:0:
153,192,164977,128,0,165065:0:0:0:0:
358,192,164977,128,0,165065:0:0:0:0:
460,192,164977,128,0,165065:0:0:0:0:
51,192,165153,1,0,0:0:0:0:
153,192,165153,1,2,0:0:0:0:
460,192,165153,1,0,0:0:0:0:
256,192,165330,128,0,165418:0:0:0:0:
358,192,165330,128,0,165418:0:0:0:0:
460,192,165330,128,0,165418:0:0:0:0:
256,192,165506,128,0,165594:0:0:0:0:
153,192,165506,128,8,165594:0:0:0:0:
358,192,165506,128,0,165594:0:0:0:0:
51,192,165506,1,0,0:0:0:0:
51,192,165682,128,0,165771:0:0:0:0:
153,192,165682,128,0,165771:0:0:0:0:
256,192,165682,128,0,165771:0:0:0:0:
153,192,165859,1,0,0:0:0:0:
358,192,165859,1,0,0:0:0:0:
460,192,165859,128,2,166124:0:0:0:0:
153,192,166035,128,0,166124:0:0:0:0:
256,192,166035,128,0,166124:0:0:0:0:
51,192,166035,128,0,166124:0:0:0:0:
153,192,166212,128,8,166300:0:0:0:0:
256,192,166212,128,0,166300:0:0:0:0:
358,192,166212,128,0,166300:0:0:0:0:
51,192,166212,128,0,166477:0:0:0:0:
256,192,166388,128,0,166477:0:0:0:0:
460,192,166388,128,0,166477:0:0:0:0:
358,192,166388,128,0,166477:0:0:0:0:
460,192,166565,128,2,166830:0:0:0:0:
153,192,166565,1,0,0:0:0:0:
51,192,166565,1,0,0:0:0:0:
153,192,166741,128,0,166830:0:0:0:0:
256,192,166741,128,0,166830:0:0:0:0:
358,192,166741,128,0,166830:0:0:0:0:
51,192,166918,128,8,167182:0:0:0:0:
256,192,166918,128,0,167006:0:0:0:0:
358,192,166918,128,0,167006:0:0:0:0:
460,192,166918,128,0,167006:0:0:0:0:
153,192,167094,128,0,167182:0:0:0:0:
358,192,167094,128,0,167182:0:0:0:0:
460,192,167094,128,0,167182:0:0:0:0:
460,192,167271,128,2,167535:0:0:0:0:
51,192,167271,128,0,167359:0:0:0:0:
256,192,167271,128,0,167359:0:0:0:0:
153,192,167447,128,0,167535:0:0:0:0:
256,192,167447,128,0,167535:0:0:0:0:
358,192,167447,128,0,167535:0:0:0:0:
256,192,167624,128,8,167712:0:0:0:0:
358,192,167624,128,0,167712:0:0:0:0:
460,192,167624,128,0,167712:0:0:0:0:
51,192,167624,1,0,0:0:0:0:
153,192,167800,1,0,0:0:0:0:
358,192,167800,1,0,0:0:0:0:
51,192,167977,128,2,168065:0:0:0:0:
460,192,167977,128,0,168065:0:0:0:0:
256,192,167977,1,0,0:0:0:0:
358,192,168153,128,0,168241:0:0:0:0:
51,192,168153,128,0,168241:0:0:0:0:
153,192,168153,1,0,0:0:0:0:
153,192,168330,128,8,168418:0:0:0:0:
460,192,168330,128,0,168418:0:0:0:0:
358,192,168330,1,0,0:0:0:0:
256,192,168330,1,0,0:0:0:0:
51,192,168506,128,0,168594:0:0:0:0:
460,192,168506,128,0,168594:0:0:0:0:
256,192,168506,1,0,0:0:0:0:
153,192,168682,1,0,0:0:0:0:
358,192,168682,1,0,0:0:0:0:
51,192,168682,128,2,168947:0:0:0:0:
256,192,168859,1,0,0:0:0:0:
51,192,169035,128,8,169300:0:0:0:0:
460,192,169035,128,0,169300:0:0:0:0:
153,192,169035,1,0,0:0:0:0:
358,192,169035,1,0,0:0:0:0:
256,192,169212,1,0,0:0:0:0:
51,192,169388,128,2,169653:0:0:0:0:
358,192,169388,128,0,169653:0:0:0:0:
460,192,169388,128,0,169653:0:0:0:0:
153,192,169565,1,0,0:0:0:0:
51,192,169741,128,8,170006:0:0:0:0:
153,192,169741,128,0,170006:0:0:0:0:
460,192,169741,128,0,170006:0:0:0:0:
358,192,169741,128,0,170006:0:0:0:0:
256,192,169918,1,0,0:0:0:0:
51,192,170094,128,2,170359:0:0:0:0:
460,192,170094,128,0,170359:0:0:0:0:
153,192,170094,128,0,170359:0:0:0:0:
256,192,170094,128,0,170359:0:0:0:0:
358,192,170271,1,0,0:0:0:0:
153,192,170447,128,8,170712:0:0:0:0:
460,192,170447,128,0,170712:0:0:0:0:
358,192,170447,128,0,170712:0:0:0:0:
51,192,170447,1,0,0:0:0:0:
256,192,170624,1,0,0:0:0:0:
51,192,170800,128,2,171065:0:0:0:0:
460,192,170800,128,0,171065:0:0:0:0:
153,192,170800,1,0,0:0:0:0:
256,192,170977,1,0,0:0:0:0:
460,192,171153,128,0,171418:0:0:0:0:
153,192,171153,1,8,0:0:0:0:
51,192,171153,1,0,0:0:0:0:
358,192,171153,1,0,0:0:0:0:
51,192,171506,1,2,0:0:0:0:
153,192,171506,1,4,0:0:0:0:
460,192,171506,1,0,0:0:0:0:
256,192,171506,1,0,0:0:0:0:
358,192,171506,128,0,171859:0:0:0:0:
256,192,171859,128,0,172212:0:0:0:0:
51,192,171859,1,0,0:0:0:0:
153,192,171859,1,8,0:0:0:0:
460,192,172035,128,0,172565:0:0:0:0:
51,192,172212,128,2,172388:0:0:0:0:
153,192,172212,128,0,172388:0:0:0:0:
256,192,172388,1,0,0:0:0:0:
51,192,172565,1,0,0:0:0:0:
153,192,172565,1,8,0:0:0:0:
358,192,172565,1,0,0:0:0:0:
256,192,172741,1,0,0:0:0:0:
51,192,172918,128,2,173977:0:0:0:0:
153,192,172918,1,0,0:0:0:0:
358,192,172918,128,0,173094:0:0:0:0:
460,192,173094,1,0,0:0:0:0:
256,192,173271,128,8,173624:0:0:0:0:
358,192,173271,1,0,0:0:0:0:
460,192,173271,128,0,173447:0:0:0:0:
153,192,173447,128,0,173800:0:0:0:0:
358,192,173624,1,0,0:0:0:0:
460,192,173624,128,2,173800:0:0:0:0:
256,192,173800,128,0,173888:0:0:0:0:
153,192,173977,128,0,174065:0:0:0:0:
460,192,173977,1,0,0:0:0:0:
358,192,173977,128,8,174153:0:0:0:0:
51,192,174153,128,0,174241:0:0:0:0:
256,192,174153,1,0,0:0:0:0:
256,192,174330,128,2,174682:0:0:0:0:
460,192,174330,1,0,0:0:0:0:
153,192,174330,1,0,0:0:0:0:
51,192,174506,1,0,0:0:0:0:
358,192,174682,128,8,175035:0:0:0:0:
153,192,174682,1,0,0:0:0:0:
51,192,174682,128,0,174859:0:0:0:0:
460,192,174859,128,0,175388:0:0:0:0:
51,192,175035,1,0,0:0:0:0:
153,192,175035,128,2,175212:0:0:0:0:
256,192,175212,1,0,0:0:0:0:
153,192,175388,1,0,0:0:0:0:
51,192,175388,1,0,0:0:0:0:
358,192,175388,1,0,0:0:0:0:
256,192,175388,128,8,175565:0:0:0:0:
460,192,175565,1,0,0:0:0:0:
51,192,175741,128,2,176447:0:0:0:0:
358,192,175741,1,0,0:0:0:0:
153,192,175741,1,0,0:0:0:0:
256,192,175918,1,0,0:0:0:0:
153,192,176094,128,8,176624:0:0:0:0:
358,192,176094,1,0,0:0:0:0:
460,192,176094,128,0,176271:0:0:0:0:
256,192,176271,128,0,176800:0:0:0:0:
460,192,176447,1,0,0:0:0:0:
358,192,176447,128,2,176624:0:0:0:0:
51,192,176624,128,0,176712:0:0:0:0:
153,192,176800,128,0,176888:0:0:0:0:
358,192,176800,1,0,0:0:0:0:
460,192,176800,128,8,176977:0:0:0:0:
256,192,176977,128,0,177065:0:0:0:0:
51,192,176977,1,0,0:0:0:0:
358,192,177153,128,2,177506:0:0:0:0:
51,192,177153,128,0,177330:0:0:0:0:
153,192,177330,1,0,0:0:0:0:
256,192,177506,128,8,178035:0:0:0:0:
51,192,177506,1,0,0:0:0:0:
153,192,177506,128,0,177682:0:0:0:0:
460,192,177682,128,0,178212:0:0:0:0:
153,192,177859,1,0,0:0:0:0:
51,192,177859,128,2,178035:0:0:0:0:
358,192,178035,1,0,0:0:0:0:
51,192,178212,1,0,0:0:0:0:
153,192,178212,1,0,0:0:0:0:
358,192,178212,128,8,178388:0:0:0:0:
256,192,178388,1,0,0:0:0:0:
153,192,178565,128,2,179447:0:0:0:0:
51,192,178565,1,0,0:0:0:0:
358,192,178565,128,0,178741:0:0:0:0:
256,192,178741,1,0,0:0:0:0:
358,192,178918,1,0,0:0:0:0:
460,192,178918,1,0,0:0:0:0:
51,192,178918,128,8,179271:0:0:0:0:
256,192,179094,128,0,179624:0:0:0:0:
460,192,179271,1,0,0:0:0:0:
358,192,179271,128,2,179447:0:0:0:0:
51,192,179447,128,0,179535:0:0:0:0:
460,192,179447,1,0,0:0:0:0:
153,192,179624,128,0,179712:0:0:0:0:
51,192,179624,1,0,0:0:0:0:
460,192,179624,128,8,179800:0:0:0:0:
256,192,179800,128,0,179888:0:0:0:0:
358,192,179800,1,0,0:0:0:0:
358,192,179977,1,0,0:0:0:0:
153,192,179977,128,2,180153:0:0:0:0:
51,192,179977,128,0,180153:0:0:0:0:
256,192,180153,128,0,180330:0:0:0:0:
358,192,180330,128,8,180682:0:0:0:0:
51,192,180330,1,0,0:0:0:0:
153,192,180330,1,0,0:0:0:0:
460,192,180330,128,0,180506:0:0:0:0:
153,192,180506,128,0,180682:0:0:0:0:
51,192,180682,128,2,180859:0:0:0:0:
460,192,180682,1,0,0:0:0:0:
256,192,180682,128,0,180859:0:0:0:0:
153,192,180859,128,0,181035:0:0:0:0:
256,192,181035,128,8,181388:0:0:0:0:
358,192,181035,1,0,0:0:0:0:
460,192,181035,1,0,0:0:0:0:
51,192,181035,128,0,181212:0:0:0:0:
460,192,181212,128,0,181388:0:0:0:0:
51,192,181388,128,0,181741:0:0:0:0:
153,192,181388,1,0,0:0:0:0:
358,192,181388,128,2,181565:0:0:0:0:
460,192,181565,1,0,0:0:0:0:
460,192,181741,128,8,182359:0:0:0:0:
153,192,181741,1,0,0:0:0:0:
358,192,181741,1,0,0:0:0:0:
256,192,181741,1,0,0:0:0:0:
51,192,181918,128,0,182359:0:0:0:0:
256,192,181918,128,0,182094:0:0:0:0:
153,192,182094,1,2,0:0:0:0:
358,192,182094,1,0,0:0:0:0:
153,192,182271,128,0,182359:0:0:0:0:
358,192,182271,128,0,182359:0:0:0:0:
256,192,182271,128,0,182359:0:0:0:0:
51,192,182447,128,0,182535:0:0:0:0:
153,192,182447,128,8,182535:0:0:0:0:
256,192,182447,128,0,182535:0:0:0:0:
460,192,182447,1,0,0:0:0:0:
51,192,182624,128,0,182712:0:0:0:0:
153,192,182624,128,0,182712:0:0:0:0:
358,192,182624,128,0,182712:0:0:0:0:
51,192,182800,128,0,183065:0:0:0:0:
256,192,182800,128,2,182888:0:0:0:0:
460,192,182800,128,0,182888:0:0:0:0:
153,192,182977,128,0,183065:0:0:0:0:
358,192,182977,128,0,183065:0:0:0:0:
460,192,182977,128,0,183065:0:0:0:0:
51,192,183153,1,0,0:0:0:0:
153,192,183153,1,0,0:0:0:0:
256,192,183153,1,8,0:0:0:0:
358,192,183153,1,0,0:0:0:0:
256,192,183330,128,0,183418:0:0:0:0:
358,192,183330,128,0,183418:0:0:0:0:
460,192,183330,128,0,183418:0:0:0:0:
460,192,183506,128,0,183771:0:0:0:0:
153,192,183506,128,2,183594:0:0:0:0:
51,192,183506,128,0,183594:0:0:0:0:
51,192,183682,128,0,183771:0:0:0:0:
153,192,183682,128,0,183771:0:0:0:0:
256,192,183682,128,0,183771:0:0:0:0:
153,192,183859,1,0,0:0:0:0:
358,192,183859,1,0,0:0:0:0:
460,192,183859,1,0,0:0:0:0:
256,192,183859,1,8,0:0:0:0:
51,192,184035,128,0,184124:0:0:0:0:
358,192,184035,128,0,184124:0:0:0:0:
460,192,184035,128,0,184124:0:0:0:0:
153,192,184212,128,0,184300:0:0:0:0:
51,192,184212,128,2,184477:0:0:0:0:
256,192,184212,128,0,184300:0:0:0:0:
153,192,184388,128,0,184477:0:0:0:0:
358,192,184388,128,0,184477:0:0:0:0:
460,192,184388,128,0,184477:0:0:0:0:
51,192,184565,128,0,184653:0:0:0:0:
256,192,184565,128,8,184653:0:0:0:0:
460,192,184565,128,0,184653:0:0:0:0:
358,192,184565,1,0,0:0:0:0:
51,192,184741,128,0,184830:0:0:0:0:
153,192,184741,128,0,184830:0:0:0:0:
358,192,184741,128,0,184830:0:0:0:0:
153,192,184918,1,2,0:0:0:0:
358,192,184918,1,0,0:0:0:0:
460,192,184918,128,0,185182:0:0:0:0:
256,192,185094,128,0,185182:0:0:0:0:
153,192,185094,128,0,185182:0:0:0:0:
51,192,185094,128,0,185182:0:0:0:0:
256,192,185271,128,0,185359:0:0:0:0:
358,192,185271,128,8,185359:0:0:0:0:
153,192,185271,128,0,185359:0:0:0:0:
460,192,185271,1,0,0:0:0:0:
460,192,185447,128,0,185535:0:0:0:0:
358,192,185447,128,0,185535:0:0:0:0:
256,192,185447,128,0,185535:0:0:0:0:
358,192,185624,1,0,0:0:0:0:
153,192,185624,1,0,0:0:0:0:
51,192,185624,128,2,185888:0:0:0:0:
358,192,185800,128,0,185888:0:0:0:0:
256,192,185800,128,0,185888:0:0:0:0:
460,192,185800,128,0,185888:0:0:0:0:
358,192,185977,128,8,186065:0:0:0:0:
256,192,185977,128,0,186065:0:0:0:0:
153,192,185977,128,0,186065:0:0:0:0:
460,192,185977,128,0,186241:0:0:0:0:
256,192,186153,128,0,186241:0:0:0:0:
51,192,186153,128,0,186241:0:0:0:0:
153,192,186153,128,0,186241:0:0:0:0:
51,192,186330,128,2,186594:0:0:0:0:
358,192,186330,1,0,0:0:0:0:
460,192,186330,1,0,0:0:0:0:
358,192,186506,128,0,186594:0:0:0:0:
256,192,186506,128,0,186594:0:0:0:0:
153,192,186506,128,0,186594:0:0:0:0:
51,192,186682,128,8,186947:0:0:0:0:
256,192,186682,128,0,186771:0:0:0:0:
153,192,186682,128,0,186771:0:0:0:0:
460,192,186682,128,0,186771:0:0:0:0:
358,192,186859,128,0,186947:0:0:0:0:
153,192,186859,128,0,186947:0:0:0:0:
460,192,186859,128,0,186947:0:0:0:0:
460,192,187035,128,2,187300:0:0:0:0:
51,192,187035,128,0,187124:0:0:0:0:
256,192,187035,128,0,187124:0:0:0:0:
358,192,187212,128,0,187300:0:0:0:0:
256,192,187212,128,0,187300:0:0:0:0:
153,192,187212,128,0,187300:0:0:0:0:
256,192,187388,128,8,187477:0:0:0:0:
153,192,187388,128,0,187477:0:0:0:0:
51,192,187388,128,0,187477:0:0:0:0:
460,192,187388,1,0,0:0:0:0:
358,192,187565,1,0,0:0:0:0:
153,192,187565,1,0,0:0:0:0:
460,192,187741,128,2,187830:0:0:0:0:
51,192,187741,128,0,188006:0:0:0:0:
256,192,187741,1,0,0:0:0:0:
153,192,187918,128,0,188006:0:0:0:0:
460,192,187918,128,0,188006:0:0:0:0:
358,192,187918,1,0,0:0:0:0:
358,192,188094,128,8,188359:0:0:0:0:
51,192,188094,128,0,188182:0:0:0:0:
153,192,188094,1,0,0:0:0:0:
256,192,188094,1,0,0:0:0:0:
460,192,188271,128,0,188359:0:0:0:0:
51,192,188271,128,0,188359:0:0:0:0:
256,192,188271,1,0,0:0:0:0:
51,192,188447,128,2,188712:0:0:0:0:
256,192,188447,1,0,0:0:0:0:
460,192,188447,1,0,0:0:0:0:
358,192,188624,1,0,0:0:0:0:
51,192,188800,128,8,189065:0:0:0:0:
153,192,188800,128,0,189065:0:0:0:0:
460,192,188800,1,0,0:0:0:0:
256,192,188800,1,0,0:0:0:0:
358,192,188977,1,0,0:0:0:0:
51,192,189153,128,2,189418:0:0:0:0:
256,192,189153,128,0,189418:0:0:0:0:
358,192,189153,128,0,189418:0:0:0:0:
153,192,189330,1,0,0:0:0:0:
51,192,189506,128,8,189771:0:0:0:0:
153,192,189506,128,0,189771:0:0:0:0:
256,192,189506,128,0,189771:0:0:0:0:
358,192,189506,128,0,189771:0:0:0:0:
460,192,189682,1,0,0:0:0:0:
460,192,189859,128,0,190124:0:0:0:0:
51,192,189859,128,2,190124:0:0:0:0:
256,192,189859,128,0,190124:0:0:0:0:
153,192,190035,1,0,0:0:0:0:
153,192,190212,128,8,190477:0:0:0:0:
358,192,190212,128,0,190477:0:0:0:0:
51,192,190212,1,0,0:0:0:0:
460,192,190212,1,0,0:0:0:0:
256,192,190388,1,0,0:0:0:0:
256,192,190565,128,2,190830:0:0:0:0:
51,192,190565,1,0,0:0:0:0:
460,192,190565,1,0,0:0:0:0:
153,192,190741,1,0,0:0:0:0:
460,192,190918,128,0,191182:0:0:0:0:
153,192,190918,128,8,191182:0:0:0:0:
51,192,190918,128,0,191182:0:0:0:0:
256,192,190918,128,0,191182:0:0:0:0:
358,192,190918,128,0,191182:0:0:0:70:climax.wav
51,192,191271,1,0,0:0:0:0:
153,192,191271,1,2,0:0:0:0:
256,192,191271,1,4,0:0:0:0:
358,192,191271,1,0,0:0:0:0:
460,192,191271,1,0,0:0:0:0:
358,192,191447,1,0,0:0:0:0:
460,192,191447,1,0,0:0:0:0:
153,192,191535,1,0,0:0:0:0:
51,192,191535,1,0,0:0:0:0:
256,192,191535,1,0,0:0:0:0:
358,192,191624,1,8,0:0:0:0:
460,192,191624,1,0,0:0:0:0:
51,192,191800,1,0,0:0:0:0:
153,192,191800,1,0,0:0:0:0:
256,192,191800,1,0,0:0:0:0:
153,192,191977,1,2,0:0:0:0:
51,192,191977,1,0,0:0:0:0:
358,192,191977,1,0,0:0:0:0:
256,192,192153,1,0,0:0:0:70:snare-alt.wav
460,192,192153,1,0,0:0:0:0:
358,192,192153,1,0,0:0:0:0:
153,192,192330,1,8,0:0:0:0:
51,192,192330,1,0,0:0:0:0:
460,192,192330,1,0,0:0:0:0:
256,192,192506,1,0,0:0:0:70:snare-alt.wav
358,192,192506,1,0,0:0:0:0:
51,192,192506,1,0,0:0:0:0:
153,192,192682,1,2,0:0:0:0:
358,192,192682,1,0,0:0:0:0:
460,192,192682,1,0,0:0:0:0:
51,192,192859,1,0,0:0:0:0:
256,192,192859,1,0,0:0:0:0:
153,192,192947,1,0,0:0:0:0:
358,192,192947,1,0,0:0:0:0:
460,192,192947,1,0,0:0:0:0:
256,192,193035,1,8,0:0:0:0:
51,192,193035,1,0,0:0:0:0:
153,192,193212,1,0,0:0:0:0:
358,192,193212,1,0,0:0:0:0:
460,192,193212,1,0,0:0:0:0:
51,192,193388,1,0,0:0:0:0:
256,192,193388,1,2,0:0:0:0:
460,192,193388,1,0,0:0:0:0:
153,192,193565,1,0,0:0:0:70:snare-alt.wav
51,192,193565,1,0,0:0:0:0:
358,192,193565,1,0,0:0:0:0:
256,192,193741,1,8,0:0:0:0:
153,192,193741,1,0,0:0:0:0:
460,192,193741,1,0,0:0:0:0:
358,192,193918,1,0,0:0:0:70:snare-alt.wav
460,192,193918,1,0,0:0:0:0:
51,192,193918,1,0,0:0:0:0:
256,192,194094,1,0,0:0:0:0:
51,192,194094,1,0,0:0:0:0:
153,192,194094,1,2,0:0:0:0:
358,192,194271,1,0,0:0:0:0:
460,192,194271,1,0,0:0:0:0:
51,192,194359,1,0,0:0:0:0:
153,192,194359,1,0,0:0:0:0:
256,192,194359,1,0,0:0:0:0:
358,192,194447,1,8,0:0:0:0:
460,192,194447,1,0,0:0:0:0:
51,192,194624,1,0,0:0:0:0:
153,192,194624,1,0,0:0:0:0:
256,192,194624,1,0,0:0:0:0:
153,192,194800,1,2,0:0:0:0:
358,192,194800,1,0,0:0:0:0:
460,192,194800,1,0,0:0:0:0:
256,192,194977,1,0,0:0:0:70:snare-alt.wav
51,192,194977,1,0,0:0:0:0:
460,192,194977,1,0,0:0:0:0:
153,192,195153,1,8,0:0:0:0:
358,192,195153,1,0,0:0:0:0:
51,192,195153,1,0,0:0:0:0:
153,192,195330,1,0,0:0:0:0:
256,192,195330,1,0,0:0:0:70:snare-alt.wav
460,192,195330,1,0,0:0:0:0:
51,192,195506,1,0,0:0:0:0:
358,192,195506,1,2,0:0:0:0:
460,192,195506,1,0,0:0:0:0:
153,192,195682,1,0,0:0:0:0:
256,192,195682,1,0,0:0:0:0:
51,192,195771,1,0,0:0:0:0:
358,192,195771,1,0,0:0:0:0:
460,192,195771,1,0,0:0:0:0:
256,192,195859,1,0,0:0:0:0:
153,192,195859,1,8,0:0:0:0:
51,192,196035,1,0,0:0:0:0:
358,192,196035,1,0,0:0:0:0:
460,192,196035,1,0,0:0:0:0:
153,192,196212,1,2,0:0:0:0:
51,192,196212,1,0,0:0:0:0:
358,192,196212,1,0,0:0:0:0:
256,192,196388,1,0,0:0:0:70:snare-alt.wav
460,192,196388,1,0,0:0:0:0:
153,192,196388,1,0,0:0:0:0:
460,192,196565,1,0,0:0:0:0:
358,192,196565,1,8,0:0:0:0:
51,192,196565,1,0,0:0:0:0:
153,192,196741,1,0,0:0:0:0:
51,192,196741,1,0,0:0:0:0:
256,192,196741,1,0,0:0:0:70:snare-alt.wav
256,192,196918,1,2,0:0:0:0:
460,192,196918,1,0,0:0:0:0:
358,192,196918,1,0,0:0:0:0:
153,192,197094,1,0,0:0:0:0:
51,192,197094,1,0,0:0:0:0:
256,192,197182,1,0,0:0:0:0:
358,192,197182,1,0,0:0:0:0:
460,192,197182,1,0,0:0:0:0:
153,192,197271,1,8,0:0:0:0:
51,192,197271,1,0,0:0:0:0:
256,192,197447,1,0,0:0:0:0:
358,192,197447,1,0,0:0:0:0:
460,192,197447,1,0,0:0:0:0:
153,192,197624,1,2,0:0:0:0:
51,192,197624,1,0,0:0:0:0:
358,192,197624,1,0,0:0:0:0:
256,192,197800,1,0,0:0:0:70:snare-alt.wav
460,192,197800,1,0,0:0:0:0:
51,192,197800,1,0,0:0:0:0:
153,192,197977,1,0,0:0:0:0:
358,192,197977,1,8,0:0:0:0:
460,192,197977,1,0,0:0:0:0:
51,192,198153,1,0,0:0:0:0:
256,192,198153,1,0,0:0:0:70:snare-alt.wav
358,192,198153,1,0,0:0:0:0:
153,192,198330,1,2,0:0:0:0:
51,192,198330,1,0,0:0:0:0:
460,192,198330,1,0,0:0:0:0:
256,192,198506,1,0,0:0:0:0:
358,192,198506,1,0,0:0:0:0:
153,192,198594,1,0,0:0:0:0:
51,192,198594,1,0,0:0:0:0:
460,192,198594,1,0,0:0:0:0:
358,192,198682,1,0,0:0:0:0:
256,192,198682,1,8,0:0:0:0:
460,192,198859,1,0,0:0:0:0:
153,192,198859,1,0,0:0:0:0:
51,192,198859,1,0,0:0:0:0:
256,192,199035,1,2,0:0:0:0:
358,192,199035,1,0,0:0:0:0:
460,192,199035,1,0,0:0:0:0:
153,192,199212,1,0,0:0:0:70:snare-alt.wav
51,192,199212,1,0,0:0:0:0:
358,192,199212,1,0,0:0:0:0:
256,192,199388,1,8,0:0:0:0:
51,192,199388,1,0,0:0:0:0:
460,192,199388,1,0,0:0:0:0:
153,192,199565,1,0,0:0:0:70:snare-alt.wav
51,192,199565,1,0,0:0:0:0:
358,192,199565,1,0,0:0:0:0:
358,192,199741,128,0,199918:0:0:0:0:
460,192,199741,128,0,199918:0:0:0:0:
358,192,200006,128,0,200182:0:0:0:0:
460,192,200006,128,0,200182:0:0:0:0:
358,192,200271,128,0,200447:0:0:0:0:
460,192,200271,128,0,200447:0:0:0:0:
51,192,200447,128,0,200977:0:0:0:0:
256,192,200447,128,0,200624:0:0:0:0:
358,192,200624,128,0,200800:0:0:0:0:
153,192,200624,128,0,200977:0:0:0:40:tick.wav
460,192,200800,128,0,201682:0:0:0:0:
256,192,200800,128,0,202035:0:0:0:40:tick.wav
358,192,200977,128,0,201682:0:0:0:40:tick.wav
51,192,201153,128,0,201330:0:0:0:0:
153,192,201153,128,0,201330:0:0:0:40:tick.wav
51,192,201418,128,0,201594:0:0:0:0:
153,192,201418,128,0,201594:0:0:0:0:
51,192,201682,128,0,201859:0:0:0:0:
153,192,201682,128,0,201859:0:0:0:40:tick.wav
460,192,201859,128,0,202212:0:0:0:0:
358,192,201859,128,0,202035:0:0:0:40:tick.wav
51,192,202035,128,0,202212:0:0:0:40:tick.wav
153,192,202035,128,0,202388:0:0:0:0:
358,192,202212,128,0,202388:0:0:0:0:
256,192,202212,128,0,202388:0:0:0:40:tick.wav
51,192,202388,128,0,202741:0:0:0:40:tick.wav
460,192,202388,128,0,202741:0:0:0:0:
153,192,202565,128,2,202741:0:0:0:0:
256,192,202565,128,0,202741:0:0:0:40:tick.wav
358,192,202565,128,0,202741:0:0:0:0:
