osu file format v14

[General]
AudioFilename: audio.mp3
AudioLeadIn: 0
PreviewTime: 151035
Countdown: 0
SampleSet: Soft
StackLeniency: 0.7
Mode: 3
LetterboxInBreaks: 0
SpecialStyle: 0
WidescreenStoryboard: 1

[Editor]
Bookmarks: 2094,13300,24682,35977,55741,64212,86800,98094,109388,120682,131977,143271,171506,191271,202565
DistanceSpacing: 0.2
BeatDivisor: 4
GridSize: 32
TimelineZoom: 2

[Metadata]
Title:Kaibutsu
TitleUnicode:怪物
Artist:YOASOBI
ArtistUnicode:YOASOBI
Creator:Lude
Version:Hard
Source:BEASTARS
Tags:ビースターズ 幾田りら アニメ 2期 2nd Second Season Ikura Ikuta Rira Lilas Ayase Monster Japanese Anime J-Pop JPOP Opening Furry Hoto Cocoa
BeatmapID:3041610
BeatmapSetID:1477776

[Difficulty]
HPDrainRate:7.9
CircleSize:5
OverallDifficulty:7.5
ApproachRate:5
SliderMultiplier:1.4
SliderTickRate:1

[Events]
//Background and Video events
0,0,"reversemeow.jpg",0,0
//Break Periods
//Storyboard Layer 0 (Background)
//Storyboard Layer 1 (Fail)
//Storyboard Layer 2 (Pass)
//Storyboard Layer 3 (Foreground)
//Storyboard Layer 4 (Overlay)
//Storyboard Sound Samples
Sample,131844,0,"tick.wav",40
Sample,131932,0,"tick.wav",40
Sample,190918,0,"climax.wav",70

[TimingPoints]
683,352.941176470588,4,2,1,60,1,0
35977,-100,4,2,1,60,0,1
55741,-100,4,2,1,60,0,0
131977,-100,4,2,1,40,0,0
151741,-100,4,2,1,60,0,1
171506,-100,4,2,1,60,0,0

[HitObjects]
256,192,1388,128,0,1918:0:0:0:0:
358,192,1918,128,0,2094:0:0:0:0:
460,192,2094,1,2,0:0:0:0:
51,192,2094,1,0,0:0:0:0:
153,192,2271,1,0,0:0:0:0:
51,192,2447,1,2,0:0:0:0:
460,192,2447,1,0,0:0:0:0:
153,192,2624,1,0,0:0:0:0:
51,192,2800,1,2,0:0:0:0:
460,192,2800,1,0,0:0:0:0:
358,192,2977,1,0,0:0:0:0:
153,192,3153,1,2,0:0:0:0:
460,192,3153,1,0,0:0:0:0:
256,192,3330,1,0,0:0:0:0:
358,192,3506,1,2,0:0:0:0:
51,192,3506,1,0,0:0:0:0:
153,192,3682,1,0,0:0:0:0:
51,192,3859,1,2,0:0:0:0:
460,192,3859,1,0,0:0:0:0:
256,192,4035,1,0,0:0:0:0:
153,192,4212,1,2,0:0:0:0:
358,192,4212,1,0,0:0:0:0:
51,192,4388,1,0,0:0:0:0:
256,192,4565,1,2,0:0:0:0:
460,192,4565,1,0,0:0:0:0:
153,192,4741,1,0,0:0:0:0:
51,192,4918,1,2,0:0:0:0:
358,192,4918,1,0,0:0:0:0:
256,192,5094,1,0,0:0:0:0:
358,192,5271,1,2,0:0:0:0:
460,192,5271,1,0,0:0:0:0:
256,192,5447,1,0,0:0:0:0:
153,192,5624,1,2,0:0:0:0:
460,192,5624,1,0,0:0:0:0:
256,192,5800,1,0,0:0:0:0:
153,192,5977,1,2,0:0:0:0:
51,192,5977,1,0,0:0:0:0:
358,192,6153,1,0,0:0:0:0:
256,192,6330,1,2,0:0:0:0:
460,192,6330,1,0,0:0:0:0:
153,192,6506,1,0,0:0:0:0:
51,192,6682,1,2,0:0:0:0:
358,192,6682,1,0,0:0:0:0:
460,192,6859,1,0,0:0:0:0:
51,192,7035,1,2,0:0:0:0:
256,192,7035,1,0,0:0:0:0:
358,192,7212,1,0,0:0:0:0:
153,192,7388,1,2,0:0:0:0:
51,192,7388,1,0,0:0:0:0:
256,192,7565,1,0,0:0:0:0:
358,192,7741,1,2,0:0:0:0:
153,192,7741,1,0,0:0:0:0:
51,192,7918,1,0,0:0:0:0:
256,192,8094,1,2,0:0:0:0:
460,192,8094,1,0,0:0:0:0:
153,192,8271,1,0,0:0:0:0:
51,192,8447,1,2,0:0:0:0:
256,192,8447,1,0,0:0:0:0:
358,192,8624,1,0,0:0:0:0:
153,192,8800,1,2,0:0:0:0:
460,192,8800,1,0,0:0:0:0:
256,192,8977,1,0,0:0:0:0:
51,192,9153,1,2,0:0:0:0:
358,192,9153,1,0,0:0:0:0:
153,192,9330,1,0,0:0:0:0:
51,192,9506,1,2,0:0:0:0:
256,192,9506,1,0,0:0:0:0:
358,192,9682,1,0,0:0:0:0:
153,192,9859,1,2,0:0:0:0:
460,192,9859,1,0,0:0:0:0:
358,192,10035,1,0,0:0:0:0:
460,192,10212,1,2,0:0:0:0:
256,192,10212,1,0,0:0:0:0:
153,192,10388,1,0,0:0:0:0:
358,192,10565,1,2,0:0:0:0:
460,192,10565,1,0,0:0:0:0:
153,192,10741,1,0,0:0:0:0:
51,192,10918,1,2,0:0:0:0:
460,192,10918,1,0,0:0:0:0:
358,192,11094,1,0,0:0:0:0:
153,192,11271,1,2,0:0:0:0:
51,192,11271,1,0,0:0:0:0:
358,192,11447,1,0,0:0:0:0:
51,192,11624,1,2,0:0:0:0:
460,192,11624,1,0,0:0:0:0:
153,192,11800,1,0,0:0:0:0:
460,192,11977,1,2,0:0:0:0:
51,192,11977,1,0,0:0:0:0:
51,192,12330,1,2,0:0:0:0:
460,192,12330,1,0,0:0:0:0:
51,192,12682,1,2,0:0:0:0:
460,192,12682,1,0,0:0:0:0:
153,192,13035,1,0,0:0:0:0:
358,192,13124,1,0,0:0:0:0:
153,192,13212,1,0,0:0:0:0:
460,192,13388,128,0,13565:0:0:0:70:climax.wav
51,192,13388,1,0,0:0:0:0:
256,192,13565,1,0,0:0:0:0:
153,192,13741,1,0,0:0:0:70:flick.wav
460,192,13741,1,0,0:0:0:0:
358,192,13918,1,0,0:0:0:0:
51,192,14094,1,0,0:0:0:0:
460,192,14094,1,0,0:0:0:0:
256,192,14271,1,0,0:0:0:0:
358,192,14447,1,0,0:0:0:70:flick.wav
51,192,14447,1,0,0:0:0:0:
153,192,14624,1,0,0:0:0:0:
358,192,14800,1,0,0:0:0:0:
460,192,14800,1,0,0:0:0:0:
153,192,14977,1,0,0:0:0:0:
51,192,15153,1,0,0:0:0:70:flick.wav
256,192,15153,1,0,0:0:0:0:
358,192,15330,1,0,0:0:0:0:
153,192,15506,1,0,0:0:0:0:
51,192,15506,1,0,0:0:0:0:
358,192,15682,1,0,0:0:0:0:
256,192,15859,1,0,0:0:0:70:flick.wav
460,192,15859,1,0,0:0:0:0:
153,192,16035,1,0,0:0:0:0:
256,192,16212,1,0,0:0:0:0:
460,192,16212,1,0,0:0:0:0:
51,192,16388,1,0,0:0:0:0:
153,192,16565,1,0,0:0:0:70:flick.wav
358,192,16565,1,0,0:0:0:0:
460,192,16741,1,0,0:0:0:0:
256,192,16918,1,0,0:0:0:0:
51,192,16918,1,0,0:0:0:0:
358,192,17094,1,0,0:0:0:0:
153,192,17271,1,0,0:0:0:70:flick.wav
460,192,17271,1,0,0:0:0:0:
51,192,17447,1,0,0:0:0:0:
256,192,17624,1,0,0:0:0:0:
460,192,17624,1,0,0:0:0:0:
153,192,17800,1,0,0:0:0:0:
51,192,17977,1,0,0:0:0:70:flick.wav
358,192,17977,1,0,0:0:0:0:
256,192,18153,1,0,0:0:0:0:
153,192,18330,1,0,0:0:0:0:
460,192,18330,1,0,0:0:0:0:
358,192,18506,1,0,0:0:0:0:
256,192,18682,1,0,0:0:0:70:flick.wav
51,192,18682,1,0,0:0:0:0:
460,192,18859,1,0,0:0:0:0:
358,192,19035,1,0,0:0:0:0:
51,192,19035,1,0,0:0:0:0:
153,192,19212,1,0,0:0:0:0:
51,192,19388,1,0,0:0:0:70:flick.wav
460,192,19388,1,0,0:0:0:0:
358,192,19565,1,0,0:0:0:0:
153,192,19741,1,0,0:0:0:0:
460,192,19741,1,0,0:0:0:0:
358,192,19918,1,0,0:0:0:0:
51,192,20094,1,0,0:0:0:70:flick.wav
256,192,20094,1,0,0:0:0:0:
153,192,20271,1,0,0:0:0:0:
256,192,20447,1,0,0:0:0:0:
460,192,20447,1,0,0:0:0:0:
51,192,20624,1,0,0:0:0:0:
153,192,20800,1,0,0:0:0:70:flick.wav
358,192,20800,1,0,0:0:0:0:
460,192,20977,1,0,0:0:0:0:
256,192,21153,1,0,0:0:0:0:
51,192,21153,1,0,0:0:0:0:
358,192,21330,1,0,0:0:0:0:
153,192,21506,1,0,0:0:0:70:flick.wav
460,192,21506,1,0,0:0:0:0:
256,192,21682,1,0,0:0:0:0:
51,192,21859,1,0,0:0:0:0:
153,192,21859,1,0,0:0:0:0:
358,192,22035,1,0,0:0:0:0:
51,192,22212,1,0,0:0:0:70:flick.wav
153,192,22212,1,0,0:0:0:0:
256,192,22388,1,0,0:0:0:0:
358,192,22565,1,0,0:0:0:0:
460,192,22565,1,0,0:0:0:0:
153,192,22741,1,0,0:0:0:0:
358,192,22918,1,0,0:0:0:70:flick.wav
460,192,22918,1,0,0:0:0:0:
256,192,23094,1,0,0:0:0:0:
51,192,23271,1,0,0:0:0:0:
460,192,23271,1,0,0:0:0:0:
153,192,23447,1,0,0:0:0:0:
51,192,23624,1,0,0:0:0:70:flick.wav
358,192,23624,1,0,0:0:0:0:
256,192,23800,1,0,0:0:0:0:
51,192,23977,1,0,0:0:0:0:
460,192,23977,1,0,0:0:0:0:
358,192,24153,1,0,0:0:0:0:
153,192,24330,1,0,0:0:0:70:flick.wav
460,192,24330,1,0,0:0:0:0:
256,192,24506,1,0,0:0:0:0:
51,192,24682,1,0,0:0:0:0:
153,192,24682,1,0,0:0:0:0:
256,192,25035,1,0,0:0:0:70:clap.wav
460,192,25035,1,0,0:0:0:0:
256,192,25212,1,2,0:0:0:0:
460,192,25212,1,0,0:0:0:70:clap.wav
51,192,25565,1,2,0:0:0:0:
153,192,25565,1,0,0:0:0:0:
358,192,25741,1,0,0:0:0:70:clap.wav
460,192,25741,1,0,0:0:0:0:
153,192,25918,1,2,0:0:0:0:
51,192,25918,1,0,0:0:0:0:
153,192,26447,1,0,0:0:0:70:clap.wav
358,192,26447,1,0,0:0:0:0:
358,192,26624,1,0,0:0:0:70:clap.wav
153,192,26624,1,0,0:0:0:0:
51,192,26977,1,2,0:0:0:0:
153,192,26977,1,0,0:0:0:0:
358,192,27153,1,0,0:0:0:70:clap.wav
460,192,27153,1,0,0:0:0:0:
51,192,27330,1,0,0:0:0:0:
153,192,27330,1,0,0:0:0:0:
51,192,27506,1,2,0:0:0:0:
460,192,27506,1,0,0:0:0:0:
153,192,27859,1,0,0:0:0:70:clap.wav
358,192,27859,1,0,0:0:0:0:
153,192,28035,1,0,0:0:0:70:clap.wav
358,192,28035,1,2,0:0:0:0:
51,192,28388,1,2,0:0:0:0:
256,192,28388,1,0,0:0:0:0:
358,192,28565,1,0,0:0:0:70:clap.wav
460,192,28565,1,0,0:0:0:0:
51,192,28741,1,2,0:0:0:0:
256,192,28741,1,0,0:0:0:0:
358,192,29271,1,0,0:0:0:70:clap.wav
460,192,29271,1,0,0:0:0:0:
358,192,29447,1,0,0:0:0:70:clap.wav
460,192,29447,1,0,0:0:0:0:
153,192,29624,128,2,29800:0:0:0:0:
51,192,29624,128,0,29800:0:0:0:0:
256,192,29800,1,0,0:0:0:0:
358,192,29977,128,2,30153:0:0:0:0:
460,192,29977,128,0,30153:0:0:0:70:clap.wav
153,192,30153,1,0,0:0:0:0:
256,192,30241,1,0,0:0:0:0:
51,192,30330,1,2,0:0:0:0:
460,192,30330,1,0,0:0:0:0:
358,192,30330,1,0,0:0:0:70:open_highhat.wav
153,192,30418,1,0,0:0:0:0:
51,192,30506,1,0,0:0:0:0:
153,192,30594,1,0,0:0:0:0:
256,192,30682,1,2,0:0:0:0:
460,192,30682,1,0,0:0:0:70:clap.wav
153,192,30859,1,0,0:0:0:70:clap.wav
358,192,30859,1,0,0:0:0:0:
51,192,31035,1,2,0:0:0:0:
460,192,31035,1,0,0:0:0:0:
358,192,31124,1,0,0:0:0:0:
460,192,31212,1,0,0:0:0:0:
358,192,31300,1,0,0:0:0:0:
51,192,31388,1,0,0:0:0:70:clap.wav
256,192,31388,1,2,0:0:0:0:
358,192,31565,1,0,0:0:0:0:
51,192,31741,1,2,0:0:0:0:
460,192,31741,1,0,0:0:0:0:
153,192,31830,1,0,0:0:0:0:
358,192,31918,1,0,0:0:0:0:
256,192,32006,1,0,0:0:0:0:
51,192,32094,1,2,0:0:0:0:
460,192,32094,1,0,0:0:0:70:clap.wav
153,192,32271,1,0,0:0:0:70:clap.wav
358,192,32271,1,0,0:0:0:0:
51,192,32447,1,2,0:0:0:0:
460,192,32447,1,0,0:0:0:0:
256,192,32535,1,0,0:0:0:0:
153,192,32624,1,0,0:0:0:0:
358,192,32712,1,0,0:0:0:0:
51,192,32800,1,0,0:0:0:70:clap.wav
256,192,32800,1,2,0:0:0:0:
358,192,32977,1,0,0:0:0:0:
256,192,33153,1,2,0:0:0:0:
460,192,33153,1,0,0:0:0:0:
51,192,33241,1,0,0:0:0:0:
358,192,33330,1,0,0:0:0:0:
153,192,33418,1,0,0:0:0:0:
256,192,33506,1,0,0:0:0:70:clap.wav
460,192,33506,1,2,0:0:0:0:
51,192,33682,1,0,0:0:0:70:clap.wav
153,192,33682,1,0,0:0:0:0:
358,192,33859,1,2,0:0:0:0:
460,192,33859,1,0,0:0:0:0:
153,192,33947,1,0,0:0:0:0:
256,192,34035,1,0,0:0:0:0:
358,192,34124,1,0,0:0:0:0:
51,192,34212,1,2,0:0:0:0:
460,192,34212,1,0,0:0:0:70:clap.wav
153,192,34300,1,0,0:0:0:0:
256,192,34388,1,0,0:0:0:0:
358,192,34477,1,0,0:0:0:0:
51,192,34565,1,2,0:0:0:0:
460,192,34565,1,0,0:0:0:0:
51,192,34918,1,2,0:0:0:0:
460,192,34918,1,0,0:0:0:0:
51,192,35271,1,2,0:0:0:0:
460,192,35271,1,0,0:0:0:0:
256,192,35624,128,0,35977:0:0:0:70:whistle.wav
51,192,35977,1,4,0:0:0:0:
460,192,35977,1,2,0:0:0:0:
153,192,35977,128,0,36153:0:0:0:0:
358,192,36153,128,0,36330:0:0:0:0:
153,192,36330,128,8,36506:0:0:0:0:
51,192,36330,1,0,0:0:0:0:
256,192,36330,1,0,0:0:0:0:
460,192,36506,128,0,36682:0:0:0:0:
153,192,36682,128,2,36859:0:0:0:0:
51,192,36682,1,0,0:0:0:0:
358,192,36859,128,0,37035:0:0:0:0:
153,192,37035,128,8,37212:0:0:0:0:
51,192,37035,1,0,0:0:0:0:
460,192,37035,1,0,0:0:0:0:
460,192,37212,128,0,37565:0:0:0:0:
153,192,37388,1,2,0:0:0:0:
358,192,37388,1,0,0:0:0:0:
51,192,37565,128,0,37741:0:0:0:0:
153,192,37741,128,8,37918:0:0:0:0:
358,192,37741,1,0,0:0:0:0:
460,192,37741,1,0,0:0:0:0:
256,192,37918,128,0,38094:0:0:0:0:
358,192,38094,128,2,38624:0:0:0:0:
51,192,38094,1,0,0:0:0:0:
256,192,38271,1,0,0:0:0:0:
51,192,38447,128,8,38624:0:0:0:0:
460,192,38447,1,0,0:0:0:0:
153,192,38447,1,0,0:0:0:0:
256,192,38624,1,0,0:0:0:0:
153,192,38800,128,2,38977:0:0:0:0:
358,192,38800,1,0,0:0:0:0:
460,192,38977,128,0,39153:0:0:0:0:
153,192,39153,128,8,39330:0:0:0:0:
51,192,39153,1,0,0:0:0:0:
256,192,39153,1,0,0:0:0:0:
358,192,39330,128,0,39682:0:0:0:0:
51,192,39506,128,2,39682:0:0:0:0:
460,192,39506,1,0,0:0:0:0:
256,192,39682,1,0,0:0:0:0:
153,192,39859,128,8,40035:0:0:0:0:
460,192,39859,1,0,0:0:0:0:
51,192,39859,1,0,0:0:0:0:
358,192,40035,128,0,40212:0:0:0:0:
51,192,40212,1,2,0:0:0:0:
460,192,40212,1,0,0:0:0:0:
153,192,40388,128,0,40565:0:0:0:0:
358,192,40565,128,8,40741:0:0:0:0:
256,192,40565,1,0,0:0:0:0:
460,192,40565,1,0,0:0:0:0:
51,192,40741,128,0,40918:0:0:0:0:
256,192,40918,128,2,41094:0:0:0:0:
153,192,40918,1,0,0:0:0:0:
460,192,41094,128,0,41271:0:0:0:0:
153,192,41271,128,8,41447:0:0:0:0:
51,192,41271,1,0,0:0:0:0:
256,192,41271,1,0,0:0:0:0:
358,192,41447,128,0,41624:0:0:0:0:
51,192,41624,128,2,41977:0:0:0:0:
256,192,41624,1,0,0:0:0:0:
460,192,41800,1,0,0:0:0:0:
153,192,41977,128,8,42330:0:0:0:0:
358,192,41977,1,0,0:0:0:0:
256,192,41977,1,0,0:0:0:0:
460,192,42153,1,0,0:0:0:0:
256,192,42330,128,2,42682:0:0:0:0:
51,192,42330,1,0,0:0:0:0:
358,192,42506,1,0,0:0:0:0:
460,192,42682,128,8,43035:0:0:0:0:
153,192,42682,1,0,0:0:0:0:
51,192,42682,1,0,0:0:0:0:
358,192,42859,1,0,0:0:0:0:
256,192,43035,128,2,43388:0:0:0:0:
51,192,43035,1,0,0:0:0:0:
358,192,43212,1,0,0:0:0:0:
153,192,43388,128,8,43741:0:0:0:0:
51,192,43388,1,0,0:0:0:0:
460,192,43388,1,0,0:0:0:0:
256,192,43565,1,0,0:0:0:0:
51,192,43741,128,2,44094:0:0:0:0:
460,192,43741,1,0,0:0:0:0:
256,192,43918,1,0,0:0:0:0:
358,192,44094,128,8,44447:0:0:0:0:
153,192,44094,1,0,0:0:0:0:
460,192,44094,1,0,0:0:0:0:
256,192,44271,1,0,0:0:0:0:
51,192,44447,1,2,0:0:0:0:
460,192,44447,128,0,44800:0:0:0:0:
256,192,44624,1,0,0:0:0:0:
153,192,44800,128,8,45153:0:0:0:0:
51,192,44800,1,0,0:0:0:0:
358,192,44800,1,0,0:0:0:0:
460,192,44977,1,0,0:0:0:0:
256,192,45153,128,2,45506:0:0:0:0:
51,192,45153,1,0,0:0:0:0:
358,192,45330,1,0,0:0:0:0:
51,192,45506,128,8,45859:0:0:0:0:
153,192,45506,1,0,0:0:0:0:
460,192,45506,1,0,0:0:0:0:
460,192,45682,128,0,45859:0:0:0:0:
153,192,45859,1,2,0:0:0:0:
358,192,45859,1,0,0:0:0:0:
460,192,46035,128,0,46212:0:0:0:0:
51,192,46212,128,8,46565:0:0:0:0:
256,192,46212,1,0,0:0:0:0:
358,192,46212,1,0,0:0:0:0:
460,192,46388,128,0,46565:0:0:0:0:
256,192,46477,1,0,0:0:0:0:
153,192,46565,1,2,0:0:0:0:
358,192,46565,1,0,0:0:0:0:
51,192,46741,1,8,0:0:0:0:
256,192,46741,1,0,0:0:0:0:
153,192,46918,1,8,0:0:0:0:
51,192,46918,1,0,0:0:0:0:
358,192,46918,1,0,0:0:0:0:
256,192,47094,1,8,0:0:0:0:
460,192,47094,1,0,0:0:0:0:
153,192,47182,1,8,0:0:0:0:
460,192,47271,1,2,0:0:0:0:
358,192,47271,1,4,0:0:0:0:
51,192,47271,128,0,47624:0:0:0:0:
256,192,47447,1,0,0:0:0:0:
153,192,47624,1,8,0:0:0:0:
358,192,47624,1,0,0:0:0:0:
460,192,47624,1,0,0:0:0:0:
51,192,47800,128,0,47977:0:0:0:0:
460,192,47977,128,2,48330:0:0:0:0:
256,192,47977,1,0,0:0:0:0:
51,192,48153,128,0,48330:0:0:0:0:
153,192,48330,1,8,0:0:0:0:
256,192,48330,1,0,0:0:0:0:
358,192,48330,1,0,0:0:0:0:
153,192,48506,128,0,48682:0:0:0:0:
51,192,48682,128,2,48859:0:0:0:0:
460,192,48682,1,0,0:0:0:0:
256,192,48859,128,0,49035:0:0:0:0:
460,192,49035,128,8,49565:0:0:0:0:
153,192,49035,1,0,0:0:0:0:
358,192,49035,1,0,0:0:0:0:
51,192,49212,128,0,49388:0:0:0:0:
153,192,49388,1,2,0:0:0:0:
358,192,49388,1,0,0:0:0:0:
51,192,49565,128,0,49741:0:0:0:0:
460,192,49741,128,8,50094:0:0:0:0:
153,192,49741,1,0,0:0:0:0:
358,192,49741,1,0,0:0:0:0:
51,192,49918,128,0,50094:0:0:0:0:
256,192,50094,1,2,0:0:0:0:
153,192,50094,1,0,0:0:0:0:
460,192,50271,128,0,50447:0:0:0:0:
51,192,50447,128,8,50800:0:0:0:0:
358,192,50447,1,0,0:0:0:0:
153,192,50447,1,0,0:0:0:0:
460,192,50624,128,0,50800:0:0:0:0:
256,192,50800,1,2,0:0:0:0:
358,192,50800,1,0,0:0:0:0:
51,192,50977,128,0,51153:0:0:0:0:
460,192,51153,128,8,51330:0:0:0:0:
153,192,51153,1,0,0:0:0:0:
256,192,51153,1,0,0:0:0:0:
51,192,51330,128,0,51682:0:0:0:0:
460,192,51506,128,2,51682:0:0:0:0:
256,192,51506,1,0,0:0:0:0:
153,192,51682,128,0,52035:0:0:0:0:
358,192,51859,128,8,52035:0:0:0:0:
51,192,51859,1,0,0:0:0:0:
460,192,51859,1,0,0:0:0:0:
256,192,52035,1,0,0:0:0:0:
51,192,52212,1,2,0:0:0:0:
153,192,52212,128,0,52388:0:0:0:0:
358,192,52388,128,0,52565:0:0:0:0:
256,192,52565,128,8,52741:0:0:0:0:
51,192,52565,1,0,0:0:0:0:
460,192,52565,1,0,0:0:0:0:
153,192,52741,128,0,52918:0:0:0:0:
51,192,52918,128,2,53271:0:0:0:0:
358,192,52918,1,0,0:0:0:0:
256,192,53094,1,0,0:0:0:0:
153,192,53271,128,8,53624:0:0:0:0:
358,192,53271,1,0,0:0:0:0:
460,192,53271,1,0,0:0:0:0:
51,192,53447,1,0,0:0:0:0:
256,192,53624,128,2,53977:0:0:0:0:
460,192,53624,1,0,0:0:0:0:
153,192,53800,1,0,0:0:0:0:
460,192,53977,128,8,54330:0:0:0:0:
51,192,53977,1,0,0:0:0:0:
358,192,53977,1,0,0:0:0:0:
256,192,54153,1,0,0:0:0:0:
358,192,54330,128,2,54682:0:0:0:0:
51,192,54330,1,0,0:0:0:0:
153,192,54506,1,0,0:0:0:0:
256,192,54682,128,8,55035:0:0:0:0:
51,192,54682,1,0,0:0:0:0:
460,192,54682,1,0,0:0:0:0:
358,192,54859,1,0,0:0:0:0:
51,192,55035,128,2,55388:0:0:0:0:
460,192,55035,1,0,0:0:0:0:
256,192,55212,1,0,0:0:0:0:
358,192,55388,128,0,55477:0:0:0:0:
256,192,55477,128,0,55565:0:0:0:0:
153,192,55565,128,0,55741:0:0:0:0:
51,192,55741,1,2,0:0:0:0:
256,192,55741,1,4,0:0:0:0:
460,192,55741,1,0,0:0:0:0:
51,192,56094,1,8,0:0:0:0:
153,192,56094,1,0,0:0:0:0:
358,192,56094,1,0,0:0:0:0:
256,192,56271,1,0,0:0:0:0:
460,192,56271,1,0,0:0:0:0:
153,192,56447,1,2,0:0:0:0:
51,192,56447,1,0,0:0:0:0:
460,192,56535,1,0,0:0:0:0:
358,192,56624,1,0,0:0:0:0:
51,192,56712,1,0,0:0:0:0:
153,192,56712,1,0,0:0:0:0:
256,192,56800,1,8,0:0:0:0:
460,192,56800,1,0,0:0:0:0:
51,192,56888,1,0,0:0:0:0:
153,192,56977,1,0,0:0:0:0:
460,192,56977,1,0,0:0:0:0:
358,192,57065,1,0,0:0:0:0:
51,192,57153,1,2,0:0:0:0:
256,192,57153,1,0,0:0:0:0:
153,192,57330,1,0,0:0:0:0:
460,192,57330,1,0,0:0:0:0:
51,192,57506,1,8,0:0:0:0:
256,192,57506,1,0,0:0:0:0:
460,192,57506,1,0,0:0:0:0:
153,192,57682,1,0,0:0:0:0:
358,192,57682,1,0,0:0:0:0:
51,192,57859,1,2,0:0:0:0:
460,192,57859,1,0,0:0:0:0:
256,192,58035,1,0,0:0:0:0:
358,192,58035,1,0,0:0:0:0:
51,192,58212,1,8,0:0:0:0:
153,192,58212,1,0,0:0:0:0:
460,192,58212,1,0,0:0:0:0:
358,192,58300,1,0,0:0:0:0:
256,192,58388,128,0,58565:0:0:0:0:
153,192,58565,1,2,0:0:0:0:
51,192,58565,1,0,0:0:0:0:
460,192,58565,1,0,0:0:0:0:
51,192,58918,1,8,0:0:0:0:
358,192,58918,1,0,0:0:0:0:
460,192,58918,1,0,0:0:0:0:
153,192,59094,1,0,0:0:0:0:
256,192,59094,1,0,0:0:0:0:
358,192,59271,1,2,0:0:0:0:
51,192,59271,1,0,0:0:0:0:
460,192,59359,1,0,0:0:0:0:
256,192,59447,1,0,0:0:0:0:
153,192,59535,1,0,0:0:0:0:
460,192,59535,1,0,0:0:0:0:
358,192,59624,1,8,0:0:0:0:
51,192,59624,1,0,0:0:0:0:
256,192,59712,1,0,0:0:0:0:
460,192,59800,1,0,0:0:0:0:
51,192,59800,1,0,0:0:0:0:
153,192,59888,1,0,0:0:0:0:
256,192,59977,1,2,0:0:0:0:
358,192,59977,1,0,0:0:0:0:
51,192,60153,1,0,0:0:0:0:
460,192,60153,1,0,0:0:0:0:
256,192,60330,1,8,0:0:0:0:
153,192,60330,1,0,0:0:0:0:
460,192,60330,1,0,0:0:0:0:
358,192,60506,1,0,0:0:0:0:
51,192,60506,1,0,0:0:0:0:
460,192,60682,1,2,0:0:0:0:
51,192,60682,1,0,0:0:0:0:
256,192,60859,1,0,0:0:0:0:
460,192,60859,1,0,0:0:0:0:
51,192,61035,1,8,0:0:0:0:
153,192,61035,1,0,0:0:0:0:
358,192,61035,1,0,0:0:0:0:
256,192,61124,1,0,0:0:0:0:
358,192,61212,128,0,61388:0:0:0:0:
51,192,61388,1,2,0:0:0:0:
460,192,61388,1,0,0:0:0:0:
153,192,61565,1,0,0:0:0:0:
358,192,61653,1,0,0:0:0:0:
51,192,61741,1,8,0:0:0:0:
460,192,61741,1,0,0:0:0:0:
256,192,61741,1,0,0:0:0:0:
153,192,61918,1,0,0:0:0:0:
460,192,62094,1,0,0:0:0:0:
51,192,62094,128,2,62447:0:0:0:0:
256,192,62271,1,0,0:0:0:0:
153,192,62447,1,8,0:0:0:0:
358,192,62447,1,0,0:0:0:0:
460,192,62447,128,0,62800:0:0:0:0:
256,192,62624,1,0,0:0:0:0:
153,192,62800,1,2,0:0:0:0:
51,192,62800,1,0,0:0:0:0:
256,192,62977,1,0,0:0:0:0:
358,192,63065,1,0,0:0:0:0:
153,192,63153,1,8,0:0:0:0:
51,192,63153,1,0,0:0:0:0:
460,192,63153,1,0,0:0:0:0:
256,192,63330,1,0,0:0:0:0:
51,192,63506,1,2,0:0:0:0:
460,192,63506,128,0,63859:0:0:0:0:
153,192,63682,1,0,0:0:0:0:
51,192,63859,128,8,64212:0:0:0:0:
256,192,63859,1,0,0:0:0:0:
358,192,63859,1,0,0:0:0:0:
460,192,64035,1,0,0:0:0:0:
153,192,64212,1,2,0:0:0:0:
358,192,64212,1,0,0:0:0:70:climax.wav
153,192,64388,1,0,0:0:0:0:
51,192,64565,1,8,0:0:0:0:
358,192,64565,1,0,0:0:0:0:
460,192,64565,1,0,0:0:0:0:
256,192,64741,1,0,0:0:0:0:
153,192,64918,1,2,0:0:0:0:
460,192,64918,1,0,0:0:0:0:
460,192,65094,1,0,0:0:0:0:
358,192,65271,1,8,0:0:0:0:
51,192,65271,1,0,0:0:0:0:
153,192,65271,1,0,0:0:0:0:
256,192,65447,1,0,0:0:0:0:
153,192,65624,1,2,0:0:0:0:
460,192,65624,1,0,0:0:0:0:
51,192,65800,1,0,0:0:0:0:
256,192,65977,1,8,0:0:0:0:
358,192,65977,1,0,0:0:0:0:
460,192,65977,1,0,0:0:0:0:
51,192,66153,1,0,0:0:0:0:
256,192,66330,1,2,0:0:0:0:
460,192,66330,1,0,0:0:0:0:
153,192,66506,1,0,0:0:0:0:
51,192,66682,1,8,0:0:0:0:
358,192,66682,1,0,0:0:0:0:
460,192,66682,1,0,0:0:0:0:
256,192,66859,1,0,0:0:0:0:
51,192,67035,128,0,67212:0:0:0:70:whistle.wav
153,192,67035,128,2,67212:0:0:0:0:
358,192,67212,1,0,0:0:0:0:
51,192,67388,1,8,0:0:0:0:
460,192,67388,1,0,0:0:0:0:
256,192,67388,1,0,0:0:0:0:
153,192,67565,1,0,0:0:0:0:
51,192,67741,1,2,0:0:0:0:
460,192,67741,1,0,0:0:0:0:
460,192,67918,1,0,0:0:0:0:
51,192,68094,1,8,0:0:0:0:
358,192,68094,1,0,0:0:0:0:
153,192,68094,1,0,0:0:0:0:
256,192,68271,1,0,0:0:0:0:
460,192,68447,128,2,68624:0:0:0:0:
358,192,68447,128,0,68624:0:0:0:70:whistle.wav
153,192,68624,1,0,0:0:0:0:
51,192,68800,1,8,0:0:0:0:
358,192,68800,1,0,0:0:0:0:
460,192,68800,1,0,0:0:0:0:
256,192,68977,1,0,0:0:0:0:
51,192,69153,128,2,69330:0:0:0:0:
460,192,69153,128,0,69330:0:0:0:70:whistle.wav
358,192,69330,1,0,0:0:0:0:
153,192,69506,1,8,0:0:0:0:
51,192,69506,1,0,0:0:0:0:
460,192,69506,1,0,0:0:0:0:
256,192,69682,1,0,0:0:0:0:
51,192,69859,128,2,70035:0:0:0:0:
153,192,69859,128,0,70035:0:0:0:70:whistle.wav
358,192,70035,1,0,0:0:0:0:
51,192,70212,1,8,0:0:0:0:
460,192,70212,1,0,0:0:0:0:
153,192,70212,1,0,0:0:0:0:
256,192,70388,1,0,0:0:0:0:
153,192,70565,1,2,0:0:0:0:
460,192,70565,1,0,0:0:0:0:
153,192,70741,1,0,0:0:0:0:
51,192,70918,1,8,0:0:0:0:
358,192,70918,1,0,0:0:0:0:
460,192,70918,1,0,0:0:0:0:
256,192,71094,1,0,0:0:0:0:
460,192,71271,128,2,71447:0:0:0:0:
358,192,71271,128,0,71447:0:0:0:70:whistle.wav
153,192,71447,1,0,0:0:0:0:
51,192,71624,1,8,0:0:0:0:
460,192,71624,1,0,0:0:0:0:
256,192,71624,1,0,0:0:0:0:
358,192,71800,1,0,0:0:0:0:
153,192,71977,128,2,72153:0:0:0:0:
256,192,71977,128,0,72153:0:0:0:70:whistle.wav
51,192,72153,1,0,0:0:0:0:
153,192,72330,1,8,0:0:0:0:
358,192,72330,1,0,0:0:0:0:
460,192,72330,1,0,0:0:0:0:
256,192,72506,1,0,0:0:0:0:
51,192,72682,128,2,72859:0:0:0:0:
460,192,72682,128,0,72859:0:0:0:70:whistle.wav
358,192,72859,1,0,0:0:0:0:
153,192,73035,1,8,0:0:0:0:
460,192,73035,1,0,0:0:0:0:
51,192,73035,1,0,0:0:0:0:
256,192,73212,1,0,0:0:0:0:
153,192,73388,1,2,0:0:0:0:
460,192,73388,1,0,0:0:0:0:
358,192,73565,1,0,0:0:0:0:
51,192,73741,1,8,0:0:0:0:
460,192,73741,1,0,0:0:0:0:
153,192,73741,1,0,0:0:0:0:
358,192,73918,128,0,74271:0:0:0:0:
51,192,74094,1,2,0:0:0:0:
153,192,74094,1,0,0:0:0:70:whistle.wav
460,192,74271,128,0,74447:0:0:0:0:
51,192,74447,128,8,74624:0:0:0:0:
256,192,74447,1,0,0:0:0:0:
358,192,74447,1,0,0:0:0:0:
153,192,74624,128,0,74800:0:0:0:0:
256,192,74800,128,2,74977:0:0:0:0:
460,192,74800,1,0,0:0:0:0:
358,192,74977,128,0,75153:0:0:0:0:
460,192,75153,128,8,75330:0:0:0:0:
153,192,75153,1,0,0:0:0:0:
256,192,75153,1,0,0:0:0:0:
51,192,75330,128,0,75682:0:0:0:0:
460,192,75506,128,2,75682:0:0:0:0:
256,192,75506,1,0,0:0:0:0:
153,192,75682,1,0,0:0:0:0:
51,192,75859,1,8,0:0:0:0:
358,192,75859,1,0,0:0:0:0:
460,192,75859,1,0,0:0:0:0:
51,192,76035,1,0,0:0:0:0:
256,192,76212,1,2,0:0:0:0:
460,192,76212,1,0,0:0:0:0:
460,192,76388,1,0,0:0:0:0:
51,192,76565,1,8,0:0:0:0:
153,192,76565,1,0,0:0:0:0:
358,192,76565,1,0,0:0:0:0:
153,192,76741,1,0,0:0:0:0:
51,192,76918,1,2,0:0:0:0:
460,192,76918,1,0,0:0:0:0:
358,192,77094,1,0,0:0:0:0:
51,192,77271,1,8,0:0:0:0:
153,192,77271,1,0,0:0:0:0:
460,192,77271,1,0,0:0:0:0:
358,192,77447,1,0,0:0:0:0:
51,192,77624,1,2,0:0:0:0:
256,192,77624,1,0,0:0:0:0:
358,192,77800,1,0,0:0:0:0:
153,192,77977,1,8,0:0:0:0:
460,192,77977,1,0,0:0:0:0:
51,192,77977,1,0,0:0:0:0:
358,192,78153,1,0,0:0:0:0:
51,192,78330,1,2,0:0:0:0:
358,192,78330,1,0,0:0:0:0:
153,192,78506,1,0,0:0:0:0:
153,192,78682,1,8,0:0:0:0:
358,192,78682,1,0,0:0:0:0:
460,192,78682,1,0,0:0:0:0:
51,192,78859,1,0,0:0:0:0:
51,192,79035,1,2,0:0:0:0:
256,192,79035,1,0,0:0:0:0:
460,192,79212,1,0,0:0:0:0:
153,192,79388,1,8,0:0:0:0:
51,192,79388,1,0,0:0:0:0:
460,192,79388,1,0,0:0:0:0:
256,192,79565,1,0,0:0:0:0:
51,192,79741,1,2,0:0:0:0:
358,192,79741,1,0,0:0:0:0:
256,192,79918,1,0,0:0:0:0:
153,192,80094,1,8,0:0:0:0:
460,192,80094,1,0,0:0:0:0:
51,192,80094,1,0,0:0:0:0:
358,192,80271,1,0,0:0:0:0:
51,192,80447,1,2,0:0:0:0:
460,192,80447,1,0,0:0:0:0:
256,192,80624,1,0,0:0:0:0:
153,192,80800,1,8,0:0:0:0:
51,192,80800,1,0,0:0:0:0:
460,192,80800,1,0,0:0:0:0:
358,192,80977,1,0,0:0:0:0:
153,192,81153,128,2,81330:0:0:0:0:
460,192,81153,1,0,0:0:0:0:
51,192,81330,128,0,81682:0:0:0:0:
153,192,81506,128,8,81682:0:0:0:0:
358,192,81506,1,0,0:0:0:0:
460,192,81506,1,0,0:0:0:0:
256,192,81682,1,0,0:0:0:0:
358,192,81859,128,2,82035:0:0:0:0:
153,192,81859,1,0,0:0:0:0:
460,192,82035,128,0,82388:0:0:0:0:
358,192,82212,128,8,82388:0:0:0:0:
51,192,82212,1,0,0:0:0:0:
153,192,82212,1,0,0:0:0:0:
256,192,82388,1,0,0:0:0:0:
51,192,82565,1,2,0:0:0:0:
460,192,82565,1,0,0:0:0:0:
51,192,82741,1,0,0:0:0:0:
358,192,82918,1,8,0:0:0:0:
153,192,82918,1,0,0:0:0:0:
460,192,82918,1,0,0:0:0:0:
358,192,83094,1,0,0:0:0:0:
51,192,83271,1,2,0:0:0:0:
460,192,83271,1,0,0:0:0:0:
256,192,83447,1,0,0:0:0:0:
153,192,83624,1,8,0:0:0:0:
358,192,83624,1,0,0:0:0:0:
460,192,83624,1,0,0:0:0:0:
51,192,83800,1,0,0:0:0:0:
256,192,83977,1,2,0:0:0:0:
460,192,83977,1,0,0:0:0:0:
51,192,84153,1,0,0:0:0:0:
153,192,84330,1,8,0:0:0:0:
358,192,84330,1,0,0:0:0:0:
460,192,84330,1,0,0:0:0:0:
51,192,84506,1,0,0:0:0:0:
256,192,84682,1,2,0:0:0:0:
460,192,84682,1,0,0:0:0:0:
153,192,84859,1,0,0:0:0:0:
51,192,85035,1,8,0:0:0:0:
358,192,85035,1,0,0:0:0:0:
460,192,85035,1,0,0:0:0:0:
153,192,85212,1,0,0:0:0:0:
153,192,85388,1,2,0:0:0:0:
460,192,85388,1,0,0:0:0:0:
358,192,85565,1,0,0:0:0:0:
358,192,85741,1,8,0:0:0:0:
51,192,85741,1,0,0:0:0:0:
460,192,85741,1,0,0:0:0:0:
153,192,85918,1,0,0:0:0:0:
153,192,86094,1,2,0:0:0:0:
460,192,86094,1,0,0:0:0:0:
358,192,86271,1,0,0:0:0:0:
51,192,86447,1,8,0:0:0:0:
358,192,86447,1,0,0:0:0:0:
460,192,86447,1,0,0:0:0:0:
256,192,86624,1,0,0:0:0:0:
358,192,86800,1,0,0:0:0:70:whistle.wav
153,192,86800,1,0,0:0:0:0:
358,192,87065,1,0,0:0:0:0:
51,192,87153,1,0,0:0:0:70:clap.wav
153,192,87153,1,0,0:0:0:0:
358,192,87330,1,0,0:0:0:0:
460,192,87506,1,0,0:0:0:0:
153,192,87682,1,0,0:0:0:0:
51,192,87859,1,0,0:0:0:70:clap.wav
460,192,87859,1,0,0:0:0:0:
358,192,88035,1,0,0:0:0:0:
153,192,88212,1,0,0:0:0:70:whistle.wav
153,192,88477,1,0,0:0:0:0:
358,192,88565,1,0,0:0:0:70:clap.wav
460,192,88565,1,0,0:0:0:0:
153,192,88741,1,0,0:0:0:0:
51,192,88918,1,0,0:0:0:0:
358,192,89094,1,0,0:0:0:0:
153,192,89271,1,0,0:0:0:70:clap.wav
460,192,89271,1,0,0:0:0:0:
256,192,89447,1,0,0:0:0:0:
51,192,89624,1,0,0:0:0:70:whistle.wav
51,192,89888,1,0,0:0:0:0:
256,192,89977,1,0,0:0:0:70:clap.wav
460,192,89977,1,0,0:0:0:0:
51,192,90153,1,0,0:0:0:0:
358,192,90330,1,0,0:0:0:0:
153,192,90506,1,0,0:0:0:0:
51,192,90682,1,0,0:0:0:70:clap.wav
460,192,90682,1,0,0:0:0:0:
256,192,90859,1,0,0:0:0:0:
358,192,91035,1,0,0:0:0:70:whistle.wav
358,192,91300,1,0,0:0:0:0:
153,192,91388,1,0,0:0:0:70:clap.wav
256,192,91388,1,0,0:0:0:0:
358,192,91565,1,0,0:0:0:0:
153,192,91741,1,0,0:0:0:0:
460,192,91918,1,0,0:0:0:0:
51,192,92094,1,0,0:0:0:70:clap.wav
358,192,92094,1,0,0:0:0:0:
256,192,92271,1,0,0:0:0:0:
153,192,92447,1,2,0:0:0:0:
460,192,92447,1,0,0:0:0:0:
358,192,92535,1,0,0:0:0:0:
51,192,92624,1,0,0:0:0:0:
256,192,92712,1,0,0:0:0:0:
153,192,92800,1,2,0:0:0:0:
460,192,92800,1,0,0:0:0:70:clap.wav
358,192,92977,1,0,0:0:0:0:
51,192,93153,1,2,0:0:0:0:
460,192,93153,1,0,0:0:0:0:
256,192,93241,1,0,0:0:0:0:
153,192,93330,1,0,0:0:0:0:
358,192,93418,1,0,0:0:0:0:
51,192,93506,1,0,0:0:0:70:clap.wav
460,192,93506,1,2,0:0:0:0:
153,192,93682,1,0,0:0:0:0:
256,192,93859,1,2,0:0:0:0:
460,192,93859,1,0,0:0:0:0:
51,192,93947,1,0,0:0:0:0:
358,192,94035,1,0,0:0:0:0:
51,192,94124,1,0,0:0:0:0:
153,192,94212,1,0,0:0:0:70:clap.wav
460,192,94212,1,2,0:0:0:0:
256,192,94388,1,0,0:0:0:0:
153,192,94565,1,2,0:0:0:0:
460,192,94565,1,0,0:0:0:0:
358,192,94653,1,0,0:0:0:0:
51,192,94741,1,0,0:0:0:70:clap.wav
358,192,94830,1,0,0:0:0:0:
153,192,94918,1,0,0:0:0:70:clap.wav
460,192,94918,1,2,0:0:0:0:
256,192,95094,1,0,0:0:0:0:
51,192,95271,1,2,0:0:0:0:
460,192,95271,1,0,0:0:0:0:
358,192,95359,1,0,0:0:0:0:
51,192,95447,1,0,0:0:0:0:
256,192,95535,1,0,0:0:0:0:
153,192,95624,1,8,0:0:0:0:
460,192,95624,1,0,0:0:0:0:
358,192,95800,1,0,0:0:0:0:
51,192,95977,1,2,0:0:0:0:
460,192,95977,1,0,0:0:0:0:
256,192,96065,1,0,0:0:0:0:
153,192,96153,1,8,0:0:0:0:
358,192,96153,1,0,0:0:0:0:
51,192,96241,1,0,0:0:0:0:
256,192,96330,1,8,0:0:0:0:
460,192,96330,1,0,0:0:0:0:
153,192,96506,1,0,0:0:0:0:
358,192,96682,1,2,0:0:0:0:
460,192,96682,1,0,0:0:0:0:
153,192,96771,1,0,0:0:0:0:
358,192,96859,1,2,0:0:0:0:
153,192,96947,1,0,0:0:0:0:
51,192,97035,1,8,0:0:0:0:
460,192,97035,1,0,0:0:0:0:
153,192,97124,1,0,0:0:0:0:
358,192,97212,1,2,0:0:0:0:
153,192,97300,1,0,0:0:0:0:
358,192,97388,1,2,0:0:0:0:
460,192,97388,1,0,0:0:0:0:
153,192,97477,1,2,0:0:0:0:
358,192,97565,1,2,0:0:0:0:
51,192,97565,1,0,0:0:0:0:
153,192,97653,1,2,0:0:0:0:
256,192,97741,1,8,0:0:0:0:
460,192,97741,1,0,0:0:0:0:
153,192,98094,1,2,0:0:0:0:
51,192,98094,128,4,98800:0:0:0:70:climax.wav
460,192,98094,128,0,98271:0:0:0:0:
358,192,98271,128,0,98447:0:0:0:0:
256,192,98447,128,0,98624:0:0:0:0:
460,192,98447,1,0,0:0:0:0:
358,192,98624,128,0,98800:0:0:0:0:
460,192,98800,128,8,98977:0:0:0:0:
256,192,98800,1,0,0:0:0:0:
153,192,98800,1,0,0:0:0:0:
51,192,98977,128,0,99153:0:0:0:0:
460,192,99153,128,2,99330:0:0:0:0:
256,192,99153,1,0,0:0:0:0:
51,192,99330,128,0,99506:0:0:0:0:
153,192,99506,128,0,99682:0:0:0:0:
256,192,99682,128,0,99859:0:0:0:0:
358,192,99859,128,2,100035:0:0:0:0:
460,192,99859,1,0,0:0:0:0:
51,192,100035,128,0,100212:0:0:0:0:
256,192,100212,1,8,0:0:0:0:
460,192,100212,1,0,0:0:0:0:
358,192,100212,1,0,0:0:0:0:
153,192,100388,1,0,0:0:0:0:
153,192,100565,1,0,0:0:0:0:
358,192,100565,1,0,0:0:0:0:
153,192,100741,1,0,0:0:0:0:
460,192,100918,128,2,101624:0:0:0:0:
51,192,100918,128,0,101094:0:0:0:0:
153,192,101094,128,0,101271:0:0:0:0:
51,192,101271,128,0,101447:0:0:0:0:
358,192,101271,1,0,0:0:0:0:
153,192,101447,128,0,101624:0:0:0:0:
256,192,101624,128,8,101800:0:0:0:0:
51,192,101624,1,0,0:0:0:0:
358,192,101624,1,0,0:0:0:0:
460,192,101800,128,0,101977:0:0:0:0:
153,192,101977,128,0,102153:0:0:0:0:
51,192,101977,1,0,0:0:0:0:
358,192,102153,128,2,102330:0:0:0:0:
460,192,102153,1,0,0:0:0:0:
51,192,102330,128,0,102506:0:0:0:0:
358,192,102506,128,0,102682:0:0:0:0:
153,192,102682,128,2,102859:0:0:0:0:
51,192,102682,1,0,0:0:0:0:
460,192,102859,128,0,103035:0:0:0:0:
256,192,103035,1,8,0:0:0:0:
153,192,103035,1,0,0:0:0:0:
51,192,103035,1,0,0:0:0:0:
358,192,103212,1,0,0:0:0:0:
358,192,103388,1,0,0:0:0:0:
153,192,103388,1,0,0:0:0:0:
460,192,103565,1,0,0:0:0:0:
51,192,103741,128,2,104447:0:0:0:0:
256,192,103741,128,0,103918:0:0:0:0:
358,192,103918,128,0,104094:0:0:0:0:
460,192,104094,128,0,104271:0:0:0:0:
153,192,104094,1,0,0:0:0:0:
358,192,104271,128,0,104447:0:0:0:0:
153,192,104447,128,8,104624:0:0:0:0:
256,192,104447,1,0,0:0:0:0:
460,192,104447,1,0,0:0:0:0:
51,192,104624,128,0,104800:0:0:0:0:
256,192,104800,128,2,104977:0:0:0:0:
460,192,104800,1,0,0:0:0:0:
358,192,104977,128,0,105153:0:0:0:0:
153,192,105153,128,0,105330:0:0:0:0:
256,192,105330,128,0,105506:0:0:0:0:
358,192,105506,128,2,105682:0:0:0:0:
51,192,105506,1,0,0:0:0:0:
460,192,105682,128,0,105859:0:0:0:0:
51,192,105859,1,8,0:0:0:0:
256,192,105859,1,0,0:0:0:0:
358,192,105859,1,0,0:0:0:0:
153,192,106035,1,0,0:0:0:0:
153,192,106212,1,0,0:0:0:0:
358,192,106212,1,0,0:0:0:0:
51,192,106388,1,0,0:0:0:0:
460,192,106565,128,2,107271:0:0:0:0:
256,192,106565,128,0,106741:0:0:0:0:
51,192,106741,128,0,106918:0:0:0:0:
153,192,106918,128,0,107094:0:0:0:0:
358,192,106918,1,0,0:0:0:0:
256,192,107094,128,0,107271:0:0:0:0:
51,192,107271,128,8,107447:0:0:0:0:
153,192,107271,1,0,0:0:0:0:
358,192,107271,1,0,0:0:0:0:
460,192,107447,128,0,107624:0:0:0:0:
51,192,107624,128,0,107800:0:0:0:0:
358,192,107624,1,0,0:0:0:0:
256,192,107800,128,2,107977:0:0:0:0:
460,192,107800,1,0,0:0:0:0:
51,192,107977,128,0,108153:0:0:0:0:
153,192,108153,128,0,108330:0:0:0:0:
256,192,108330,128,2,108506:0:0:0:0:
460,192,108330,1,0,0:0:0:0:
51,192,108506,128,0,108682:0:0:0:0:
153,192,108682,1,0,0:0:0:40:tick.wav
256,192,108727,1,0,0:0:0:40:tick.wav
358,192,108771,1,0,0:0:0:40:tick.wav
153,192,108859,1,0,0:0:0:40:tick.wav
358,192,109035,1,0,0:0:0:40:tick.wav
153,192,109212,1,0,0:0:0:40:tick.wav
51,192,109388,1,2,0:0:0:0:
358,192,109388,1,4,0:0:0:0:
460,192,109388,128,0,110094:0:0:0:0:
51,192,109565,1,0,0:0:0:0:
153,192,109741,1,0,0:0:0:0:
358,192,109741,1,0,0:0:0:0:
153,192,109918,1,0,0:0:0:0:
256,192,110094,128,8,110271:0:0:0:0:
51,192,110094,1,0,0:0:0:0:
358,192,110094,1,0,0:0:0:0:
51,192,110271,128,0,110447:0:0:0:0:
460,192,110447,128,2,111153:0:0:0:0:
153,192,110447,128,0,110624:0:0:0:0:
256,192,110624,128,0,110800:0:0:0:0:
51,192,110800,128,0,110977:0:0:0:0:
358,192,110977,128,0,111153:0:0:0:0:
51,192,111153,128,2,111330:0:0:0:0:
256,192,111153,1,0,0:0:0:0:
460,192,111330,128,0,111506:0:0:0:0:
153,192,111506,1,8,0:0:0:0:
51,192,111506,1,0,0:0:0:0:
256,192,111506,1,0,0:0:0:0:
358,192,111682,1,0,0:0:0:0:
358,192,111859,1,0,0:0:0:0:
153,192,111859,1,0,0:0:0:0:
358,192,112035,1,0,0:0:0:0:
51,192,112212,128,2,112918:0:0:0:0:
460,192,112212,1,0,0:0:0:0:
460,192,112388,1,0,0:0:0:0:
358,192,112565,1,0,0:0:0:0:
153,192,112565,1,0,0:0:0:0:
358,192,112741,1,0,0:0:0:0:
256,192,112918,128,8,113094:0:0:0:0:
153,192,112918,1,0,0:0:0:0:
460,192,112918,1,0,0:0:0:0:
460,192,113094,128,0,113271:0:0:0:0:
153,192,113271,128,0,113447:0:0:0:0:
256,192,113271,1,0,0:0:0:0:
51,192,113447,128,2,114330:0:0:0:0:
358,192,113447,128,0,113624:0:0:0:0:
460,192,113624,128,0,113800:0:0:0:0:
256,192,113800,128,0,113977:0:0:0:0:
358,192,113977,128,2,114153:0:0:0:0:
153,192,113977,1,0,0:0:0:0:
460,192,114153,128,0,114330:0:0:0:0:
153,192,114330,1,8,0:0:0:0:
256,192,114330,1,0,0:0:0:0:
358,192,114330,1,0,0:0:0:0:
51,192,114506,128,2,115035:0:0:0:0:
460,192,114506,1,0,0:0:0:0:
460,192,114682,1,0,0:0:0:0:
153,192,114682,1,0,0:0:0:0:
256,192,114859,1,0,0:0:0:0:
460,192,115035,128,2,115741:0:0:0:0:
153,192,115035,1,0,0:0:0:0:
153,192,115212,1,0,0:0:0:0:
358,192,115388,1,0,0:0:0:0:
51,192,115388,1,0,0:0:0:0:
51,192,115565,1,0,0:0:0:0:
256,192,115741,128,8,115918:0:0:0:0:
358,192,115741,1,0,0:0:0:0:
153,192,115741,1,0,0:0:0:0:
51,192,115918,128,0,116094:0:0:0:0:
460,192,116094,128,2,117153:0:0:0:0:
358,192,116094,128,0,116271:0:0:0:0:
153,192,116271,128,0,116447:0:0:0:0:
51,192,116447,128,0,116624:0:0:0:0:
358,192,116624,128,0,116800:0:0:0:0:
51,192,116800,1,2,0:0:0:0:
153,192,116800,1,0,0:0:0:0:
256,192,116977,128,0,117153:0:0:0:0:
51,192,117153,1,8,0:0:0:0:
153,192,117153,1,0,0:0:0:0:
358,192,117153,1,0,0:0:0:0:
153,192,117330,128,0,117682:0:0:0:0:
358,192,117506,128,0,117682:0:0:0:0:
460,192,117506,1,0,0:0:0:0:
51,192,117682,128,0,117859:0:0:0:0:
256,192,117859,128,2,118565:0:0:0:0:
460,192,117859,1,0,0:0:0:0:
460,192,118035,1,0,0:0:0:0:
358,192,118212,1,0,0:0:0:0:
153,192,118212,1,0,0:0:0:0:
358,192,118388,1,0,0:0:0:0:
51,192,118565,1,8,0:0:0:0:
460,192,118565,1,0,0:0:0:0:
153,192,118565,1,0,0:0:0:0:
51,192,118741,1,0,0:0:0:0:
153,192,118918,1,0,0:0:0:0:
358,192,118918,1,0,0:0:0:0:
256,192,119094,128,2,119977:0:0:0:0:
153,192,119094,1,0,0:0:0:0:
460,192,119271,1,0,0:0:0:0:
51,192,119447,1,0,0:0:0:0:
460,192,119624,1,2,0:0:0:0:
358,192,119624,1,0,0:0:0:0:
51,192,119800,1,0,0:0:0:0:
153,192,119977,1,8,0:0:0:0:
358,192,119977,1,0,0:0:0:0:
460,192,119977,1,0,0:0:0:0:
256,192,120153,1,2,0:0:0:0:
51,192,120153,1,0,0:0:0:0:
153,192,120330,1,8,0:0:0:0:
51,192,120330,1,0,0:0:0:0:
460,192,120330,1,0,0:0:0:0:
51,192,120682,1,4,0:0:0:0:
256,192,120682,1,2,0:0:0:0:
460,192,120682,1,0,0:0:0:0:
153,192,120947,1,0,0:0:0:0:
51,192,120947,1,0,0:0:0:0:
358,192,121035,1,0,0:0:0:70:snare-alt.wav
460,192,121035,1,2,0:0:0:0:
153,192,121212,1,0,0:0:0:0:
51,192,121212,1,0,0:0:0:0:
256,192,121388,1,2,0:0:0:0:
460,192,121388,1,0,0:0:0:0:
358,192,121565,1,0,0:0:0:70:snare-alt.wav
153,192,121565,1,0,0:0:0:0:
51,192,121741,1,2,0:0:0:0:
256,192,121741,1,0,0:0:0:0:
153,192,121918,1,0,0:0:0:70:snare-alt.wav
358,192,121918,1,0,0:0:0:0:
460,192,122094,1,2,0:0:0:0:
51,192,122094,1,0,0:0:0:0:
153,192,122359,1,0,0:0:0:0:
358,192,122359,1,0,0:0:0:0:
460,192,122447,1,0,0:0:0:70:snare-alt.wav
51,192,122447,1,2,0:0:0:0:
153,192,122624,1,0,0:0:0:0:
358,192,122624,1,0,0:0:0:0:
51,192,122800,1,2,0:0:0:0:
256,192,122800,1,0,0:0:0:0:
358,192,122977,1,0,0:0:0:70:snare-alt.wav
460,192,122977,1,0,0:0:0:0:
51,192,123153,1,2,0:0:0:0:
256,192,123153,1,0,0:0:0:0:
153,192,123330,1,0,0:0:0:70:snare-alt.wav
358,192,123330,1,0,0:0:0:0:
256,192,123506,1,2,0:0:0:0:
460,192,123506,1,0,0:0:0:0:
153,192,123771,1,0,0:0:0:0:
358,192,123771,1,0,0:0:0:0:
51,192,123859,1,2,0:0:0:0:
256,192,123859,1,0,0:0:0:70:snare-alt.wav
153,192,124035,1,0,0:0:0:0:
358,192,124035,1,0,0:0:0:0:
51,192,124212,1,2,0:0:0:0:
460,192,124212,1,0,0:0:0:0:
153,192,124388,1,0,0:0:0:70:snare-alt.wav
358,192,124388,1,0,0:0:0:0:
51,192,124565,1,2,0:0:0:0:
460,192,124565,1,0,0:0:0:0:
256,192,124741,1,0,0:0:0:70:snare-alt.wav
358,192,124741,1,0,0:0:0:0:
153,192,124918,1,2,0:0:0:0:
51,192,124918,1,0,0:0:0:0:
256,192,125182,1,0,0:0:0:0:
460,192,125182,1,0,0:0:0:0:
153,192,125271,1,0,0:0:0:70:snare-alt.wav
51,192,125271,1,2,0:0:0:0:
256,192,125447,1,0,0:0:0:0:
460,192,125447,1,0,0:0:0:0:
51,192,125624,1,2,0:0:0:0:
358,192,125624,1,0,0:0:0:0:
256,192,125800,1,0,0:0:0:70:snare-alt.wav
460,192,125800,1,0,0:0:0:0:
51,192,125977,1,2,0:0:0:0:
358,192,125977,1,0,0:0:0:0:
153,192,126153,1,0,0:0:0:70:snare-alt.wav
256,192,126153,1,0,0:0:0:0:
51,192,126330,1,2,0:0:0:0:
460,192,126330,1,0,0:0:0:0:
358,192,126418,1,0,0:0:0:0:
153,192,126506,1,0,0:0:0:0:
256,192,126594,1,0,0:0:0:0:
460,192,126594,1,0,0:0:0:0:
51,192,126682,1,8,0:0:0:0:
153,192,126682,1,0,0:0:0:0:
256,192,126859,1,0,0:0:0:0:
460,192,126859,1,0,0:0:0:0:
358,192,127035,1,2,0:0:0:0:
51,192,127035,1,0,0:0:0:0:
153,192,127124,1,0,0:0:0:0:
256,192,127212,1,0,0:0:0:70:snare-alt.wav
460,192,127212,1,0,0:0:0:0:
51,192,127300,1,0,0:0:0:0:
153,192,127388,1,8,0:0:0:0:
358,192,127388,1,0,0:0:0:0:
256,192,127565,1,0,0:0:0:70:snare-alt.wav
51,192,127565,1,0,0:0:0:0:
153,192,127741,1,2,0:0:0:0:
460,192,127741,1,0,0:0:0:0:
358,192,127830,1,0,0:0:0:0:
256,192,127918,1,0,0:0:0:0:
51,192,128006,1,0,0:0:0:0:
358,192,128006,1,0,0:0:0:0:
153,192,128094,1,8,0:0:0:0:
460,192,128094,1,0,0:0:0:0:
51,192,128271,1,0,0:0:0:0:
256,192,128271,1,0,0:0:0:0:
358,192,128447,1,2,0:0:0:0:
460,192,128447,1,0,0:0:0:0:
153,192,128624,1,0,0:0:0:70:snare-alt.wav
51,192,128624,1,0,0:0:0:0:
256,192,128800,1,8,0:0:0:0:
460,192,128800,1,0,0:0:0:0:
153,192,128977,1,0,0:0:0:70:snare-alt.wav
51,192,128977,1,0,0:0:0:0:
358,192,129153,1,2,0:0:0:0:
460,192,129153,1,0,0:0:0:0:
153,192,129241,1,0,0:0:0:0:
51,192,129330,1,0,0:0:0:0:
256,192,129418,1,0,0:0:0:0:
358,192,129418,1,0,0:0:0:0:
153,192,129506,1,8,0:0:0:0:
460,192,129506,1,0,0:0:0:0:
51,192,129682,1,0,0:0:0:0:
358,192,129682,1,0,0:0:0:0:
256,192,129859,1,2,0:0:0:0:
460,192,129859,1,0,0:0:0:0:
358,192,129947,1,0,0:0:0:0:
51,192,130035,1,0,0:0:0:70:snare-alt.wav
153,192,130035,1,0,0:0:0:0:
256,192,130124,1,0,0:0:0:0:
358,192,130212,1,8,0:0:0:0:
460,192,130212,1,0,0:0:0:0:
51,192,130388,1,0,0:0:0:0:
153,192,130388,1,0,0:0:0:70:snare-alt.wav
358,192,130565,1,0,0:0:0:0:
358,192,130741,1,0,0:0:0:0:
51,192,130918,1,0,0:0:0:0:
460,192,130918,1,0,0:0:0:0:
153,192,131094,1,0,0:0:0:0:
256,192,131182,1,0,0:0:0:0:
358,192,131271,1,0,0:0:0:0:
153,192,131359,1,0,0:0:0:0:
358,192,131447,1,0,0:0:0:0:
51,192,131624,1,0,0:0:0:0:
460,192,131624,1,0,0:0:0:0:
256,192,131800,1,0,0:0:0:0:
358,192,131888,1,0,0:0:0:40:tick.wav
153,192,131977,128,0,132153:0:0:0:40:whistle.wav
460,192,131977,1,0,0:0:0:70:twinkling.wav
51,192,132153,128,0,132506:0:0:0:0:
460,192,132330,128,0,132506:0:0:0:0:
153,192,132506,128,0,132682:0:0:0:0:
358,192,132682,128,0,133035:0:0:0:0:
153,192,132859,128,0,133035:0:0:0:0:
51,192,133035,128,0,133212:0:0:0:0:
460,192,133212,128,0,133565:0:0:0:0:
51,192,133388,128,0,133565:0:0:0:40:whistle.wav
358,192,133388,1,0,0:0:0:0:
153,192,133565,128,0,133741:0:0:0:0:
256,192,133741,128,0,133918:0:0:0:0:
358,192,133918,128,0,134094:0:0:0:0:
460,192,134094,128,0,134271:0:0:0:0:
153,192,134447,128,0,134800:0:0:0:0:
51,192,134800,128,0,135153:0:0:0:40:whistle.wav
256,192,134800,1,0,0:0:0:0:
358,192,134977,128,0,135153:0:0:0:0:
51,192,135330,128,0,135682:0:0:0:0:
358,192,135506,128,0,135682:0:0:0:0:
51,192,135859,128,0,136212:0:0:0:0:
358,192,136035,128,0,136212:0:0:0:0:
153,192,136212,1,0,0:0:0:40:whistle.wav
460,192,136212,1,0,0:0:0:0:
256,192,136388,128,0,136565:0:0:0:0:
358,192,136565,128,0,136741:0:0:0:0:
460,192,136741,128,0,136918:0:0:0:0:
358,192,136918,128,0,137094:0:0:0:40:whistle.wav
51,192,136918,1,0,0:0:0:0:
256,192,137094,128,0,137271:0:0:0:0:
153,192,137271,128,0,137447:0:0:0:0:
51,192,137447,128,0,137624:0:0:0:0:
153,192,137624,128,0,137800:0:0:0:40:whistle.wav
358,192,137624,1,0,0:0:0:0:
358,192,138153,128,0,138330:0:0:0:0:
460,192,138330,128,0,138682:0:0:0:0:
153,192,138682,128,0,139035:0:0:0:0:
51,192,138859,128,0,139035:0:0:0:0:
358,192,139035,128,0,139388:0:0:0:40:whistle.wav
460,192,139035,1,0,0:0:0:0:
51,192,139388,128,0,139741:0:0:0:0:
460,192,139741,128,0,140094:0:0:0:40:whistle.wav
256,192,139741,1,0,0:0:0:0:
358,192,140094,128,0,140447:0:0:0:0:
153,192,140271,128,0,140447:0:0:0:0:
51,192,140447,128,0,140800:0:0:0:40:whistle.wav
460,192,140447,1,0,0:0:0:0:
153,192,140800,128,0,141153:0:0:0:0:
256,192,141153,128,0,141330:0:0:0:0:
153,192,141506,128,0,141859:0:0:0:0:
460,192,141682,128,0,142035:0:0:0:0:
51,192,141859,128,0,142035:0:0:0:40:whistle.wav
256,192,141859,1,0,0:0:0:0:
153,192,142035,128,0,142388:0:0:0:0:
358,192,142212,128,0,142388:0:0:0:0:
460,192,142388,128,0,142741:0:0:0:0:
51,192,142565,128,0,142741:0:0:0:40:whistle.wav
256,192,142565,1,0,0:0:0:0:
153,192,142741,128,0,142918:0:0:0:0:
256,192,142918,128,0,143271:0:0:0:0:
51,192,143271,1,2,0:0:0:0:
460,192,143271,1,0,0:0:0:0:
51,192,143447,1,0,0:0:0:0:
153,192,143624,1,0,0:0:0:40:snare-alt.wav
460,192,143624,1,0,0:0:0:0:
358,192,143800,1,0,0:0:0:0:
51,192,143977,1,0,0:0:0:0:
256,192,144153,1,2,0:0:0:0:
460,192,144153,1,0,0:0:0:0:
51,192,144330,1,0,0:0:0:40:snare-alt.wav
358,192,144330,1,0,0:0:0:0:
256,192,144506,1,0,0:0:0:0:
153,192,144682,1,2,0:0:0:0:
460,192,144682,1,0,0:0:0:0:
460,192,144859,1,0,0:0:0:0:
51,192,145035,1,0,0:0:0:40:snare-alt.wav
358,192,145035,1,0,0:0:0:0:
256,192,145212,1,0,0:0:0:0:
153,192,145388,1,0,0:0:0:0:
256,192,145565,1,2,0:0:0:0:
460,192,145565,1,0,0:0:0:0:
51,192,145741,1,0,0:0:0:40:snare-alt.wav
358,192,145741,1,0,0:0:0:0:
256,192,145918,1,2,0:0:0:0:
460,192,145918,1,0,0:0:0:0:
51,192,146094,1,2,0:0:0:0:
460,192,146094,1,0,0:0:0:0:
51,192,146271,1,0,0:0:0:0:
153,192,146447,1,0,0:0:0:40:snare-alt.wav
358,192,146447,1,0,0:0:0:0:
460,192,146624,1,0,0:0:0:0:
256,192,146800,1,0,0:0:0:0:
51,192,146977,1,2,0:0:0:0:
358,192,146977,1,0,0:0:0:0:
153,192,147153,1,0,0:0:0:40:snare-alt.wav
460,192,147153,1,0,0:0:0:0:
51,192,147330,1,0,0:0:0:0:
256,192,147506,1,2,0:0:0:0:
460,192,147506,1,0,0:0:0:0:
460,192,147682,1,0,0:0:0:0:
256,192,147859,1,0,0:0:0:40:snare-alt.wav
51,192,147859,1,0,0:0:0:0:
358,192,148035,1,0,0:0:0:0:
460,192,148212,1,0,0:0:0:0:
51,192,148388,1,2,0:0:0:0:
256,192,148388,1,0,0:0:0:0:
153,192,148565,1,0,0:0:0:40:snare-alt.wav
460,192,148565,1,0,0:0:0:0:
358,192,148741,1,0,0:0:0:0:
256,192,148830,1,0,0:0:0:0:
153,192,148918,1,2,0:0:0:0:
460,192,148918,1,0,0:0:0:0:
460,192,149094,1,0,0:0:0:0:
256,192,149271,1,0,0:0:0:40:snare-alt.wav
51,192,149271,1,0,0:0:0:0:
358,192,149447,1,0,0:0:0:0:
153,192,149624,1,0,0:0:0:0:
256,192,149800,1,2,0:0:0:0:
460,192,149800,1,0,0:0:0:0:
51,192,149977,1,0,0:0:0:40:snare-alt.wav
358,192,149977,1,0,0:0:0:0:
153,192,150153,1,0,0:0:0:0:
256,192,150330,1,2,0:0:0:0:
460,192,150330,1,0,0:0:0:0:
51,192,150506,1,0,0:0:0:0:
153,192,150682,1,0,0:0:0:40:snare-alt.wav
358,192,150682,1,0,0:0:0:0:
460,192,150859,1,0,0:0:0:0:
256,192,151035,128,0,151741:0:0:0:40:whistle.wav
153,192,151212,128,0,151741:0:0:0:0:
460,192,151741,1,4,0:0:0:0:
51,192,151741,1,2,0:0:0:0:
358,192,151741,128,0,151918:0:0:0:0:
153,192,151918,128,0,152094:0:0:0:0:
51,192,152094,128,8,152271:0:0:0:0:
460,192,152094,1,0,0:0:0:0:
256,192,152094,1,0,0:0:0:0:
358,192,152271,128,0,152447:0:0:0:0:
256,192,152447,128,2,152624:0:0:0:0:
460,192,152447,1,0,0:0:0:0:
153,192,152624,128,0,152800:0:0:0:0:
358,192,152800,128,8,152977:0:0:0:0:
460,192,152800,1,0,0:0:0:0:
51,192,152800,1,0,0:0:0:0:
51,192,152977,128,0,153330:0:0:0:0:
358,192,153153,1,2,0:0:0:0:
153,192,153153,1,0,0:0:0:0:
460,192,153330,128,0,153506:0:0:0:0:
358,192,153506,128,8,153682:0:0:0:0:
153,192,153506,1,0,0:0:0:0:
51,192,153506,1,0,0:0:0:0:
256,192,153682,128,0,153859:0:0:0:0:
153,192,153859,128,2,154388:0:0:0:0:
460,192,153859,1,0,0:0:0:0:
256,192,154035,1,0,0:0:0:0:
358,192,154212,128,8,154388:0:0:0:0:
51,192,154212,1,0,0:0:0:0:
460,192,154212,1,0,0:0:0:0:
256,192,154388,1,0,0:0:0:0:
51,192,154565,128,2,154741:0:0:0:0:
153,192,154565,1,0,0:0:0:0:
256,192,154741,128,0,154918:0:0:0:0:
460,192,154918,128,8,155094:0:0:0:0:
358,192,154918,1,0,0:0:0:0:
51,192,154918,1,0,0:0:0:0:
153,192,155094,128,0,155447:0:0:0:0:
460,192,155271,128,2,155447:0:0:0:0:
51,192,155271,1,0,0:0:0:0:
256,192,155447,1,0,0:0:0:0:
358,192,155624,128,8,155977:0:0:0:0:
51,192,155624,1,0,0:0:0:0:
460,192,155624,1,0,0:0:0:0:
153,192,155800,128,0,155977:0:0:0:0:
460,192,155977,1,2,0:0:0:0:
51,192,155977,1,0,0:0:0:0:
358,192,156153,128,0,156330:0:0:0:0:
153,192,156330,128,8,156506:0:0:0:0:
256,192,156330,1,0,0:0:0:0:
51,192,156330,1,0,0:0:0:0:
460,192,156506,128,0,156682:0:0:0:0:
256,192,156682,128,2,156859:0:0:0:0:
358,192,156682,1,0,0:0:0:0:
51,192,156859,128,0,157035:0:0:0:0:
358,192,157035,128,8,157212:0:0:0:0:
460,192,157035,1,0,0:0:0:0:
256,192,157035,1,0,0:0:0:0:
153,192,157212,128,0,157388:0:0:0:0:
460,192,157388,128,2,157741:0:0:0:0:
51,192,157388,1,0,0:0:0:0:
256,192,157565,1,0,0:0:0:0:
358,192,157741,128,8,158271:0:0:0:0:
51,192,157741,1,0,0:0:0:0:
153,192,157741,1,0,0:0:0:0:
460,192,157918,1,0,0:0:0:0:
256,192,158094,128,2,158271:0:0:0:0:
51,192,158094,1,0,0:0:0:0:
153,192,158271,1,0,0:0:0:0:
460,192,158447,128,8,158800:0:0:0:0:
358,192,158447,1,0,0:0:0:0:
51,192,158447,1,0,0:0:0:0:
153,192,158624,1,0,0:0:0:0:
51,192,158800,128,2,159153:0:0:0:0:
256,192,158800,1,0,0:0:0:0:
358,192,158977,1,0,0:0:0:0:
153,192,159153,128,8,159682:0:0:0:0:
460,192,159153,1,0,0:0:0:0:
256,192,159153,1,0,0:0:0:0:
51,192,159330,1,0,0:0:0:0:
256,192,159506,128,2,159682:0:0:0:0:
460,192,159506,1,0,0:0:0:0:
358,192,159682,1,0,0:0:0:0:
153,192,159859,128,8,160212:0:0:0:0:
51,192,159859,1,0,0:0:0:0:
460,192,159859,1,0,0:0:0:0:
256,192,160035,1,0,0:0:0:0:
460,192,160212,1,2,0:0:0:0:
51,192,160212,128,0,160565:0:0:0:0:
256,192,160388,1,0,0:0:0:0:
358,192,160565,128,8,161094:0:0:0:0:
460,192,160565,1,0,0:0:0:0:
153,192,160565,1,0,0:0:0:0:
51,192,160741,1,0,0:0:0:0:
256,192,160918,128,2,161094:0:0:0:0:
460,192,160918,1,0,0:0:0:0:
153,192,161094,1,0,0:0:0:0:
460,192,161271,128,8,161800:0:0:0:0:
358,192,161271,1,0,0:0:0:0:
51,192,161271,1,0,0:0:0:0:
51,192,161447,128,0,161624:0:0:0:0:
358,192,161624,1,2,0:0:0:0:
153,192,161624,1,0,0:0:0:0:
51,192,161800,128,0,161977:0:0:0:0:
460,192,161977,128,8,162330:0:0:0:0:
256,192,161977,1,0,0:0:0:0:
153,192,161977,1,0,0:0:0:0:
51,192,162153,128,0,162506:0:0:0:0:
358,192,162330,1,2,0:0:0:0:
153,192,162330,1,0,0:0:0:0:
460,192,162506,1,8,0:0:0:0:
256,192,162506,128,0,162682:0:0:0:0:
51,192,162682,1,8,0:0:0:0:
153,192,162682,1,0,0:0:0:0:
358,192,162682,128,0,162859:0:0:0:0:
256,192,162859,1,8,0:0:0:0:
460,192,162859,1,0,0:0:0:0:
153,192,162947,1,8,0:0:0:0:
51,192,163035,1,4,0:0:0:0:
358,192,163035,1,2,0:0:0:0:
460,192,163035,128,0,163388:0:0:0:0:
256,192,163212,1,0,0:0:0:0:
358,192,163388,1,8,0:0:0:0:
153,192,163388,1,0,0:0:0:0:
51,192,163388,1,0,0:0:0:0:
51,192,163565,128,0,163741:0:0:0:0:
153,192,163741,128,2,163918:0:0:0:0:
460,192,163741,1,0,0:0:0:0:
256,192,163918,128,0,164094:0:0:0:0:
358,192,164094,1,8,0:0:0:0:
460,192,164094,1,0,0:0:0:0:
51,192,164094,1,0,0:0:0:0:
358,192,164271,128,0,164447:0:0:0:0:
460,192,164447,128,2,164624:0:0:0:0:
51,192,164447,1,0,0:0:0:0:
256,192,164624,128,0,164800:0:0:0:0:
51,192,164800,128,8,165153:0:0:0:0:
358,192,164800,1,0,0:0:0:0:
153,192,164800,1,0,0:0:0:0:
460,192,164977,128,0,165153:0:0:0:0:
358,192,165153,1,2,0:0:0:0:
153,192,165153,1,0,0:0:0:0:
256,192,165330,128,0,165859:0:0:0:0:
153,192,165506,128,8,165859:0:0:0:0:
358,192,165506,1,0,0:0:0:0:
460,192,165506,1,0,0:0:0:0:
51,192,165682,128,0,165859:0:0:0:0:
460,192,165859,1,2,0:0:0:0:
358,192,165859,1,0,0:0:0:0:
51,192,166035,128,0,166565:0:0:0:0:
256,192,166212,128,8,166565:0:0:0:0:
153,192,166212,1,0,0:0:0:0:
358,192,166212,1,0,0:0:0:0:
460,192,166388,128,0,166565:0:0:0:0:
358,192,166565,1,2,0:0:0:0:
153,192,166565,1,0,0:0:0:0:
460,192,166741,128,0,166918:0:0:0:0:
51,192,166918,128,8,167094:0:0:0:0:
358,192,166918,1,0,0:0:0:0:
256,192,166918,1,0,0:0:0:0:
460,192,167094,128,0,167447:0:0:0:0:
51,192,167271,128,2,167447:0:0:0:0:
256,192,167271,1,0,0:0:0:0:
153,192,167447,128,0,167800:0:0:0:0:
358,192,167624,128,8,167800:0:0:0:0:
460,192,167624,1,0,0:0:0:0:
51,192,167624,1,0,0:0:0:0:
256,192,167800,1,0,0:0:0:0:
460,192,167977,1,2,0:0:0:0:
358,192,167977,128,0,168153:0:0:0:0:
153,192,168153,128,0,168330:0:0:0:0:
256,192,168330,128,8,168506:0:0:0:0:
460,192,168330,1,0,0:0:0:0:
51,192,168330,1,0,0:0:0:0:
358,192,168506,128,0,168682:0:0:0:0:
460,192,168682,128,2,169035:0:0:0:0:
153,192,168682,1,0,0:0:0:0:
256,192,168859,1,0,0:0:0:0:
358,192,169035,128,8,169388:0:0:0:0:
153,192,169035,1,0,0:0:0:0:
51,192,169035,1,0,0:0:0:0:
460,192,169212,1,0,0:0:0:0:
256,192,169388,128,2,169741:0:0:0:0:
51,192,169388,1,0,0:0:0:0:
358,192,169565,1,0,0:0:0:0:
51,192,169741,128,8,170094:0:0:0:0:
460,192,169741,1,0,0:0:0:0:
153,192,169741,1,0,0:0:0:0:
256,192,169918,1,0,0:0:0:0:
153,192,170094,128,2,170447:0:0:0:0:
460,192,170094,1,0,0:0:0:0:
358,192,170271,1,0,0:0:0:0:
256,192,170447,128,8,170800:0:0:0:0:
460,192,170447,1,0,0:0:0:0:
51,192,170447,1,0,0:0:0:0:
153,192,170624,1,0,0:0:0:0:
460,192,170800,128,2,171153:0:0:0:0:
51,192,170800,1,0,0:0:0:0:
256,192,170977,1,0,0:0:0:0:
51,192,171153,1,8,0:0:0:0:
358,192,171153,1,0,0:0:0:0:
153,192,171153,1,0,0:0:0:0:
51,192,171506,1,2,0:0:0:0:
153,192,171506,1,4,0:0:0:0:
460,192,171506,128,0,171859:0:0:0:0:
358,192,171859,128,8,172565:0:0:0:0:
51,192,171859,1,0,0:0:0:0:
153,192,171859,1,0,0:0:0:0:
460,192,172035,128,0,172565:0:0:0:0:
51,192,172212,1,2,0:0:0:0:
256,192,172212,1,0,0:0:0:0:
153,192,172388,1,0,0:0:0:0:
51,192,172565,1,8,0:0:0:0:
256,192,172565,1,0,0:0:0:0:
358,192,172741,1,0,0:0:0:0:
153,192,172918,128,2,173271:0:0:0:0:
460,192,172918,1,0,0:0:0:0:
256,192,173094,1,0,0:0:0:0:
51,192,173271,128,8,173800:0:0:0:0:
358,192,173271,1,0,0:0:0:0:
460,192,173271,1,0,0:0:0:0:
153,192,173447,128,0,173800:0:0:0:0:
256,192,173624,1,2,0:0:0:0:
358,192,173624,1,0,0:0:0:0:
460,192,173800,128,0,173977:0:0:0:0:
256,192,173977,128,8,174153:0:0:0:0:
153,192,173977,1,0,0:0:0:0:
358,192,173977,1,0,0:0:0:0:
51,192,174153,128,0,174330:0:0:0:0:
358,192,174330,128,2,174682:0:0:0:0:
153,192,174330,1,0,0:0:0:0:
256,192,174506,1,0,0:0:0:0:
460,192,174682,128,8,175388:0:0:0:0:
153,192,174682,1,0,0:0:0:0:
51,192,174682,1,0,0:0:0:0:
358,192,174859,128,0,175388:0:0:0:0:
256,192,175035,1,2,0:0:0:0:
51,192,175035,1,0,0:0:0:0:
153,192,175212,1,0,0:0:0:0:
51,192,175388,1,8,0:0:0:0:
256,192,175388,1,0,0:0:0:0:
358,192,175565,1,0,0:0:0:0:
51,192,175741,128,2,176094:0:0:0:0:
460,192,175741,1,0,0:0:0:0:
256,192,175918,1,0,0:0:0:0:
153,192,176094,128,8,176624:0:0:0:0:
460,192,176094,1,0,0:0:0:0:
358,192,176094,1,0,0:0:0:0:
51,192,176271,128,0,176624:0:0:0:0:
460,192,176447,1,2,0:0:0:0:
256,192,176447,1,0,0:0:0:0:
358,192,176624,128,0,176800:0:0:0:0:
256,192,176800,128,8,176977:0:0:0:0:
51,192,176800,1,0,0:0:0:0:
460,192,176800,1,0,0:0:0:0:
153,192,176977,128,0,177153:0:0:0:0:
51,192,177153,128,2,177506:0:0:0:0:
256,192,177153,1,0,0:0:0:0:
358,192,177330,1,0,0:0:0:0:
153,192,177506,128,8,178212:0:0:0:0:
460,192,177506,1,0,0:0:0:0:
256,192,177506,1,0,0:0:0:0:
51,192,177682,128,0,178212:0:0:0:0:
358,192,177859,1,2,0:0:0:0:
460,192,177859,1,0,0:0:0:0:
256,192,178035,1,0,0:0:0:0:
358,192,178212,1,8,0:0:0:0:
460,192,178212,1,0,0:0:0:0:
256,192,178388,1,0,0:0:0:0:
358,192,178565,128,2,178918:0:0:0:0:
51,192,178565,1,0,0:0:0:0:
153,192,178741,1,0,0:0:0:0:
460,192,178918,128,8,179447:0:0:0:0:
51,192,178918,1,0,0:0:0:0:
256,192,178918,1,0,0:0:0:0:
358,192,179094,128,0,179447:0:0:0:0:
51,192,179271,1,2,0:0:0:0:
256,192,179271,1,0,0:0:0:0:
153,192,179447,128,0,179624:0:0:0:0:
256,192,179624,128,8,179800:0:0:0:0:
460,192,179624,1,0,0:0:0:0:
51,192,179624,1,0,0:0:0:0:
358,192,179800,128,0,179977:0:0:0:0:
51,192,179977,128,2,180153:0:0:0:0:
460,192,179977,1,0,0:0:0:0:
153,192,180153,128,0,180330:0:0:0:0:
460,192,180330,128,8,180682:0:0:0:0:
256,192,180330,1,0,0:0:0:0:
358,192,180330,1,0,0:0:0:0:
51,192,180506,128,0,180682:0:0:0:0:
153,192,180682,128,2,180859:0:0:0:0:
358,192,180682,1,0,0:0:0:0:
256,192,180859,128,0,181035:0:0:0:0:
358,192,181035,128,8,181388:0:0:0:0:
51,192,181035,1,0,0:0:0:0:
460,192,181035,1,0,0:0:0:0:
153,192,181212,128,0,181388:0:0:0:0:
51,192,181388,128,2,181741:0:0:0:0:
256,192,181388,1,0,0:0:0:0:
358,192,181565,1,0,0:0:0:0:
460,192,181741,128,8,181918:0:0:0:0:
153,192,181741,1,0,0:0:0:0:
256,192,181741,1,0,0:0:0:0:
51,192,181918,128,0,182800:0:0:0:0:
256,192,182094,1,2,0:0:0:0:
460,192,182094,1,0,0:0:0:0:
358,192,182271,128,0,182447:0:0:0:0:
460,192,182447,128,8,182624:0:0:0:0:
153,192,182447,1,0,0:0:0:0:
256,192,182447,1,0,0:0:0:0:
358,192,182624,128,0,182800:0:0:0:0:
460,192,182800,128,2,183153:0:0:0:0:
153,192,182800,1,0,0:0:0:0:
51,192,182977,128,0,183153:0:0:0:0:
153,192,183153,1,8,0:0:0:0:
256,192,183153,1,0,0:0:0:0:
358,192,183153,1,0,0:0:0:0:
51,192,183330,128,0,183506:0:0:0:0:
153,192,183506,128,2,183859:0:0:0:0:
460,192,183506,1,0,0:0:0:0:
358,192,183682,128,0,183859:0:0:0:0:
460,192,183859,1,8,0:0:0:0:
256,192,183859,1,0,0:0:0:0:
51,192,183859,1,0,0:0:0:0:
153,192,184035,128,0,184212:0:0:0:0:
51,192,184212,128,2,184388:0:0:0:0:
358,192,184212,1,0,0:0:0:0:
153,192,184388,128,0,184565:0:0:0:0:
460,192,184565,128,8,184918:0:0:0:0:
256,192,184565,1,0,0:0:0:0:
358,192,184565,1,0,0:0:0:0:
51,192,184741,128,0,184918:0:0:0:0:
256,192,184918,1,2,0:0:0:0:
358,192,184918,1,0,0:0:0:0:
153,192,185094,128,0,185271:0:0:0:0:
51,192,185271,128,8,185624:0:0:0:0:
358,192,185271,1,0,0:0:0:0:
460,192,185271,1,0,0:0:0:0:
153,192,185447,128,0,185624:0:0:0:0:
256,192,185624,1,2,0:0:0:0:
460,192,185624,1,0,0:0:0:0:
358,192,185800,128,0,185977:0:0:0:0:
460,192,185977,128,8,186330:0:0:0:0:
153,192,185977,1,0,0:0:0:0:
51,192,185977,1,0,0:0:0:0:
358,192,186153,128,0,186330:0:0:0:0:
51,192,186330,1,2,0:0:0:0:
256,192,186330,1,0,0:0:0:0:
153,192,186506,128,0,186682:0:0:0:0:
358,192,186506,128,0,186682:0:0:0:0:
51,192,186682,128,8,186859:0:0:0:0:
460,192,186682,128,0,186859:0:0:0:0:
256,192,186682,1,0,0:0:0:0:
358,192,186859,128,0,187035:0:0:0:0:
153,192,186859,128,0,187035:0:0:0:0:
256,192,187035,1,2,0:0:0:0:
153,192,187212,128,0,187388:0:0:0:0:
358,192,187212,128,0,187388:0:0:0:0:
51,192,187388,128,8,187565:0:0:0:0:
460,192,187388,128,0,187565:0:0:0:0:
256,192,187388,1,0,0:0:0:0:
51,192,187741,1,2,0:0:0:0:
358,192,187741,1,0,0:0:0:0:
256,192,187918,1,0,0:0:0:0:
153,192,188094,1,8,0:0:0:0:
460,192,188094,1,0,0:0:0:0:
51,192,188094,1,0,0:0:0:0:
358,192,188271,1,0,0:0:0:0:
460,192,188447,1,2,0:0:0:0:
51,192,188447,128,0,188800:0:0:0:0:
256,192,188624,1,0,0:0:0:0:
153,192,188800,128,8,189153:0:0:0:0:
358,192,188800,1,0,0:0:0:0:
460,192,188800,1,0,0:0:0:0:
51,192,188977,1,0,0:0:0:0:
256,192,189153,128,2,189506:0:0:0:0:
460,192,189153,1,0,0:0:0:0:
153,192,189330,1,0,0:0:0:0:
358,192,189506,128,8,189859:0:0:0:0:
51,192,189506,1,0,0:0:0:0:
460,192,189506,1,0,0:0:0:0:
153,192,189682,1,0,0:0:0:0:
460,192,189859,128,2,190212:0:0:0:0:
51,192,189859,1,0,0:0:0:0:
256,192,190035,1,0,0:0:0:0:
51,192,190212,128,8,190565:0:0:0:0:
358,192,190212,1,0,0:0:0:0:
153,192,190212,1,0,0:0:0:0:
256,192,190388,1,0,0:0:0:0:
460,192,190565,128,2,190918:0:0:0:0:
153,192,190565,1,0,0:0:0:0:
358,192,190741,1,0,0:0:0:0:
256,192,190918,128,8,191271:0:0:0:0:
51,192,191271,1,2,0:0:0:0:
153,192,191271,1,4,0:0:0:0:
460,192,191271,1,0,0:0:0:0:
256,192,191535,1,0,0:0:0:0:
358,192,191535,1,0,0:0:0:0:
153,192,191624,1,8,0:0:0:0:
51,192,191624,1,0,0:0:0:0:
460,192,191624,1,0,0:0:0:0:
256,192,191800,1,0,0:0:0:0:
358,192,191800,1,0,0:0:0:0:
51,192,191977,1,2,0:0:0:0:
153,192,191977,1,0,0:0:0:0:
358,192,192153,1,0,0:0:0:70:snare-alt.wav
460,192,192153,1,0,0:0:0:0:
51,192,192330,1,8,0:0:0:0:
256,192,192330,1,0,0:0:0:0:
153,192,192330,1,0,0:0:0:0:
358,192,192506,1,0,0:0:0:70:snare-alt.wav
460,192,192506,1,0,0:0:0:0:
153,192,192682,1,2,0:0:0:0:
51,192,192682,1,0,0:0:0:0:
256,192,192947,1,0,0:0:0:0:
460,192,192947,1,0,0:0:0:0:
358,192,193035,1,8,0:0:0:0:
51,192,193035,1,0,0:0:0:0:
153,192,193035,1,0,0:0:0:0:
256,192,193212,1,0,0:0:0:0:
460,192,193212,1,0,0:0:0:0:
153,192,193388,1,2,0:0:0:0:
358,192,193388,1,0,0:0:0:0:
51,192,193565,1,0,0:0:0:70:snare-alt.wav
256,192,193565,1,0,0:0:0:0:
358,192,193741,1,8,0:0:0:0:
153,192,193741,1,0,0:0:0:0:
460,192,193741,1,0,0:0:0:0:
51,192,193918,1,0,0:0:0:70:snare-alt.wav
256,192,193918,1,0,0:0:0:0:
153,192,194094,1,2,0:0:0:0:
358,192,194094,1,0,0:0:0:0:
358,192,194359,1,0,0:0:0:0:
153,192,194359,1,0,0:0:0:0:
51,192,194447,1,8,0:0:0:0:
460,192,194447,1,0,0:0:0:0:
256,192,194447,1,0,0:0:0:0:
153,192,194624,1,0,0:0:0:0:
358,192,194624,1,0,0:0:0:0:
51,192,194800,1,2,0:0:0:0:
256,192,194800,1,0,0:0:0:0:
153,192,194977,1,0,0:0:0:70:snare-alt.wav
460,192,194977,1,0,0:0:0:0:
358,192,195153,1,8,0:0:0:0:
256,192,195153,1,0,0:0:0:0:
51,192,195153,1,0,0:0:0:0:
460,192,195330,1,0,0:0:0:70:snare-alt.wav
153,192,195330,1,0,0:0:0:0:
358,192,195506,1,2,0:0:0:0:
256,192,195506,1,0,0:0:0:0:
51,192,195771,1,0,0:0:0:0:
153,192,195771,1,0,0:0:0:0:
256,192,195859,1,8,0:0:0:0:
358,192,195859,1,0,0:0:0:0:
460,192,195859,1,0,0:0:0:0:
51,192,196035,1,0,0:0:0:0:
153,192,196035,1,0,0:0:0:0:
256,192,196212,1,2,0:0:0:0:
460,192,196212,1,0,0:0:0:0:
358,192,196388,1,0,0:0:0:70:snare-alt.wav
51,192,196388,1,0,0:0:0:0:
256,192,196565,1,8,0:0:0:0:
460,192,196565,1,0,0:0:0:0:
153,192,196565,1,0,0:0:0:0:
51,192,196741,1,0,0:0:0:70:snare-alt.wav
358,192,196741,1,0,0:0:0:0:
256,192,196918,1,2,0:0:0:0:
460,192,196918,1,0,0:0:0:0:
51,192,197182,1,0,0:0:0:0:
358,192,197182,1,0,0:0:0:0:
153,192,197271,1,8,0:0:0:0:
256,192,197271,1,0,0:0:0:0:
460,192,197271,1,0,0:0:0:0:
358,192,197447,1,0,0:0:0:0:
51,192,197447,1,0,0:0:0:0:
256,192,197624,1,2,0:0:0:0:
460,192,197624,1,0,0:0:0:0:
358,192,197800,1,0,0:0:0:70:snare-alt.wav
153,192,197800,1,0,0:0:0:0:
256,192,197977,1,8,0:0:0:0:
51,192,197977,1,0,0:0:0:0:
460,192,197977,1,0,0:0:0:0:
358,192,198153,1,0,0:0:0:70:snare-alt.wav
153,192,198153,1,0,0:0:0:0:
51,192,198330,1,2,0:0:0:0:
460,192,198330,1,0,0:0:0:0:
153,192,198594,1,0,0:0:0:0:
358,192,198594,1,0,0:0:0:0:
51,192,198682,1,8,0:0:0:0:
256,192,198682,1,0,0:0:0:0:
460,192,198682,1,0,0:0:0:0:
153,192,198859,1,0,0:0:0:0:
358,192,198859,1,0,0:0:0:0:
51,192,199035,1,2,0:0:0:0:
256,192,199035,1,0,0:0:0:0:
358,192,199212,1,0,0:0:0:70:snare-alt.wav
460,192,199212,1,0,0:0:0:0:
256,192,199388,1,8,0:0:0:0:
153,192,199388,1,0,0:0:0:0:
51,192,199388,1,0,0:0:0:0:
358,192,199565,1,0,0:0:0:70:snare-alt.wav
460,192,199565,1,0,0:0:0:0:
153,192,199741,1,0,0:0:0:0:
51,192,199741,1,0,0:0:0:0:
153,192,200006,1,0,0:0:0:0:
153,192,200271,1,0,0:0:0:0:
358,192,200447,128,0,200624:0:0:0:0:
153,192,200624,128,0,200800:0:0:0:40:tick.wav
51,192,200624,1,0,0:0:0:0:
256,192,200800,128,0,200977:0:0:0:40:tick.wav
460,192,200800,1,0,0:0:0:0:
358,192,200977,128,0,201153:0:0:0:40:tick.wav
51,192,200977,1,0,0:0:0:0:
460,192,201153,1,0,0:0:0:40:tick.wav
153,192,201153,1,0,0:0:0:0:
460,192,201418,1,0,0:0:0:0:
460,192,201682,1,0,0:0:0:40:tick.wav
256,192,201682,1,0,0:0:0:0:
51,192,201859,1,0,0:0:0:40:tick.wav
358,192,201859,128,0,202035:0:0:0:0:
256,192,202035,128,0,202212:0:0:0:40:tick.wav
51,192,202212,1,0,0:0:0:40:tick.wav
153,192,202212,128,0,202388:0:0:0:0:
460,192,202388,1,0,0:0:0:40:tick.wav
358,192,202388,128,0,202565:0:0:0:0:
256,192,202565,1,2,0:0:0:0:
51,192,202565,128,0,202741:0:0:0:40:tick.wav
153,192,202565,128,0,202741:0:0:0:0:
