osu file format v14

[General]
AudioFilename: audio.mp3
AudioLeadIn: 0
PreviewTime: 131081
Countdown: 0
SampleSet: Soft
StackLeniency: 0.7
Mode: 3
LetterboxInBreaks: 0
SpecialStyle: 0
WidescreenStoryboard: 1

[Editor]
DistanceSpacing: 0.3
BeatDivisor: 2
GridSize: 32
TimelineZoom: 1.8

[Metadata]
Title:Kaibutsu
TitleUnicode:怪物
Artist:YOASOBI
ArtistUnicode:YOASOBI
Creator:Kuo Kyoka
Version:Shortthu's Easy
Source:BEASTARS
Tags:ビースターズ 幾田りら アニメ 2期 2nd Second Season Ikura Ikuta Rira Lilas Ayase Monster Japanese Anime J-Pop JPOP Opening Furry Akasha Shortthu Critical_Star
BeatmapID:2944886
BeatmapSetID:1430064

[Difficulty]
HPDrainRate:6.5
CircleSize:4
OverallDifficulty:6.5
ApproachRate:5
SliderMultiplier:1.4
SliderTickRate:1

[Events]
//Background and Video events
0,0,"88257528_p0.jpg",0,0
//Break Periods
//Storyboard Layer 0 (Background)
//Storyboard Layer 1 (Fail)
//Storyboard Layer 2 (Pass)
//Storyboard Layer 3 (Foreground)
//Storyboard Layer 4 (Overlay)
//Storyboard Sound Samples
Sample,13552,0,"snap.wav",60
Sample,14258,0,"bass.wav",60
Sample,14963,0,"snap.wav",60
Sample,15669,0,"bass.wav",60
Sample,16375,0,"bass.wav",60
Sample,17081,0,"bass.wav",60
Sample,17787,0,"bass.wav",60
Sample,18493,0,"bass.wav",60
Sample,19199,0,"bass.wav",60
Sample,19905,0,"bass.wav",60
Sample,20610,0,"bass.wav",60
Sample,21316,0,"bass.wav",60
Sample,22022,0,"bass.wav",60
Sample,22728,0,"bass.wav",60
Sample,23434,0,"bass.wav",60
Sample,24140,0,"bass.wav",60
Sample,25022,0,"clap.wav",60
Sample,27846,0,"clap.wav",60
Sample,30493,0,"bass.wav",60
Sample,31199,0,"bass.wav",60
Sample,31905,0,"bass.wav",60
Sample,32610,0,"bass.wav",60
Sample,33316,0,"bass.wav",60
Sample,34022,0,"bass.wav",60
Sample,35963,0,"hihat.wav",40
Sample,36316,0,"hihat.wav",40
Sample,36669,0,"hihat.wav",40
Sample,37022,0,"hihat.wav",40
Sample,37375,0,"hihat.wav",40
Sample,37728,0,"hihat.wav",40
Sample,38081,0,"hihat.wav",40
Sample,38434,0,"hihat.wav",40
Sample,38787,0,"hihat.wav",40
Sample,39140,0,"hihat.wav",40
Sample,39493,0,"hihat.wav",40
Sample,39846,0,"hihat.wav",40
Sample,40199,0,"hihat.wav",40
Sample,40552,0,"hihat.wav",40
Sample,40905,0,"hihat.wav",40
Sample,41258,0,"hihat.wav",40
Sample,41610,0,"hihat.wav",40
Sample,41963,0,"hihat.wav",40
Sample,42316,0,"hihat.wav",40
Sample,42669,0,"hihat.wav",40
Sample,43022,0,"hihat.wav",40
Sample,43375,0,"hihat.wav",40
Sample,43728,0,"hihat.wav",40
Sample,44081,0,"hihat.wav",40
Sample,44434,0,"hihat.wav",40
Sample,44787,0,"hihat.wav",40
Sample,45140,0,"hihat.wav",40
Sample,45493,0,"hihat.wav",40
Sample,45846,0,"hihat.wav",40
Sample,46199,0,"hihat.wav",40
Sample,46552,0,"hihat.wav",40
Sample,46905,0,"hihat.wav",40
Sample,47258,0,"hihat.wav",40
Sample,47610,0,"hihat.wav",40
Sample,47963,0,"hihat.wav",40
Sample,48316,0,"hihat.wav",40
Sample,48669,0,"hihat.wav",40
Sample,49022,0,"hihat.wav",40
Sample,49375,0,"hihat.wav",40
Sample,49728,0,"hihat.wav",40
Sample,50081,0,"hihat.wav",40
Sample,50434,0,"hihat.wav",40
Sample,50787,0,"hihat.wav",40
Sample,51140,0,"hihat.wav",40
Sample,51493,0,"hihat.wav",40
Sample,51846,0,"hihat.wav",40
Sample,52199,0,"hihat.wav",40
Sample,52552,0,"hihat.wav",40
Sample,52905,0,"hihat.wav",40
Sample,53258,0,"hihat.wav",40
Sample,53610,0,"hihat.wav",40
Sample,53963,0,"hihat.wav",40
Sample,54316,0,"hihat.wav",40
Sample,54669,0,"hihat.wav",40
Sample,55022,0,"hihat.wav",40
Sample,55728,0,"hihat.wav",40
Sample,56081,0,"hihat.wav",40
Sample,56434,0,"hihat.wav",40
Sample,56787,0,"hihat.wav",40
Sample,57140,0,"hihat.wav",40
Sample,57493,0,"hihat.wav",40
Sample,57846,0,"hihat.wav",40
Sample,58199,0,"hihat.wav",40
Sample,58552,0,"hihat.wav",40
Sample,58905,0,"hihat.wav",40
Sample,59258,0,"hihat.wav",40
Sample,59610,0,"hihat.wav",40
Sample,59963,0,"hihat.wav",40
Sample,60316,0,"hihat.wav",40
Sample,60669,0,"hihat.wav",40
Sample,61022,0,"hihat.wav",40
Sample,61375,0,"hihat.wav",40
Sample,61728,0,"hihat.wav",40
Sample,62081,0,"hihat.wav",40
Sample,62434,0,"hihat.wav",40
Sample,62787,0,"hihat.wav",40
Sample,63140,0,"hihat.wav",40
Sample,63493,0,"hihat.wav",40
Sample,63846,0,"hihat.wav",40
Sample,64199,0,"hihat.wav",40
Sample,64552,0,"hihat.wav",40
Sample,64905,0,"hihat.wav",40
Sample,65258,0,"hihat.wav",40
Sample,65610,0,"hihat.wav",40
Sample,65963,0,"hihat.wav",40
Sample,66316,0,"hihat.wav",40
Sample,66669,0,"hihat.wav",40
Sample,67022,0,"hihat.wav",40
Sample,67375,0,"hihat.wav",40
Sample,67728,0,"hihat.wav",40
Sample,68081,0,"hihat.wav",40
Sample,68434,0,"hihat.wav",40
Sample,68787,0,"hihat.wav",40
Sample,69140,0,"hihat.wav",40
Sample,69493,0,"hihat.wav",40
Sample,69846,0,"hihat.wav",40
Sample,70199,0,"hihat.wav",40
Sample,70552,0,"hihat.wav",40
Sample,70905,0,"hihat.wav",40
Sample,71258,0,"hihat.wav",40
Sample,71610,0,"hihat.wav",40
Sample,71963,0,"hihat.wav",40
Sample,72316,0,"hihat.wav",40
Sample,72669,0,"hihat.wav",40
Sample,73022,0,"hihat.wav",40
Sample,73375,0,"hihat.wav",40
Sample,73728,0,"hihat.wav",40
Sample,74081,0,"hihat.wav",40
Sample,74434,0,"hihat.wav",40
Sample,74787,0,"hihat.wav",40
Sample,75140,0,"hihat.wav",40
Sample,75493,0,"hihat.wav",40
Sample,75846,0,"hihat.wav",40
Sample,76199,0,"hihat.wav",40
Sample,76552,0,"hihat.wav",40
Sample,76905,0,"hihat.wav",40
Sample,77258,0,"hihat.wav",40
Sample,77610,0,"hihat.wav",40
Sample,77963,0,"hihat.wav",40
Sample,78316,0,"hihat.wav",40
Sample,78669,0,"hihat.wav",40
Sample,79022,0,"hihat.wav",40
Sample,79375,0,"hihat.wav",40
Sample,79728,0,"hihat.wav",40
Sample,80081,0,"hihat.wav",40
Sample,80434,0,"hihat.wav",40
Sample,80787,0,"hihat.wav",40
Sample,81140,0,"hihat.wav",40
Sample,81493,0,"hihat.wav",40
Sample,81846,0,"hihat.wav",40
Sample,82199,0,"hihat.wav",40
Sample,82552,0,"hihat.wav",40
Sample,82905,0,"hihat.wav",40
Sample,83258,0,"hihat.wav",40
Sample,83610,0,"hihat.wav",40
Sample,83963,0,"hihat.wav",40
Sample,84316,0,"hihat.wav",40
Sample,84669,0,"hihat.wav",40
Sample,85022,0,"hihat.wav",40
Sample,85375,0,"hihat.wav",40
Sample,85728,0,"hihat.wav",40
Sample,86081,0,"hihat.wav",40
Sample,86434,0,"hihat.wav",40
Sample,92610,0,"clap.wav",60
Sample,93316,0,"bass.wav",60
Sample,94022,0,"bass.wav",60
Sample,94728,0,"bass.wav",60
Sample,95434,0,"clap.wav",60
Sample,95434,0,"bass.wav",60
Sample,96140,0,"bass.wav",60
Sample,96846,0,"clap.wav",60
Sample,120669,0,"hihat.wav",40
Sample,121022,0,"hihat.wav",40
Sample,121375,0,"hihat.wav",40
Sample,121728,0,"hihat.wav",40
Sample,122081,0,"hihat.wav",40
Sample,122434,0,"hihat.wav",40
Sample,122787,0,"hihat.wav",40
Sample,123140,0,"hihat.wav",40
Sample,123493,0,"hihat.wav",40
Sample,123846,0,"hihat.wav",40
Sample,124199,0,"hihat.wav",40
Sample,124552,0,"hihat.wav",40
Sample,124905,0,"hihat.wav",40
Sample,125258,0,"hihat.wav",40
Sample,125610,0,"hihat.wav",40
Sample,125963,0,"hihat.wav",40
Sample,126316,0,"hihat.wav",40
Sample,126669,0,"hihat.wav",40
Sample,127022,0,"hihat.wav",40
Sample,127375,0,"hihat.wav",40
Sample,127728,0,"hihat.wav",40
Sample,128081,0,"hihat.wav",40
Sample,128434,0,"hihat.wav",40
Sample,128787,0,"hihat.wav",40
Sample,129140,0,"hihat.wav",40
Sample,129493,0,"hihat.wav",40
Sample,129846,0,"hihat.wav",40
Sample,130199,0,"hihat.wav",40
Sample,143787,0,"hihat.wav",50
Sample,144493,0,"hihat.wav",50
Sample,145199,0,"hihat.wav",50
Sample,145905,0,"hihat.wav",50
Sample,146610,0,"hihat.wav",50
Sample,147316,0,"hihat.wav",50
Sample,148022,0,"hihat.wav",50
Sample,149434,0,"hihat.wav",50
Sample,150140,0,"hihat.wav",50
Sample,151728,0,"hihat.wav",40
Sample,152081,0,"hihat.wav",40
Sample,152434,0,"hihat.wav",40
Sample,152787,0,"hihat.wav",40
Sample,153140,0,"hihat.wav",40
Sample,153493,0,"hihat.wav",40
Sample,153846,0,"hihat.wav",40
Sample,154199,0,"hihat.wav",40
Sample,154552,0,"hihat.wav",40
Sample,154905,0,"hihat.wav",40
Sample,155258,0,"hihat.wav",40
Sample,155610,0,"hihat.wav",40
Sample,155963,0,"hihat.wav",40
Sample,156316,0,"hihat.wav",40
Sample,156669,0,"hihat.wav",40
Sample,157022,0,"hihat.wav",40
Sample,157375,0,"hihat.wav",40
Sample,157728,0,"hihat.wav",40
Sample,158081,0,"hihat.wav",40
Sample,158434,0,"hihat.wav",40
Sample,158787,0,"hihat.wav",40
Sample,159140,0,"hihat.wav",40
Sample,159493,0,"hihat.wav",40
Sample,159846,0,"hihat.wav",40
Sample,160199,0,"hihat.wav",40
Sample,160552,0,"hihat.wav",40
Sample,160905,0,"hihat.wav",40
Sample,161258,0,"hihat.wav",40
Sample,161610,0,"hihat.wav",40
Sample,161963,0,"hihat.wav",40
Sample,162316,0,"hihat.wav",40
Sample,162669,0,"hihat.wav",40
Sample,163022,0,"hihat.wav",40
Sample,163375,0,"hihat.wav",40
Sample,163728,0,"hihat.wav",40
Sample,164081,0,"hihat.wav",40
Sample,164434,0,"hihat.wav",40
Sample,164787,0,"hihat.wav",40
Sample,165140,0,"hihat.wav",40
Sample,165493,0,"hihat.wav",40
Sample,165846,0,"hihat.wav",40
Sample,166199,0,"hihat.wav",40
Sample,166552,0,"hihat.wav",40
Sample,166905,0,"hihat.wav",40
Sample,167258,0,"hihat.wav",40
Sample,167610,0,"hihat.wav",40
Sample,167963,0,"hihat.wav",40
Sample,168316,0,"hihat.wav",40
Sample,168669,0,"hihat.wav",40
Sample,169022,0,"hihat.wav",40
Sample,169375,0,"hihat.wav",40
Sample,169728,0,"hihat.wav",40
Sample,170081,0,"hihat.wav",40
Sample,170434,0,"hihat.wav",40
Sample,170787,0,"hihat.wav",40
Sample,171140,0,"hihat.wav",40
Sample,171493,0,"hihat.wav",40
Sample,171846,0,"hihat.wav",40
Sample,172199,0,"hihat.wav",40
Sample,172552,0,"hihat.wav",40
Sample,172905,0,"hihat.wav",40
Sample,173258,0,"hihat.wav",40
Sample,173610,0,"hihat.wav",40
Sample,173963,0,"hihat.wav",40
Sample,174316,0,"hihat.wav",40
Sample,174669,0,"hihat.wav",40
Sample,175022,0,"hihat.wav",40
Sample,175375,0,"hihat.wav",40
Sample,175728,0,"hihat.wav",40
Sample,176081,0,"hihat.wav",40
Sample,176434,0,"hihat.wav",40
Sample,176787,0,"hihat.wav",40
Sample,177140,0,"hihat.wav",40
Sample,177493,0,"hihat.wav",40
Sample,177846,0,"hihat.wav",40
Sample,178199,0,"hihat.wav",40
Sample,178552,0,"hihat.wav",40
Sample,178905,0,"hihat.wav",40
Sample,179258,0,"hihat.wav",40
Sample,179610,0,"hihat.wav",40
Sample,179963,0,"hihat.wav",40
Sample,180316,0,"hihat.wav",40
Sample,180669,0,"hihat.wav",40
Sample,181022,0,"hihat.wav",40
Sample,181375,0,"hihat.wav",40
Sample,182081,0,"hihat.wav",40
Sample,182434,0,"hihat.wav",40
Sample,182787,0,"hihat.wav",40
Sample,183140,0,"hihat.wav",40
Sample,183493,0,"hihat.wav",40
Sample,183846,0,"hihat.wav",40
Sample,184199,0,"hihat.wav",40
Sample,184552,0,"hihat.wav",40
Sample,184905,0,"hihat.wav",40
Sample,185258,0,"hihat.wav",40
Sample,185610,0,"hihat.wav",40
Sample,185963,0,"hihat.wav",40
Sample,186316,0,"hihat.wav",40
Sample,186669,0,"hihat.wav",40
Sample,187022,0,"hihat.wav",40
Sample,187375,0,"hihat.wav",40
Sample,187728,0,"hihat.wav",40
Sample,188081,0,"hihat.wav",40
Sample,188434,0,"hihat.wav",40
Sample,188787,0,"hihat.wav",40
Sample,189140,0,"hihat.wav",40
Sample,189493,0,"hihat.wav",40
Sample,189846,0,"hihat.wav",40
Sample,190199,0,"hihat.wav",40
Sample,190552,0,"hihat.wav",40
Sample,191258,0,"hihat.wav",40
Sample,191610,0,"hihat.wav",40
Sample,191963,0,"hihat.wav",40
Sample,192316,0,"hihat.wav",40
Sample,192669,0,"hihat.wav",40
Sample,193022,0,"hihat.wav",40
Sample,193375,0,"hihat.wav",40
Sample,193728,0,"hihat.wav",40
Sample,194081,0,"hihat.wav",40
Sample,194434,0,"hihat.wav",40
Sample,194787,0,"hihat.wav",40
Sample,195140,0,"hihat.wav",40
Sample,195493,0,"hihat.wav",40
Sample,195846,0,"hihat.wav",40
Sample,196199,0,"hihat.wav",40
Sample,196552,0,"hihat.wav",40
Sample,196905,0,"hihat.wav",40
Sample,197258,0,"hihat.wav",40
Sample,197610,0,"hihat.wav",40
Sample,197963,0,"hihat.wav",40
Sample,198316,0,"hihat.wav",40
Sample,198669,0,"hihat.wav",40
Sample,199022,0,"hihat.wav",40
Sample,199375,0,"hihat.wav",40

[TimingPoints]
1905.07794295738,352.941176470588,4,2,1,25,1,0
35787,-100,4,2,1,25,0,1
46728,-100,4,2,1,25,0,0
47081,-100,4,2,1,25,0,1
55552,-100,4,2,1,25,0,0
131789,-100,4,2,1,5,0,0
143081,-100,4,2,1,15,0,0
151552,-100,4,2,1,25,0,1
162493,-100,4,2,1,25,0,0
162846,-100,4,2,1,25,0,1
170963,-100,4,2,1,25,0,0
171316,-100,4,2,1,25,0,1
191081,-100,4,2,1,25,0,0

[HitObjects]
64,192,1905,5,0,0:0:0:60:bass.wav
192,192,1905,1,0,0:0:0:0:
192,192,2258,1,0,0:0:0:60:bass.wav
192,192,2610,1,0,0:0:0:60:bass.wav
192,192,2963,1,0,0:0:0:60:bass.wav
448,192,3316,1,0,0:0:0:60:bass.wav
448,192,3669,1,0,0:0:0:60:bass.wav
448,192,4022,1,0,0:0:0:60:bass.wav
448,192,4375,1,0,0:0:0:60:bass.wav
192,192,4728,1,0,0:0:0:60:bass.wav
320,192,4728,1,0,0:0:0:0:
192,192,5081,1,0,0:0:0:60:bass.wav
192,192,5434,1,0,0:0:0:60:bass.wav
192,192,5787,1,0,0:0:0:60:bass.wav
320,192,6140,1,0,0:0:0:60:bass.wav
320,192,6493,1,0,0:0:0:60:bass.wav
320,192,6846,1,0,0:0:0:60:bass.wav
320,192,7199,1,0,0:0:0:60:bass.wav
192,192,7552,1,0,0:0:0:60:bass.wav
64,192,7552,1,0,0:0:0:0:
64,192,7905,1,0,0:0:0:60:bass.wav
64,192,8258,1,0,0:0:0:60:bass.wav
64,192,8610,1,0,0:0:0:60:bass.wav
320,192,8963,1,0,0:0:0:60:bass.wav
320,192,9316,1,0,0:0:0:60:bass.wav
320,192,9669,1,0,0:0:0:60:bass.wav
320,192,10022,1,0,0:0:0:60:bass.wav
192,192,10375,1,0,0:0:0:60:bass.wav
64,192,10375,1,0,0:0:0:0:
192,192,10728,1,0,0:0:0:60:bass.wav
192,192,11081,1,0,0:0:0:60:bass.wav
192,192,11434,1,0,0:0:0:60:bass.wav
448,192,11787,1,0,0:0:0:60:bass.wav
448,192,12140,1,0,0:0:0:60:bass.wav
448,192,12493,1,0,0:0:0:60:bass.wav
64,192,12846,128,0,13199:0:0:0:0:
320,192,13199,1,0,0:0:0:60:bass.wav
448,192,13199,1,0,0:0:0:50:finish.wav
192,192,13552,1,0,0:0:0:60:bass.wav
448,192,13905,1,0,0:0:0:60:bass.wav
192,192,14258,1,0,0:0:0:60:snap.wav
320,192,14610,1,0,0:0:0:60:bass.wav
64,192,14963,1,0,0:0:0:60:bass.wav
320,192,15316,1,0,0:0:0:60:bass.wav
64,192,15669,1,0,0:0:0:60:snap.wav
64,192,16022,1,0,0:0:0:60:bass.wav
192,192,16022,1,0,0:0:0:0:
448,192,16375,1,0,0:0:0:60:snap.wav
64,192,16728,1,0,0:0:0:60:bass.wav
448,192,17081,1,0,0:0:0:60:snap.wav
192,192,17434,1,0,0:0:0:60:bass.wav
320,192,17787,1,0,0:0:0:60:snap.wav
192,192,18140,1,0,0:0:0:60:bass.wav
320,192,18493,1,0,0:0:0:60:snap.wav
320,192,18846,1,0,0:0:0:60:bass.wav
448,192,18846,1,0,0:0:0:0:
64,192,19199,1,0,0:0:0:60:snap.wav
448,192,19552,1,0,0:0:0:60:bass.wav
64,192,19905,1,0,0:0:0:60:snap.wav
320,192,20258,1,0,0:0:0:60:bass.wav
192,192,20610,1,0,0:0:0:60:snap.wav
320,192,20963,1,0,0:0:0:60:bass.wav
192,192,21316,1,0,0:0:0:60:snap.wav
64,192,21669,1,0,0:0:0:60:bass.wav
448,192,21669,1,0,0:0:0:0:
320,192,22022,1,0,0:0:0:60:snap.wav
64,192,22375,1,0,0:0:0:60:bass.wav
320,192,22728,1,0,0:0:0:60:snap.wav
448,192,23081,128,0,23434:0:0:0:60:bass.wav
320,192,23434,1,0,0:0:0:60:snap.wav
192,192,23787,128,0,24140:0:0:0:60:bass.wav
64,192,24140,1,0,0:0:0:60:snap.wav
448,192,24493,1,0,0:0:0:60:bass.wav
320,192,24493,1,0,0:0:0:0:
192,192,24846,1,0,0:0:0:60:clap.wav
192,192,25022,1,0,0:0:0:60:bass.wav
448,192,25375,1,0,0:0:0:60:bass.wav
192,192,25552,1,0,0:0:0:60:clap.wav
448,192,25728,1,0,0:0:0:60:bass.wav
320,192,26258,1,0,0:0:0:60:clap.wav
320,192,26434,1,0,0:0:0:60:clap.wav
64,192,26787,1,0,0:0:0:60:bass.wav
320,192,26963,1,0,0:0:0:60:clap.wav
192,192,27316,1,0,0:0:0:60:bass.wav
64,192,27316,1,0,0:0:0:0:
448,192,27669,1,0,0:0:0:60:clap.wav
448,192,27846,1,0,0:0:0:60:bass.wav
192,192,28199,1,0,0:0:0:60:bass.wav
448,192,28375,1,0,0:0:0:60:clap.wav
192,192,28552,1,0,0:0:0:60:bass.wav
64,192,29081,1,0,0:0:0:60:clap.wav
64,192,29258,1,0,0:0:0:60:clap.wav
320,192,29434,1,0,0:0:0:60:bass.wav
320,192,29787,1,0,0:0:0:60:clap.wav
64,192,29787,1,0,0:0:0:60:bass.wav
448,192,30140,1,0,0:0:0:60:cymbal.wav
64,192,30140,128,0,30493:0:0:0:60:bass.wav
192,192,30493,1,0,0:0:0:60:clap.wav
320,192,30846,128,0,31199:0:0:0:60:bass.wav
192,192,31199,1,0,0:0:0:60:clap.wav
448,192,31552,128,0,31905:0:0:0:60:bass.wav
320,192,31905,1,0,0:0:0:60:clap.wav
192,192,32258,1,0,0:0:0:60:bass.wav
64,192,32610,128,0,32963:0:0:0:60:clap.wav
192,192,32963,1,0,0:0:0:60:bass.wav
320,192,33316,1,0,0:0:0:60:clap.wav
448,192,33669,1,0,0:0:0:60:bass.wav
64,192,34022,1,0,0:0:0:60:clap.wav
320,192,34375,1,0,0:0:0:60:bass.wav
320,192,34728,1,0,0:0:0:60:bass.wav
320,192,35081,1,0,0:0:0:60:bass.wav
192,192,35787,1,0,0:0:0:60:bass.wav
64,192,35787,1,0,0:0:0:60:cymbal.wav
320,192,36140,1,0,0:0:0:60:snare.wav
448,192,36493,1,0,0:0:0:60:bass.wav
320,192,36846,1,0,0:0:0:60:snare.wav
192,192,37199,1,0,0:0:0:60:bass.wav
64,192,37199,1,0,0:0:0:0:
320,192,37552,1,0,0:0:0:60:snare.wav
64,192,37905,1,0,0:0:0:60:bass.wav
320,192,38258,1,0,0:0:0:60:snare.wav
64,192,38610,1,0,0:0:0:60:bass.wav
448,192,38610,1,0,0:0:0:0:
192,192,38963,1,0,0:0:0:60:snare.wav
320,192,39316,1,0,0:0:0:60:bass.wav
448,192,39669,1,0,0:0:0:60:snare.wav
320,192,40022,1,0,0:0:0:60:bass.wav
64,192,40022,1,0,0:0:0:0:
192,192,40375,1,0,0:0:0:60:snare.wav
448,192,40728,1,0,0:0:0:60:bass.wav
320,192,41081,1,0,0:0:0:60:snare.wav
448,192,41434,1,0,0:0:0:60:bass.wav
192,192,41434,1,0,0:0:0:0:
64,192,41787,1,0,0:0:0:60:snare.wav
192,192,42140,1,0,0:0:0:60:bass.wav
448,192,42493,1,0,0:0:0:60:snare.wav
320,192,42846,1,0,0:0:0:60:bass.wav
64,192,42846,1,0,0:0:0:0:
448,192,43199,1,0,0:0:0:60:snare.wav
64,192,43552,1,0,0:0:0:60:bass.wav
192,192,43905,1,0,0:0:0:60:snare.wav
320,192,44258,1,0,0:0:0:60:bass.wav
448,192,44258,1,0,0:0:0:0:
192,192,44610,1,0,0:0:0:60:snare.wav
64,192,44963,1,0,0:0:0:60:bass.wav
448,192,45316,1,0,0:0:0:60:snare.wav
64,192,45669,1,0,0:0:0:60:bass.wav
320,192,45669,1,0,0:0:0:0:
192,192,46022,1,0,0:0:0:60:snare.wav
320,192,46375,1,0,0:0:0:60:bass.wav
448,192,46728,1,0,0:0:0:60:snare.wav
64,192,47081,1,0,0:0:0:60:bass.wav
192,192,47081,1,0,0:0:0:60:cymbal.wav
320,192,47434,1,0,0:0:0:60:snare.wav
64,192,47787,1,0,0:0:0:60:bass.wav
320,192,48140,1,0,0:0:0:60:snare.wav
448,192,48493,1,0,0:0:0:60:bass.wav
192,192,48493,1,0,0:0:0:0:
320,192,48846,1,0,0:0:0:60:snare.wav
64,192,49199,1,0,0:0:0:60:bass.wav
320,192,49552,1,0,0:0:0:60:snare.wav
64,192,49905,1,0,0:0:0:60:bass.wav
448,192,49905,1,0,0:0:0:0:
192,192,50258,1,0,0:0:0:60:snare.wav
448,192,50610,1,0,0:0:0:60:bass.wav
320,192,50963,1,0,0:0:0:60:snare.wav
64,192,51316,1,0,0:0:0:60:bass.wav
192,192,51316,1,0,0:0:0:0:
448,192,51669,1,0,0:0:0:60:snare.wav
320,192,52022,1,0,0:0:0:60:bass.wav
192,192,52375,1,0,0:0:0:60:snare.wav
64,192,52728,1,0,0:0:0:60:bass.wav
448,192,52728,1,0,0:0:0:0:
64,192,53081,1,0,0:0:0:60:snare.wav
192,192,53434,1,0,0:0:0:60:bass.wav
192,192,53787,1,0,0:0:0:60:snare.wav
448,192,54140,1,0,0:0:0:60:bass.wav
320,192,54140,1,0,0:0:0:0:
320,192,54493,1,0,0:0:0:60:snare.wav
192,192,54846,1,0,0:0:0:60:bass.wav
320,192,55199,128,0,55552:0:0:0:0:
64,192,55552,1,0,0:0:0:60:bass.wav
448,192,55552,1,0,0:0:0:60:cymbal.wav
192,192,55905,1,0,0:0:0:60:snare.wav
448,192,56258,1,0,0:0:0:60:bass.wav
64,192,56610,1,0,0:0:0:60:snare.wav
64,192,56963,1,0,0:0:0:60:bass.wav
320,192,57316,1,0,0:0:0:60:snare.wav
448,192,57669,1,0,0:0:0:60:bass.wav
192,192,58022,1,0,0:0:0:60:snare.wav
448,192,58375,1,0,0:0:0:60:bass.wav
64,192,58375,1,0,0:0:0:0:
320,192,58728,1,0,0:0:0:60:snare.wav
64,192,59081,1,0,0:0:0:60:bass.wav
448,192,59434,1,0,0:0:0:60:snare.wav
448,192,59787,1,0,0:0:0:60:bass.wav
192,192,60140,1,0,0:0:0:60:snare.wav
320,192,60493,1,0,0:0:0:60:bass.wav
64,192,60846,1,0,0:0:0:60:snare.wav
448,192,61199,1,0,0:0:0:60:bass.wav
192,192,61199,1,0,0:0:0:0:
320,192,61552,1,0,0:0:0:60:snare.wav
64,192,61905,1,0,0:0:0:60:bass.wav
448,192,62258,1,0,0:0:0:60:snare.wav
192,192,62610,1,0,0:0:0:60:bass.wav
320,192,62963,1,0,0:0:0:60:snare.wav
448,192,63316,1,0,0:0:0:60:bass.wav
320,192,63669,1,0,0:0:0:60:snare.wav
192,192,64022,1,0,0:0:0:60:bass.wav
64,192,64022,1,0,0:0:0:50:finish.wav
192,192,64375,1,0,0:0:0:60:snare.wav
320,192,64728,1,0,0:0:0:60:bass.wav
320,192,65081,1,0,0:0:0:60:snare.wav
448,192,65434,1,0,0:0:0:60:bass.wav
320,192,65787,1,0,0:0:0:60:snare.wav
192,192,66140,1,0,0:0:0:60:bass.wav
64,192,66493,1,0,0:0:0:60:snare.wav
192,192,66846,1,0,0:0:0:60:bass.wav
448,192,66846,1,0,0:0:0:0:
448,192,67199,1,0,0:0:0:60:snare.wav
320,192,67552,1,0,0:0:0:60:bass.wav
320,192,67905,1,0,0:0:0:60:snare.wav
64,192,68258,1,0,0:0:0:60:bass.wav
448,192,68258,1,0,0:0:0:0:
320,192,68610,1,0,0:0:0:60:snare.wav
192,192,68963,1,0,0:0:0:60:bass.wav
64,192,68963,1,0,0:0:0:0:
320,192,69316,1,0,0:0:0:60:snare.wav
448,192,69669,1,0,0:0:0:60:bass.wav
64,192,69669,1,0,0:0:0:0:
192,192,70022,1,0,0:0:0:60:snare.wav
448,192,70375,1,0,0:0:0:60:bass.wav
192,192,70728,1,0,0:0:0:60:snare.wav
448,192,71081,1,0,0:0:0:60:bass.wav
64,192,71081,1,0,0:0:0:0:
192,192,71434,1,0,0:0:0:60:snare.wav
448,192,71787,1,0,0:0:0:60:bass.wav
320,192,71787,1,0,0:0:0:0:
192,192,72140,1,0,0:0:0:60:snare.wav
64,192,72493,1,0,0:0:0:60:bass.wav
448,192,72493,1,0,0:0:0:0:
320,192,72846,1,0,0:0:0:60:snare.wav
448,192,73199,1,0,0:0:0:60:bass.wav
320,192,73552,1,0,0:0:0:60:snare.wav
64,192,73905,1,0,0:0:0:60:bass.wav
448,192,73905,1,0,0:0:0:0:
192,192,74258,1,0,0:0:0:60:snare.wav
192,192,74610,1,0,0:0:0:60:bass.wav
320,192,74963,1,0,0:0:0:60:snare.wav
320,192,75316,1,0,0:0:0:60:bass.wav
64,192,75669,128,0,76022:0:0:0:60:snare.wav
192,192,76022,1,0,0:0:0:60:bass.wav
448,192,76375,128,0,76728:0:0:0:60:snare.wav
320,192,76728,1,0,0:0:0:60:bass.wav
64,192,77081,1,0,0:0:0:60:snare.wav
320,192,77434,1,0,0:0:0:60:bass.wav
192,192,77787,1,0,0:0:0:60:snare.wav
64,192,78140,1,0,0:0:0:60:bass.wav
448,192,78493,1,0,0:0:0:60:snare.wav
192,192,78846,128,0,79199:0:0:0:60:bass.wav
320,192,79199,1,0,0:0:0:60:snare.wav
448,192,79552,1,0,0:0:0:60:bass.wav
192,192,79905,1,0,0:0:0:60:snare.wav
320,192,80258,128,0,80610:0:0:0:60:bass.wav
448,192,80610,1,0,0:0:0:60:snare.wav
448,192,80963,1,0,0:0:0:60:bass.wav
64,192,80963,1,0,0:0:0:0:
320,192,81316,1,0,0:0:0:60:snare.wav
64,192,81669,1,0,0:0:0:60:bass.wav
192,192,82022,1,0,0:0:0:60:snare.wav
448,192,82375,1,0,0:0:0:60:bass.wav
320,192,82728,1,0,0:0:0:60:snare.wav
192,192,83081,1,0,0:0:0:60:bass.wav
64,192,83434,1,0,0:0:0:60:snare.wav
192,192,83787,1,0,0:0:0:60:bass.wav
448,192,83787,1,0,0:0:0:0:
320,192,84140,1,0,0:0:0:60:snare.wav
192,192,84493,1,0,0:0:0:60:bass.wav
320,192,84846,1,0,0:0:0:60:snare.wav
448,192,85199,1,0,0:0:0:60:bass.wav
64,192,85552,1,0,0:0:0:60:snare.wav
320,192,85905,1,0,0:0:0:60:bass.wav
192,192,86258,1,0,0:0:0:60:snare.wav
448,192,86610,1,0,0:0:0:50:finish.wav
64,192,86610,1,0,0:0:0:0:
320,192,86963,1,0,0:0:0:60:clap.wav
320,192,87669,1,0,0:0:0:60:clap.wav
320,192,88375,1,0,0:0:0:60:clap.wav
320,192,89081,1,0,0:0:0:60:clap.wav
192,192,89787,1,0,0:0:0:60:clap.wav
192,192,90493,1,0,0:0:0:60:clap.wav
192,192,91199,1,0,0:0:0:60:clap.wav
192,192,91905,1,0,0:0:0:60:clap.wav
64,192,92258,1,0,0:0:0:60:bass.wav
64,192,92610,1,0,0:0:0:60:bass.wav
192,192,92963,1,0,0:0:0:60:bass.wav
192,192,93316,1,0,0:0:0:60:clap.wav
320,192,93669,1,0,0:0:0:60:bass.wav
320,192,94022,1,0,0:0:0:60:clap.wav
448,192,94375,1,0,0:0:0:60:bass.wav
448,192,94728,1,0,0:0:0:60:clap.wav
64,192,95081,1,0,0:0:0:60:bass.wav
192,192,95434,1,0,0:0:0:40:drum.wav
448,192,95787,1,0,0:0:0:60:bass.wav
320,192,96140,1,0,0:0:0:60:clap.wav
64,192,96493,1,0,0:0:0:60:bass.wav
192,192,96846,1,0,0:0:0:60:bass.wav
320,192,97199,1,0,0:0:0:60:bass.wav
448,192,97552,1,0,0:0:0:60:snareclap.wav
448,192,97905,1,0,0:0:0:60:bass.wav
64,192,97905,128,0,98610:0:0:0:0:
320,192,98258,1,0,0:0:0:0:
448,192,98610,1,0,0:0:0:60:snareclap.wav
320,192,98963,1,0,0:0:0:60:bass.wav
192,192,99669,1,0,0:0:0:60:bass.wav
320,192,100022,1,0,0:0:0:60:snareclap.wav
192,192,100375,1,0,0:0:0:0:
192,192,100728,1,0,0:0:0:60:bass.wav
448,192,100728,128,0,101434:0:0:0:0:
64,192,101081,1,0,0:0:0:0:
192,192,101434,1,0,0:0:0:60:snareclap.wav
320,192,101787,1,0,0:0:0:0:
192,192,101963,1,0,0:0:0:60:bass.wav
192,192,102493,1,0,0:0:0:60:bass.wav
320,192,102846,1,0,0:0:0:60:snareclap.wav
192,192,103199,1,0,0:0:0:0:
192,192,103552,1,0,0:0:0:60:bass.wav
320,192,103552,128,0,104258:0:0:0:0:
64,192,103905,1,0,0:0:0:0:
192,192,104258,1,0,0:0:0:60:snareclap.wav
64,192,104610,1,0,0:0:0:60:bass.wav
192,192,105316,1,0,0:0:0:60:bass.wav
320,192,105669,1,0,0:0:0:60:snareclap.wav
192,192,106022,1,0,0:0:0:0:
448,192,106375,1,0,0:0:0:60:bass.wav
192,192,106375,128,0,107081:0:0:0:0:
320,192,106728,1,0,0:0:0:0:
448,192,107081,1,0,0:0:0:60:snareclap.wav
320,192,107434,1,0,0:0:0:0:
192,192,107610,1,0,0:0:0:60:bass.wav
192,192,108140,1,0,0:0:0:60:bass.wav
64,192,108493,128,0,109199:0:0:0:0:
192,192,109199,1,0,0:0:0:60:cymbal.wav
448,192,109199,1,0,0:0:0:60:bass.wav
320,192,109552,1,0,0:0:0:0:
64,192,109905,1,0,0:0:0:60:snareclap.wav
192,192,110258,1,0,0:0:0:60:bass.wav
320,192,110258,128,0,110963:0:0:0:0:
448,192,110963,1,0,0:0:0:60:bass.wav
64,192,111316,1,0,0:0:0:60:snareclap.wav
320,192,111669,1,0,0:0:0:0:
64,192,112022,1,0,0:0:0:60:bass.wav
320,192,112022,1,0,0:0:0:0:
192,192,112375,1,0,0:0:0:0:
448,192,112728,1,0,0:0:0:60:snareclap.wav
320,192,113081,1,0,0:0:0:0:
192,192,113258,128,0,114140:0:0:0:60:bass.wav
320,192,113787,1,0,0:0:0:60:bass.wav
448,192,114140,1,0,0:0:0:60:snareclap.wav
192,192,114493,1,0,0:0:0:60:snareclap.wav
192,192,114846,1,0,0:0:0:60:bass.wav
320,192,114846,1,0,0:0:0:0:
448,192,115199,1,0,0:0:0:0:
64,192,115552,1,0,0:0:0:60:snareclap.wav
448,192,115905,128,0,116610:0:0:0:60:bass.wav
192,192,115905,1,0,0:0:0:0:
320,192,116610,1,0,0:0:0:60:bass.wav
64,192,116963,1,0,0:0:0:60:snareclap.wav
448,192,117316,1,0,0:0:0:0:
192,192,117669,1,0,0:0:0:60:bass.wav
320,192,117669,1,0,0:0:0:0:
64,192,118022,1,0,0:0:0:0:
448,192,118375,1,0,0:0:0:60:snareclap.wav
192,192,118728,1,0,0:0:0:0:
320,192,119081,1,0,0:0:0:0:
64,192,119434,1,0,0:0:0:60:bass.wav
448,192,119787,1,0,0:0:0:60:snareclap.wav
320,192,120140,1,0,0:0:0:60:snareclap.wav
64,192,120493,1,0,0:0:0:60:cymbal.wav
192,192,120493,1,0,0:0:0:60:bass.wav
64,192,120846,1,0,0:0:0:60:bass.wav
192,192,121199,1,0,0:0:0:60:bass.wav
192,192,121552,1,0,0:0:0:60:bass.wav
320,192,121905,1,0,0:0:0:60:bass.wav
320,192,122258,1,0,0:0:0:60:bass.wav
448,192,122610,1,0,0:0:0:60:bass.wav
448,192,122963,1,0,0:0:0:60:bass.wav
64,192,123316,1,0,0:0:0:60:bass.wav
64,192,123669,1,0,0:0:0:60:bass.wav
192,192,124022,1,0,0:0:0:60:bass.wav
192,192,124375,1,0,0:0:0:60:bass.wav
320,192,124728,1,0,0:0:0:60:bass.wav
320,192,125081,1,0,0:0:0:60:bass.wav
64,192,125434,1,0,0:0:0:60:bass.wav
448,192,125787,1,0,0:0:0:60:bass.wav
64,192,126140,1,0,0:0:0:60:bass.wav
320,192,126493,1,0,0:0:0:60:snare.wav
192,192,126493,1,0,0:0:0:0:
64,192,126846,1,0,0:0:0:60:bass.wav
320,192,127199,1,0,0:0:0:60:snare.wav
192,192,127199,1,0,0:0:0:0:
192,192,127552,1,0,0:0:0:60:bass.wav
320,192,127905,1,0,0:0:0:60:snare.wav
448,192,127905,1,0,0:0:0:0:
192,192,128258,1,0,0:0:0:60:bass.wav
320,192,128610,1,0,0:0:0:60:snare.wav
448,192,128610,1,0,0:0:0:0:
320,192,128963,1,0,0:0:0:60:bass.wav
192,192,129316,1,0,0:0:0:60:snare.wav
64,192,129316,1,0,0:0:0:0:
320,192,129669,1,0,0:0:0:60:bass.wav
192,192,130022,1,0,0:0:0:60:snare.wav
64,192,130022,1,0,0:0:0:0:
448,192,130375,1,0,0:0:0:20:kick-a.wav
192,192,131787,128,0,133199:0:0:0:0:
448,192,133199,128,0,134610:0:0:0:0:
64,192,134610,128,0,136022:0:0:0:0:
320,192,136022,128,0,136728:0:0:0:0:
192,192,136728,128,0,137434:0:0:0:0:
64,192,137434,128,0,138846:0:0:0:0:
448,192,138846,128,0,139552:0:0:0:0:
320,192,139552,128,0,140258:0:0:0:0:
192,192,140258,128,0,141669:0:0:0:0:
448,192,141669,128,0,142375:0:0:0:0:
64,192,142375,128,0,143081:0:0:0:0:
192,192,143081,5,0,0:0:0:50:bass.wav
448,192,143081,1,0,0:0:0:50:hihat.wav
320,192,143434,1,0,0:0:0:50:tock.wav
192,192,143963,1,0,0:0:0:50:bass.wav
320,192,144140,1,0,0:0:0:50:tock.wav
64,192,144493,1,0,0:0:0:50:bass.wav
192,192,144846,1,0,0:0:0:50:tock.wav
320,192,145375,1,0,0:0:0:50:bass.wav
192,192,145552,1,0,0:0:0:50:tock.wav
64,192,145728,1,0,0:0:0:50:kick-a.wav
448,192,145905,1,0,0:0:0:50:bass.wav
320,192,146258,1,0,0:0:0:50:tock.wav
192,192,146787,1,0,0:0:0:50:bass.wav
320,192,146963,1,0,0:0:0:50:tock.wav
448,192,147316,1,0,0:0:0:50:bass.wav
320,192,147669,1,0,0:0:0:50:tock.wav
192,192,148199,1,0,0:0:0:50:bass.wav
320,192,148375,1,0,0:0:0:50:tock.wav
64,192,148728,1,0,0:0:0:50:bass.wav
448,192,148728,1,0,0:0:0:50:hihat.wav
192,192,149081,1,0,0:0:0:50:tock.wav
448,192,149610,1,0,0:0:0:50:bass.wav
320,192,149787,1,0,0:0:0:50:tock.wav
64,192,150140,1,0,0:0:0:50:bass.wav
320,192,150493,1,0,0:0:0:50:tock.wav
64,192,151552,1,0,0:0:0:60:bass.wav
448,192,151552,1,0,0:0:0:60:cymbal.wav
192,192,151905,1,0,0:0:0:60:snare.wav
320,192,152258,1,0,0:0:0:60:bass.wav
192,192,152610,1,0,0:0:0:60:snare.wav
448,192,152963,1,0,0:0:0:60:bass.wav
64,192,152963,1,0,0:0:0:0:
320,192,153316,1,0,0:0:0:60:snare.wav
64,192,153669,1,0,0:0:0:60:bass.wav
320,192,154022,1,0,0:0:0:60:snare.wav
448,192,154375,1,0,0:0:0:60:bass.wav
64,192,154375,1,0,0:0:0:0:
192,192,154728,1,0,0:0:0:60:snare.wav
320,192,155081,1,0,0:0:0:60:bass.wav
448,192,155434,1,0,0:0:0:60:snare.wav
320,192,155787,1,0,0:0:0:60:bass.wav
64,192,155787,1,0,0:0:0:0:
448,192,156140,1,0,0:0:0:60:snare.wav
64,192,156493,1,0,0:0:0:60:bass.wav
192,192,156846,1,0,0:0:0:60:snare.wav
64,192,157199,1,0,0:0:0:60:bass.wav
320,192,157199,1,0,0:0:0:0:
448,192,157552,1,0,0:0:0:60:snare.wav
192,192,157905,1,0,0:0:0:60:bass.wav
320,192,158258,1,0,0:0:0:60:snare.wav
64,192,158610,1,0,0:0:0:60:bass.wav
448,192,158610,1,0,0:0:0:0:
192,192,158963,1,0,0:0:0:60:snare.wav
448,192,159316,1,0,0:0:0:60:bass.wav
320,192,159669,1,0,0:0:0:60:snare.wav
192,192,160022,1,0,0:0:0:60:bass.wav
64,192,160022,1,0,0:0:0:0:
320,192,160375,1,0,0:0:0:60:snare.wav
448,192,160728,1,0,0:0:0:60:bass.wav
64,192,161081,1,0,0:0:0:60:snare.wav
192,192,161434,1,0,0:0:0:60:bass.wav
320,192,161434,1,0,0:0:0:0:
448,192,161787,1,0,0:0:0:60:snare.wav
192,192,162140,1,0,0:0:0:60:bass.wav
320,192,162493,1,0,0:0:0:60:snare.wav
448,192,162846,1,0,0:0:0:60:bass.wav
64,192,162846,1,0,0:0:0:60:cymbal.wav
192,192,163199,1,0,0:0:0:60:snare.wav
320,192,163552,1,0,0:0:0:60:bass.wav
192,192,163905,1,0,0:0:0:60:snare.wav
320,192,164258,1,0,0:0:0:60:bass.wav
448,192,164258,1,0,0:0:0:0:
64,192,164610,1,0,0:0:0:60:snare.wav
192,192,164963,1,0,0:0:0:60:bass.wav
320,192,165316,1,0,0:0:0:60:snare.wav
192,192,165669,1,0,0:0:0:60:bass.wav
64,192,165669,1,0,0:0:0:0:
448,192,166022,1,0,0:0:0:60:snare.wav
192,192,166375,1,0,0:0:0:60:bass.wav
448,192,166728,1,0,0:0:0:60:snare.wav
192,192,167081,1,0,0:0:0:60:bass.wav
320,192,167081,1,0,0:0:0:0:
64,192,167434,1,0,0:0:0:60:snare.wav
448,192,167787,1,0,0:0:0:60:bass.wav
320,192,168140,1,0,0:0:0:60:snare.wav
192,192,168493,1,0,0:0:0:60:bass.wav
64,192,168493,1,0,0:0:0:0:
320,192,168846,1,0,0:0:0:60:snare.wav
448,192,169199,1,0,0:0:0:60:bass.wav
64,192,169552,1,0,0:0:0:60:snare.wav
192,192,169905,1,0,0:0:0:60:bass.wav
320,192,169905,1,0,0:0:0:0:
448,192,170258,1,0,0:0:0:60:snare.wav
320,192,170610,1,0,0:0:0:60:bass.wav
192,192,170963,1,0,0:0:0:60:snare.wav
448,192,171316,1,0,0:0:0:60:bass.wav
64,192,171316,128,0,172022:0:0:0:60:cymbal.wav
320,192,171669,1,0,0:0:0:60:snare.wav
448,192,172022,128,0,172728:0:0:0:60:bass.wav
192,192,172375,1,0,0:0:0:60:snare.wav
320,192,172728,1,0,0:0:0:60:bass.wav
64,192,172728,128,0,173081:0:0:0:0:
192,192,173081,128,0,173434:0:0:0:60:snare.wav
320,192,173434,128,0,173787:0:0:0:60:bass.wav
448,192,173787,128,0,174140:0:0:0:60:snare.wav
320,192,174140,1,0,0:0:0:60:bass.wav
192,192,174493,128,0,174846:0:0:0:60:snare.wav
320,192,174846,128,0,175199:0:0:0:60:bass.wav
448,192,175199,128,0,175552:0:0:0:60:snare.wav
192,192,175552,1,0,0:0:0:60:bass.wav
320,192,175905,128,0,176258:0:0:0:60:snare.wav
192,192,176258,128,0,176610:0:0:0:60:bass.wav
64,192,176610,128,0,176963:0:0:0:60:snare.wav
320,192,176963,1,0,0:0:0:60:bass.wav
448,192,176963,1,0,0:0:0:0:
192,192,177316,128,0,177669:0:0:0:60:snare.wav
320,192,177669,128,0,178022:0:0:0:60:bass.wav
448,192,178022,128,0,178375:0:0:0:60:snare.wav
192,192,178375,1,0,0:0:0:60:bass.wav
320,192,178728,1,0,0:0:0:60:snare.wav
64,192,179081,128,0,179434:0:0:0:60:bass.wav
192,192,179081,1,0,0:0:0:0:
192,192,179434,128,0,179787:0:0:0:60:snare.wav
448,192,179787,1,0,0:0:0:60:bass.wav
320,192,179787,128,0,180140:0:0:0:0:
192,192,180140,128,0,180493:0:0:0:60:snare.wav
320,192,180493,128,0,180846:0:0:0:60:bass.wav
64,192,180846,128,0,181199:0:0:0:60:snare.wav
192,192,181199,1,0,0:0:0:60:bass.wav
320,192,181199,1,0,0:0:0:0:
448,192,181552,1,0,0:0:0:60:snare.wav
320,192,181728,1,0,0:0:0:40:hihat.wav
192,192,181905,128,0,182258:0:0:0:60:bass.wav
64,192,182258,1,0,0:0:0:60:snare.wav
320,192,182610,1,0,0:0:0:60:bass.wav
448,192,182610,1,0,0:0:0:0:
64,192,182963,1,0,0:0:0:60:snare.wav
320,192,183316,1,0,0:0:0:60:bass.wav
64,192,183669,1,0,0:0:0:60:snare.wav
192,192,184022,1,0,0:0:0:60:bass.wav
448,192,184022,1,0,0:0:0:0:
320,192,184375,1,0,0:0:0:60:snare.wav
64,192,184728,1,0,0:0:0:60:bass.wav
448,192,185081,1,0,0:0:0:60:snare.wav
320,192,185434,1,0,0:0:0:60:bass.wav
192,192,185434,1,0,0:0:0:0:
448,192,185787,1,0,0:0:0:60:snare.wav
192,192,186140,1,0,0:0:0:60:bass.wav
448,192,186493,1,0,0:0:0:60:snare.wav
320,192,186846,1,0,0:0:0:60:bass.wav
192,192,186846,1,0,0:0:0:0:
64,192,187199,1,0,0:0:0:60:snare.wav
448,192,187552,1,0,0:0:0:60:bass.wav
320,192,187905,1,0,0:0:0:60:snare.wav
192,192,188258,1,0,0:0:0:60:bass.wav
64,192,188258,1,0,0:0:0:0:
320,192,188610,1,0,0:0:0:60:snare.wav
192,192,188963,1,0,0:0:0:60:bass.wav
64,192,189316,1,0,0:0:0:60:snare.wav
320,192,189669,1,0,0:0:0:60:bass.wav
448,192,189669,1,0,0:0:0:0:
192,192,190022,1,0,0:0:0:60:snare.wav
448,192,190375,1,0,0:0:0:60:bass.wav
320,192,190728,1,0,0:0:0:0:
64,192,191081,1,0,0:0:0:60:bass.wav
448,192,191081,1,0,0:0:0:60:cymbal.wav
448,192,191434,1,0,0:0:0:60:snare.wav
320,192,191787,1,0,0:0:0:60:bass.wav
320,192,192140,1,0,0:0:0:60:snare.wav
192,192,192493,1,0,0:0:0:60:bass.wav
192,192,192846,1,0,0:0:0:60:snare.wav
64,192,193199,1,0,0:0:0:60:bass.wav
64,192,193552,1,0,0:0:0:60:snare.wav
192,192,193905,1,0,0:0:0:60:bass.wav
448,192,193905,1,0,0:0:0:0:
448,192,194258,1,0,0:0:0:60:snare.wav
320,192,194610,1,0,0:0:0:60:bass.wav
320,192,194963,1,0,0:0:0:60:snare.wav
192,192,195316,1,0,0:0:0:60:bass.wav
192,192,195669,1,0,0:0:0:60:snare.wav
448,192,196022,1,0,0:0:0:60:bass.wav
448,192,196375,1,0,0:0:0:60:snare.wav
64,192,196728,1,0,0:0:0:60:bass.wav
320,192,196728,1,0,0:0:0:0:
64,192,197081,1,0,0:0:0:60:snare.wav
192,192,197434,1,0,0:0:0:60:bass.wav
192,192,197787,1,0,0:0:0:60:snare.wav
448,192,198140,1,0,0:0:0:60:bass.wav
448,192,198493,1,0,0:0:0:60:snare.wav
64,192,198846,1,0,0:0:0:60:bass.wav
64,192,199199,1,0,0:0:0:60:snare.wav
192,192,199552,1,0,0:0:0:50:finish.wav
320,192,199552,1,0,0:0:0:0:
448,192,200434,1,0,0:0:0:0:
320,192,200610,1,0,0:0:0:0:
192,192,200787,1,0,0:0:0:0:
64,192,200963,1,0,0:0:0:0:
192,192,201493,1,0,0:0:0:0:
320,192,201669,1,0,0:0:0:0:
448,192,202022,128,0,202375:0:0:0:0:
192,192,202375,1,0,0:0:0:60:bass.wav
320,192,202375,1,0,0:0:0:0:
