osu file format v14

[General]
AudioFilename: audio.mp3
AudioLeadIn: 0
PreviewTime: 131081
Countdown: 0
SampleSet: Soft
StackLeniency: 0.7
Mode: 3
LetterboxInBreaks: 0
SpecialStyle: 0
WidescreenStoryboard: 0

[Editor]
DistanceSpacing: 0.3
BeatDivisor: 4
GridSize: 32
TimelineZoom: 2.3

[Metadata]
Title:Kaibutsu
TitleUnicode:怪物
Artist:YOASOBI
ArtistUnicode:YOASOBI
Creator:Kuo Kyoka
Version:Who's the real "me"?
Source:BEASTARS
Tags:ビースターズ 幾田りら アニメ 2期 2nd Second Season Ikura Ikuta Rira Lilas Ayase Monster Japanese Anime J-Pop JPOP Opening Furry Akasha Shortthu Critical_Star
BeatmapID:2944003
BeatmapSetID:1430064

[Difficulty]
HPDrainRate:9
CircleSize:4
OverallDifficulty:7.5
ApproachRate:5
SliderMultiplier:1.4
SliderTickRate:1

[Events]
//Background and Video events
0,0,"88257528_p0.jpg",0,0
//Break Periods
//Storyboard Layer 0 (Background)
//Storyboard Layer 1 (Fail)
//Storyboard Layer 2 (Pass)
//Storyboard Layer 3 (Foreground)
//Storyboard Layer 4 (Overlay)
//Storyboard Sound Samples
Sample,23434,0,"snap.wav",60
Sample,24140,0,"snap.wav",60
Sample,47258,0,"hihat.wav",40
Sample,56434,0,"hihat.wav",40
Sample,59258,0,"hihat.wav",40
Sample,70199,0,"hihat.wav",40
Sample,70905,0,"hihat.wav",40
Sample,75493,0,"hihat.wav",40
Sample,95434,0,"drum.wav",40
Sample,120669,0,"hihat.wav",40
Sample,122081,0,"hihat.wav",40
Sample,123493,0,"hihat.wav",40
Sample,124905,0,"hihat.wav",40
Sample,126316,0,"hihat.wav",40
Sample,127728,0,"hihat.wav",40
Sample,129140,0,"hihat.wav",40
Sample,163022,0,"hihat.wav",40
Sample,191258,0,"hihat.wav",40
Sample,192669,0,"hihat.wav",40
Sample,194081,0,"hihat.wav",40
Sample,195493,0,"hihat.wav",40
Sample,196905,0,"hihat.wav",40
Sample,198316,0,"hihat.wav",40

[TimingPoints]
1905.07794295738,352.941176470588,4,2,1,25,1,0
35787,-100,4,2,1,25,0,1
46728,-100,4,2,1,25,0,0
47081,-100,4,2,1,25,0,1
55552,-100,4,2,1,25,0,0
131789,-100,4,2,1,5,0,0
143081,-100,4,2,1,15,0,0
150846,-10000,4,2,1,15,0,0
151199,-500,4,2,1,15,0,0
151234,-285.714285714286,4,2,1,15,0,0
151269,-200,4,2,1,15,0,0
151305,-153.846153846154,4,2,1,15,0,0
151340,-125,4,2,1,15,0,0
151375,-105.263157894737,4,2,1,15,0,0
151411,-90.9090909090909,4,2,1,15,0,0
151446,-80,4,2,1,15,0,0
151481,-71.4285714285714,4,2,1,15,0,0
151517,-64.5161290322581,4,2,1,15,0,0
151552,-100,4,2,1,25,0,1
162493,-100,4,2,1,25,0,0
162846,-100,4,2,1,25,0,1
170963,-100,4,2,1,25,0,0
171316,-100,4,2,1,25,0,1
191081,-100,4,2,1,25,0,0

[HitObjects]
320,192,1905,5,0,0:0:0:60:bass.wav
64,192,1905,1,0,0:0:0:0:
192,192,2081,1,0,0:0:0:0:
192,192,2258,128,0,2434:0:0:0:60:bass.wav
320,192,2258,1,0,0:0:0:0:
64,192,2258,1,0,0:0:0:0:
448,192,2434,128,0,2610:0:0:0:0:
320,192,2610,1,0,0:0:0:60:bass.wav
64,192,2610,1,0,0:0:0:0:
192,192,2787,1,0,0:0:0:0:
192,192,2963,128,0,3140:0:0:0:60:bass.wav
320,192,2963,1,0,0:0:0:0:
64,192,2963,1,0,0:0:0:0:
448,192,3140,128,0,3316:0:0:0:0:
320,192,3316,1,0,0:0:0:60:bass.wav
64,192,3316,1,0,0:0:0:0:
192,192,3493,1,0,0:0:0:0:
192,192,3669,128,0,3846:0:0:0:60:bass.wav
320,192,3669,1,0,0:0:0:0:
64,192,3669,1,0,0:0:0:0:
448,192,3846,128,0,4022:0:0:0:0:
64,192,4022,1,0,0:0:0:60:bass.wav
320,192,4022,1,0,0:0:0:0:
192,192,4199,1,0,0:0:0:0:
192,192,4375,128,0,4552:0:0:0:60:bass.wav
64,192,4375,1,0,0:0:0:0:
320,192,4375,1,0,0:0:0:0:
448,192,4552,128,0,4728:0:0:0:0:
320,192,4728,1,0,0:0:0:60:bass.wav
64,192,4728,1,0,0:0:0:0:
192,192,4905,1,0,0:0:0:0:
64,192,5081,128,0,5258:0:0:0:60:bass.wav
448,192,5081,1,0,0:0:0:0:
320,192,5081,1,0,0:0:0:0:
320,192,5258,128,0,5434:0:0:0:0:
192,192,5434,1,0,0:0:0:60:bass.wav
64,192,5434,1,0,0:0:0:0:
192,192,5610,1,0,0:0:0:0:
64,192,5787,128,0,5963:0:0:0:60:bass.wav
448,192,5787,1,0,0:0:0:0:
320,192,5787,1,0,0:0:0:0:
320,192,5963,128,0,6140:0:0:0:0:
192,192,6140,1,0,0:0:0:60:bass.wav
64,192,6140,1,0,0:0:0:0:
192,192,6316,1,0,0:0:0:0:
320,192,6493,1,0,0:0:0:60:bass.wav
448,192,6493,1,0,0:0:0:0:
64,192,6493,128,0,6669:0:0:0:0:
320,192,6669,128,0,6846:0:0:0:0:
192,192,6846,1,0,0:0:0:60:bass.wav
64,192,6846,1,0,0:0:0:0:
192,192,7022,1,0,0:0:0:0:
64,192,7199,128,0,7375:0:0:0:60:bass.wav
448,192,7199,1,0,0:0:0:0:
320,192,7199,1,0,0:0:0:0:
320,192,7375,128,0,7552:0:0:0:0:
192,192,7552,1,0,0:0:0:60:bass.wav
64,192,7552,1,0,0:0:0:0:
192,192,7728,1,0,0:0:0:0:
320,192,7905,128,0,8081:0:0:0:60:bass.wav
64,192,7905,1,0,0:0:0:0:
448,192,7905,1,0,0:0:0:0:
192,192,8081,128,0,8258:0:0:0:0:
64,192,8258,1,0,0:0:0:60:bass.wav
448,192,8258,1,0,0:0:0:0:
192,192,8434,1,0,0:0:0:0:
320,192,8610,128,0,8787:0:0:0:60:bass.wav
448,192,8610,1,0,0:0:0:0:
64,192,8610,1,0,0:0:0:0:
192,192,8787,128,0,8963:0:0:0:0:
64,192,8963,1,0,0:0:0:60:bass.wav
448,192,8963,1,0,0:0:0:0:
320,192,9140,1,0,0:0:0:0:
192,192,9316,128,0,9493:0:0:0:60:bass.wav
64,192,9316,1,0,0:0:0:0:
448,192,9316,1,0,0:0:0:0:
320,192,9493,128,0,9669:0:0:0:0:
64,192,9669,1,0,0:0:0:60:bass.wav
448,192,9669,1,0,0:0:0:0:
320,192,9846,1,0,0:0:0:0:
192,192,10022,128,0,10199:0:0:0:60:bass.wav
64,192,10022,1,0,0:0:0:0:
448,192,10022,1,0,0:0:0:0:
320,192,10199,128,0,10375:0:0:0:0:
192,192,10375,1,0,0:0:0:60:bass.wav
448,192,10375,1,0,0:0:0:0:
192,192,10552,1,0,0:0:0:0:
448,192,10728,128,0,10905:0:0:0:60:bass.wav
320,192,10728,1,0,0:0:0:0:
64,192,10728,1,0,0:0:0:0:
64,192,10905,128,0,11081:0:0:0:0:
192,192,11081,1,0,0:0:0:60:bass.wav
448,192,11081,1,0,0:0:0:0:
192,192,11258,1,0,0:0:0:0:
448,192,11434,128,0,11610:0:0:0:60:bass.wav
320,192,11434,1,0,0:0:0:0:
64,192,11434,1,0,0:0:0:0:
64,192,11610,128,0,11787:0:0:0:0:
320,192,11787,1,0,0:0:0:60:bass.wav
448,192,11787,1,0,0:0:0:0:
320,192,12140,1,0,0:0:0:60:bass.wav
448,192,12140,1,0,0:0:0:0:
320,192,12493,1,0,0:0:0:60:bass.wav
448,192,12493,1,0,0:0:0:0:
320,192,12846,1,0,0:0:0:0:
448,192,12890,1,0,0:0:0:0:
64,192,12934,1,0,0:0:0:0:
192,192,12978,1,0,0:0:0:0:
192,192,13199,1,0,0:0:0:50:finish.wav
64,192,13199,1,0,0:0:0:60:bass.wav
320,192,13199,1,0,0:0:0:0:
448,192,13199,1,0,0:0:0:0:
448,192,13375,128,0,13552:0:0:0:0:
320,192,13552,128,0,13728:0:0:0:60:snap.wav
192,192,13552,1,0,0:0:0:60:bass.wav
64,192,13552,1,0,0:0:0:0:
192,192,13728,128,0,13905:0:0:0:0:
320,192,13905,1,0,0:0:0:60:bass.wav
448,192,13905,1,0,0:0:0:0:
448,192,14081,128,0,14258:0:0:0:0:
320,192,14258,128,0,14434:0:0:0:60:bass.wav
192,192,14258,1,0,0:0:0:60:snap.wav
64,192,14258,1,0,0:0:0:0:
192,192,14434,128,0,14610:0:0:0:0:
320,192,14610,1,0,0:0:0:60:bass.wav
448,192,14610,1,0,0:0:0:0:
448,192,14787,128,0,14963:0:0:0:0:
192,192,14963,1,0,0:0:0:60:snap.wav
64,192,14963,1,0,0:0:0:60:bass.wav
320,192,14963,128,0,15140:0:0:0:0:
192,192,15140,128,0,15316:0:0:0:0:
320,192,15316,1,0,0:0:0:60:bass.wav
448,192,15316,1,0,0:0:0:0:
448,192,15493,128,0,15669:0:0:0:0:
320,192,15669,128,0,15846:0:0:0:60:bass.wav
192,192,15669,1,0,0:0:0:60:snap.wav
64,192,15669,1,0,0:0:0:0:
192,192,15846,128,0,16022:0:0:0:0:
320,192,16022,1,0,0:0:0:60:bass.wav
448,192,16022,1,0,0:0:0:0:
320,192,16199,128,0,16375:0:0:0:0:
192,192,16375,128,0,16552:0:0:0:60:bass.wav
64,192,16375,1,0,0:0:0:60:snap.wav
448,192,16375,1,0,0:0:0:0:
64,192,16552,128,0,16728:0:0:0:0:
320,192,16728,1,0,0:0:0:60:bass.wav
448,192,16728,1,0,0:0:0:0:
320,192,16905,128,0,17081:0:0:0:0:
192,192,17081,128,0,17258:0:0:0:60:bass.wav
448,192,17081,1,0,0:0:0:60:snap.wav
64,192,17081,1,0,0:0:0:0:
64,192,17258,128,0,17434:0:0:0:0:
320,192,17434,1,0,0:0:0:60:bass.wav
448,192,17434,1,0,0:0:0:0:
320,192,17610,128,0,17787:0:0:0:0:
192,192,17787,128,0,17963:0:0:0:60:bass.wav
448,192,17787,1,0,0:0:0:60:snap.wav
64,192,17787,1,0,0:0:0:0:
64,192,17963,128,0,18140:0:0:0:0:
448,192,18140,1,0,0:0:0:60:bass.wav
320,192,18140,1,0,0:0:0:0:
320,192,18316,128,0,18493:0:0:0:0:
192,192,18493,128,0,18669:0:0:0:60:bass.wav
448,192,18493,1,0,0:0:0:60:snap.wav
64,192,18493,1,0,0:0:0:0:
64,192,18669,128,0,18846:0:0:0:0:
320,192,18846,1,0,0:0:0:60:bass.wav
448,192,18846,1,0,0:0:0:0:
320,192,19022,128,0,19199:0:0:0:0:
192,192,19199,128,0,19375:0:0:0:60:bass.wav
64,192,19199,1,0,0:0:0:60:snap.wav
448,192,19199,1,0,0:0:0:0:
320,192,19375,128,0,19552:0:0:0:0:
192,192,19552,1,0,0:0:0:60:bass.wav
64,192,19552,1,0,0:0:0:0:
320,192,19728,128,0,19905:0:0:0:0:
192,192,19905,128,0,20081:0:0:0:60:bass.wav
448,192,19905,1,0,0:0:0:60:snap.wav
64,192,19905,1,0,0:0:0:0:
320,192,20081,128,0,20258:0:0:0:0:
64,192,20258,1,0,0:0:0:60:bass.wav
192,192,20258,1,0,0:0:0:0:
192,192,20434,128,0,20610:0:0:0:0:
320,192,20610,128,0,20787:0:0:0:60:bass.wav
64,192,20610,1,0,0:0:0:60:snap.wav
448,192,20610,1,0,0:0:0:0:
192,192,20787,128,0,20963:0:0:0:0:
320,192,20963,1,0,0:0:0:60:bass.wav
448,192,20963,1,0,0:0:0:0:
192,192,21140,128,0,21316:0:0:0:0:
320,192,21316,128,0,21493:0:0:0:60:bass.wav
64,192,21316,1,0,0:0:0:60:snap.wav
448,192,21316,1,0,0:0:0:0:
192,192,21493,128,0,21669:0:0:0:0:
320,192,21669,1,0,0:0:0:60:bass.wav
64,192,21669,1,0,0:0:0:0:
448,192,21846,128,0,22022:0:0:0:0:
64,192,22022,128,0,22199:0:0:0:60:bass.wav
192,192,22022,1,0,0:0:0:60:snap.wav
320,192,22022,1,0,0:0:0:0:
448,192,22199,128,0,22375:0:0:0:0:
320,192,22375,1,0,0:0:0:60:bass.wav
64,192,22375,1,0,0:0:0:0:
448,192,22552,128,0,22728:0:0:0:0:
64,192,22728,128,0,22905:0:0:0:60:bass.wav
192,192,22728,1,0,0:0:0:60:snap.wav
320,192,22728,1,0,0:0:0:0:
448,192,22905,128,0,23081:0:0:0:0:
64,192,23081,128,0,23434:0:0:0:60:bass.wav
192,192,23169,128,0,23258:0:0:0:0:
320,192,23258,128,0,23346:0:0:0:0:
448,192,23346,128,0,23434:0:0:0:0:
192,192,23434,128,0,23787:0:0:0:60:bass.wav
320,192,23522,128,0,23610:0:0:0:0:
448,192,23610,128,0,23699:0:0:0:0:
64,192,23699,128,0,23787:0:0:0:0:
320,192,23787,128,0,24140:0:0:0:60:bass.wav
448,192,23875,128,0,23963:0:0:0:0:
64,192,23963,128,0,24052:0:0:0:0:
192,192,24052,128,0,24140:0:0:0:0:
448,192,24140,128,0,24493:0:0:0:60:bass.wav
64,192,24228,128,0,24316:0:0:0:0:
192,192,24316,128,0,24405:0:0:0:0:
320,192,24405,128,0,24493:0:0:0:0:
192,192,24493,128,0,24581:0:0:0:60:bass.wav
64,192,24493,128,0,24581:0:0:0:0:
320,192,24846,1,0,0:0:0:60:clap.wav
448,192,24846,1,0,0:0:0:0:
448,192,25022,1,0,0:0:0:60:clap.wav
320,192,25022,1,0,0:0:0:60:bass.wav
192,192,25022,128,0,25110:0:0:0:0:
64,192,25022,128,0,25110:0:0:0:0:
192,192,25375,128,0,25463:0:0:0:60:bass.wav
64,192,25375,128,0,25463:0:0:0:0:
320,192,25552,1,0,0:0:0:60:clap.wav
448,192,25552,1,0,0:0:0:0:
64,192,25728,128,0,25816:0:0:0:60:bass.wav
192,192,25728,128,0,25816:0:0:0:0:
320,192,26258,1,0,0:0:0:60:clap.wav
448,192,26258,1,0,0:0:0:0:
448,192,26434,1,0,0:0:0:60:clap.wav
320,192,26434,1,0,0:0:0:0:
64,192,26787,128,0,26875:0:0:0:60:bass.wav
192,192,26787,128,0,26875:0:0:0:0:
320,192,26963,1,0,0:0:0:60:clap.wav
448,192,26963,1,0,0:0:0:0:
320,192,27316,128,0,27405:0:0:0:60:bass.wav
448,192,27316,128,0,27405:0:0:0:0:
192,192,27669,1,0,0:0:0:60:clap.wav
64,192,27669,1,0,0:0:0:0:
64,192,27846,1,0,0:0:0:60:clap.wav
192,192,27846,1,0,0:0:0:60:bass.wav
320,192,27846,128,0,27934:0:0:0:0:
448,192,27846,128,0,27934:0:0:0:0:
320,192,28199,128,0,28287:0:0:0:60:bass.wav
448,192,28199,128,0,28287:0:0:0:0:
192,192,28375,1,0,0:0:0:60:clap.wav
64,192,28375,1,0,0:0:0:0:
448,192,28552,128,0,28640:0:0:0:60:bass.wav
320,192,28552,128,0,28640:0:0:0:0:
192,192,29081,1,0,0:0:0:60:clap.wav
64,192,29081,1,0,0:0:0:0:
64,192,29258,1,0,0:0:0:60:clap.wav
192,192,29258,1,0,0:0:0:0:
320,192,29434,128,0,29522:0:0:0:60:bass.wav
448,192,29434,128,0,29522:0:0:0:0:
192,192,29787,1,0,0:0:0:60:bass.wav
64,192,29787,1,0,0:0:0:60:clap.wav
320,192,29787,128,0,29875:0:0:0:0:
448,192,29787,128,0,29875:0:0:0:0:
64,192,30008,1,0,0:0:0:0:
192,192,30052,1,0,0:0:0:0:
320,192,30096,1,0,0:0:0:0:
448,192,30140,1,0,0:0:0:60:bass.wav
192,192,30140,1,0,0:0:0:60:cymbal.wav
64,192,30140,1,0,0:0:0:0:
192,192,30316,1,0,0:0:0:0:
320,192,30405,1,0,0:0:0:0:
64,192,30493,1,0,0:0:0:60:bass.wav
448,192,30493,1,0,0:0:0:60:clap.wav
192,192,30581,1,0,0:0:0:0:
448,192,30669,1,0,0:0:0:60:clap.wav
320,192,30669,1,0,0:0:0:0:
192,192,30758,1,0,0:0:0:0:
64,192,30846,1,0,0:0:0:60:bass.wav
448,192,30846,1,0,0:0:0:0:
320,192,30934,1,0,0:0:0:0:
192,192,31022,1,0,0:0:0:0:
64,192,31110,1,0,0:0:0:0:
192,192,31199,1,0,0:0:0:60:bass.wav
320,192,31199,1,0,0:0:0:60:clap.wav
448,192,31287,1,0,0:0:0:0:
320,192,31375,1,0,0:0:0:0:
192,192,31463,1,0,0:0:0:0:
448,192,31552,1,0,0:0:0:60:bass.wav
64,192,31552,1,0,0:0:0:0:
192,192,31728,1,0,0:0:0:0:
64,192,31816,1,0,0:0:0:0:
448,192,31905,1,0,0:0:0:60:bass.wav
192,192,31905,1,0,0:0:0:60:clap.wav
64,192,31993,1,0,0:0:0:0:
320,192,32081,1,0,0:0:0:60:clap.wav
448,192,32081,1,0,0:0:0:0:
192,192,32169,1,0,0:0:0:0:
448,192,32258,1,0,0:0:0:60:bass.wav
320,192,32258,1,0,0:0:0:0:
192,192,32346,1,0,0:0:0:0:
448,192,32434,1,0,0:0:0:0:
320,192,32522,1,0,0:0:0:0:
64,192,32610,1,0,0:0:0:60:bass.wav
448,192,32610,1,0,0:0:0:60:clap.wav
320,192,32699,1,0,0:0:0:0:
64,192,32787,1,0,0:0:0:0:
192,192,32875,1,0,0:0:0:0:
448,192,32963,1,0,0:0:0:60:bass.wav
320,192,32963,1,0,0:0:0:0:
320,192,33140,1,0,0:0:0:0:
192,192,33228,1,0,0:0:0:0:
64,192,33316,1,0,0:0:0:60:bass.wav
448,192,33316,1,0,0:0:0:60:clap.wav
320,192,33405,1,0,0:0:0:0:
192,192,33493,1,0,0:0:0:60:clap.wav
64,192,33493,1,0,0:0:0:0:
320,192,33581,1,0,0:0:0:0:
448,192,33669,1,0,0:0:0:60:bass.wav
64,192,33669,1,0,0:0:0:0:
192,192,33758,1,0,0:0:0:0:
320,192,33846,1,0,0:0:0:0:
448,192,33934,1,0,0:0:0:0:
320,192,34022,1,0,0:0:0:60:bass.wav
192,192,34022,1,0,0:0:0:60:clap.wav
64,192,34110,1,0,0:0:0:0:
192,192,34199,1,0,0:0:0:0:
320,192,34287,1,0,0:0:0:0:
448,192,34375,1,0,0:0:0:60:bass.wav
64,192,34375,1,0,0:0:0:0:
64,192,34728,5,0,0:0:0:60:bass.wav
448,192,34728,1,0,0:0:0:0:
64,192,35081,1,0,0:0:0:60:bass.wav
448,192,35081,1,0,0:0:0:0:
320,192,35787,128,0,35875:0:0:0:60:cymbal.wav
448,192,35787,128,0,35875:0:0:0:60:bass.wav
64,192,35787,1,0,0:0:0:0:
192,192,35787,1,0,0:0:0:0:
320,192,35963,1,0,0:0:0:40:hihat.wav
64,192,36140,1,0,0:0:0:60:snare.wav
192,192,36140,1,0,0:0:0:0:
448,192,36140,1,0,0:0:0:0:
320,192,36316,1,0,0:0:0:40:hihat.wav
192,192,36493,128,0,36581:0:0:0:60:bass.wav
320,192,36493,128,0,36581:0:0:0:0:
64,192,36493,1,0,0:0:0:0:
192,192,36669,1,0,0:0:0:40:hihat.wav
448,192,36846,1,0,0:0:0:60:snare.wav
64,192,36846,1,0,0:0:0:0:
320,192,36846,1,0,0:0:0:0:
192,192,37022,1,0,0:0:0:40:hihat.wav
64,192,37199,128,0,37287:0:0:0:60:bass.wav
192,192,37199,128,0,37287:0:0:0:0:
320,192,37199,1,0,0:0:0:0:
64,192,37375,1,0,0:0:0:40:hihat.wav
320,192,37552,1,0,0:0:0:60:snare.wav
64,192,37552,1,0,0:0:0:0:
448,192,37552,1,0,0:0:0:0:
448,192,37728,1,0,0:0:0:40:hihat.wav
320,192,37905,128,0,37993:0:0:0:60:bass.wav
448,192,37905,128,0,37993:0:0:0:0:
192,192,37905,1,0,0:0:0:0:
192,192,38081,1,0,0:0:0:40:hihat.wav
64,192,38258,1,0,0:0:0:60:snare.wav
320,192,38258,1,0,0:0:0:0:
448,192,38258,1,0,0:0:0:0:
320,192,38434,1,0,0:0:0:40:hihat.wav
192,192,38610,128,0,38699:0:0:0:60:bass.wav
448,192,38610,128,0,38699:0:0:0:0:
64,192,38610,1,0,0:0:0:0:
192,192,38787,1,0,0:0:0:40:hihat.wav
320,192,38963,128,0,39052:0:0:0:60:snare.wav
448,192,38963,128,0,39052:0:0:0:0:
64,192,38963,1,0,0:0:0:0:
320,192,39140,1,0,0:0:0:40:hihat.wav
192,192,39316,128,0,39405:0:0:0:60:bass.wav
320,192,39316,128,0,39405:0:0:0:0:
64,192,39316,1,0,0:0:0:0:
192,192,39493,1,0,0:0:0:40:hihat.wav
64,192,39669,128,0,39758:0:0:0:60:snare.wav
192,192,39669,128,0,39758:0:0:0:0:
448,192,39669,1,0,0:0:0:0:
320,192,39846,1,0,0:0:0:40:hihat.wav
64,192,40022,128,0,40110:0:0:0:60:bass.wav
320,192,40022,128,0,40110:0:0:0:0:
448,192,40022,1,0,0:0:0:0:
64,192,40199,1,0,0:0:0:40:hihat.wav
192,192,40199,1,0,0:0:0:0:
192,192,40375,1,0,0:0:0:60:snare.wav
448,192,40375,1,0,0:0:0:0:
320,192,40375,1,0,0:0:0:0:
64,192,40552,1,0,0:0:0:40:hihat.wav
192,192,40552,1,0,0:0:0:0:
64,192,40728,128,0,40816:0:0:0:60:bass.wav
192,192,40728,128,0,40816:0:0:0:0:
448,192,40728,1,0,0:0:0:0:
320,192,40905,1,0,0:0:0:40:hihat.wav
448,192,40905,1,0,0:0:0:0:
192,192,41081,128,0,41169:0:0:0:60:snare.wav
320,192,41081,128,0,41169:0:0:0:0:
64,192,41081,1,0,0:0:0:0:
320,192,41258,1,0,0:0:0:40:hihat.wav
448,192,41258,1,0,0:0:0:0:
320,192,41434,128,0,41522:0:0:0:60:bass.wav
448,192,41434,128,0,41522:0:0:0:0:
64,192,41434,1,0,0:0:0:0:
192,192,41610,1,0,0:0:0:40:hihat.wav
64,192,41787,1,0,0:0:0:60:snare.wav
320,192,41787,1,0,0:0:0:0:
448,192,41787,1,0,0:0:0:0:
192,192,41963,1,0,0:0:0:40:hihat.wav
64,192,42140,128,0,42228:0:0:0:60:bass.wav
320,192,42140,128,0,42228:0:0:0:0:
448,192,42140,1,0,0:0:0:0:
192,192,42316,1,0,0:0:0:40:hihat.wav
64,192,42493,1,0,0:0:0:60:snare.wav
320,192,42493,1,0,0:0:0:0:
448,192,42493,1,0,0:0:0:0:
192,192,42669,1,0,0:0:0:40:hihat.wav
64,192,42846,128,0,42934:0:0:0:60:bass.wav
192,192,42846,128,0,42934:0:0:0:0:
320,192,42846,1,0,0:0:0:0:
64,192,43022,1,0,0:0:0:40:hihat.wav
192,192,43199,128,0,43287:0:0:0:60:snare.wav
448,192,43199,128,0,43287:0:0:0:0:
320,192,43199,1,0,0:0:0:0:
64,192,43375,1,0,0:0:0:40:hihat.wav
64,192,43552,128,0,43640:0:0:0:60:bass.wav
320,192,43552,128,0,43640:0:0:0:0:
448,192,43552,1,0,0:0:0:0:
64,192,43728,1,0,0:0:0:40:hihat.wav
448,192,43905,128,0,43993:0:0:0:60:snare.wav
320,192,43905,128,0,43993:0:0:0:0:
192,192,43905,1,0,0:0:0:0:
64,192,44081,1,0,0:0:0:40:hihat.wav
64,192,44258,128,0,44346:0:0:0:60:bass.wav
192,192,44258,128,0,44346:0:0:0:0:
448,192,44258,1,0,0:0:0:0:
320,192,44434,1,0,0:0:0:40:hihat.wav
192,192,44610,128,0,44699:0:0:0:60:snare.wav
320,192,44610,128,0,44699:0:0:0:0:
448,192,44610,1,0,0:0:0:0:
64,192,44787,1,0,0:0:0:40:hihat.wav
320,192,44963,128,0,45052:0:0:0:60:bass.wav
448,192,44963,128,0,45052:0:0:0:0:
192,192,44963,1,0,0:0:0:0:
64,192,45140,1,0,0:0:0:40:hihat.wav
64,192,45316,128,0,45405:0:0:0:60:snare.wav
448,192,45316,128,0,45405:0:0:0:0:
320,192,45316,1,0,0:0:0:0:
192,192,45493,1,0,0:0:0:40:hihat.wav
64,192,45669,128,0,45758:0:0:0:60:bass.wav
192,192,45669,128,0,45758:0:0:0:0:
448,192,45669,1,0,0:0:0:0:
448,192,45846,1,0,0:0:0:40:hihat.wav
64,192,46022,1,0,0:0:0:60:snare.wav
320,192,46022,1,0,0:0:0:0:
192,192,46022,1,0,0:0:0:0:
320,192,46199,1,0,0:0:0:40:hihat.wav
192,192,46375,128,0,46463:0:0:0:60:bass.wav
448,192,46375,128,0,46463:0:0:0:0:
64,192,46375,1,0,0:0:0:0:
192,192,46552,1,0,0:0:0:40:hihat.wav
64,192,46728,1,0,0:0:0:60:snare.wav
192,192,46728,1,0,0:0:0:60:drum.wav
448,192,46816,1,0,0:0:0:60:drum.wav
320,192,46816,1,0,0:0:0:0:
64,192,46905,1,0,0:0:0:40:hihat.wav
192,192,46905,1,0,0:0:0:60:drum.wav
320,192,46993,1,0,0:0:0:60:drum.wav
448,192,46993,1,0,0:0:0:0:
64,192,47081,128,0,47169:0:0:0:60:cymbal.wav
192,192,47081,128,0,47169:0:0:0:60:bass.wav
320,192,47081,128,0,47169:0:0:0:0:
64,192,47434,1,0,0:0:0:60:snare.wav
320,192,47434,128,0,47522:0:0:0:0:
448,192,47434,128,0,47522:0:0:0:0:
320,192,47610,1,0,0:0:0:40:hihat.wav
64,192,47787,128,0,47875:0:0:0:60:bass.wav
192,192,47787,128,0,47875:0:0:0:0:
448,192,47787,1,0,0:0:0:0:
192,192,47963,1,0,0:0:0:40:hihat.wav
64,192,48140,1,0,0:0:0:60:snare.wav
320,192,48140,1,0,0:0:0:0:
448,192,48140,1,0,0:0:0:0:
192,192,48316,1,0,0:0:0:40:hihat.wav
64,192,48493,128,0,48581:0:0:0:60:bass.wav
448,192,48493,1,0,0:0:0:0:
320,192,48493,128,0,48581:0:0:0:0:
64,192,48669,1,0,0:0:0:40:hihat.wav
448,192,48846,1,0,0:0:0:60:snare.wav
192,192,48846,128,0,48934:0:0:0:0:
320,192,48846,128,0,48934:0:0:0:0:
64,192,49022,1,0,0:0:0:40:hihat.wav
192,192,49199,128,0,49287:0:0:0:60:bass.wav
448,192,49199,128,0,49287:0:0:0:0:
64,192,49199,1,0,0:0:0:0:
448,192,49375,1,0,0:0:0:40:hihat.wav
64,192,49552,1,0,0:0:0:60:snare.wav
192,192,49552,1,0,0:0:0:0:
320,192,49552,1,0,0:0:0:0:
448,192,49728,1,0,0:0:0:40:hihat.wav
64,192,49905,128,0,49993:0:0:0:60:bass.wav
192,192,49905,128,0,49993:0:0:0:0:
448,192,49905,1,0,0:0:0:0:
64,192,50081,1,0,0:0:0:40:hihat.wav
192,192,50258,128,0,50346:0:0:0:60:snare.wav
320,192,50258,128,0,50346:0:0:0:0:
448,192,50258,1,0,0:0:0:0:
64,192,50434,1,0,0:0:0:40:hihat.wav
448,192,50610,128,0,50699:0:0:0:60:bass.wav
320,192,50610,128,0,50699:0:0:0:0:
192,192,50610,1,0,0:0:0:0:
64,192,50787,1,0,0:0:0:40:hihat.wav
448,192,50963,128,0,51052:0:0:0:60:snare.wav
192,192,50963,128,0,51052:0:0:0:0:
64,192,50963,1,0,0:0:0:0:
192,192,51140,128,0,51228:0:0:0:40:hihat.wav
320,192,51140,128,0,51228:0:0:0:0:
320,192,51316,128,0,51405:0:0:0:60:bass.wav
64,192,51316,128,0,51405:0:0:0:0:
448,192,51316,1,0,0:0:0:0:
448,192,51493,1,0,0:0:0:40:hihat.wav
192,192,51669,1,0,0:0:0:60:snare.wav
320,192,51669,1,0,0:0:0:0:
64,192,51669,1,0,0:0:0:0:
448,192,51846,1,0,0:0:0:40:hihat.wav
320,192,52022,128,0,52110:0:0:0:60:bass.wav
448,192,52022,128,0,52110:0:0:0:0:
192,192,52022,1,0,0:0:0:0:
64,192,52199,1,0,0:0:0:40:hihat.wav
320,192,52375,128,0,52463:0:0:0:60:snare.wav
192,192,52375,128,0,52463:0:0:0:0:
448,192,52375,1,0,0:0:0:0:
64,192,52552,1,0,0:0:0:40:hihat.wav
192,192,52728,128,0,52816:0:0:0:60:bass.wav
64,192,52728,128,0,52816:0:0:0:0:
448,192,52728,128,0,52993:0:0:0:0:
320,192,52728,1,0,0:0:0:0:
320,192,52905,1,0,0:0:0:40:hihat.wav
192,192,53081,128,0,53346:0:0:0:60:snare.wav
448,192,53081,1,0,0:0:0:0:
64,192,53081,1,0,0:0:0:0:
448,192,53258,1,0,0:0:0:40:hihat.wav
64,192,53434,128,0,53522:0:0:0:60:bass.wav
448,192,53434,128,0,53522:0:0:0:0:
320,192,53434,128,0,53699:0:0:0:0:
64,192,53610,1,0,0:0:0:40:hihat.wav
64,192,53787,128,0,54052:0:0:0:60:snare.wav
448,192,53787,1,0,0:0:0:0:
192,192,53787,1,0,0:0:0:0:
192,192,53963,1,0,0:0:0:40:hihat.wav
64,192,54140,128,0,54228:0:0:0:60:bass.wav
320,192,54140,128,0,54228:0:0:0:0:
448,192,54140,128,0,54405:0:0:0:0:
320,192,54316,1,0,0:0:0:40:hihat.wav
64,192,54493,128,0,54758:0:0:0:60:snare.wav
192,192,54493,1,0,0:0:0:0:
448,192,54493,1,0,0:0:0:0:
448,192,54669,1,0,0:0:0:40:hihat.wav
192,192,54846,128,0,54934:0:0:0:60:bass.wav
320,192,54846,128,0,54934:0:0:0:0:
448,192,54846,128,0,55110:0:0:0:0:
192,192,55022,1,0,0:0:0:40:hihat.wav
448,192,55199,128,0,55375:0:0:0:0:
64,192,55199,128,0,55552:0:0:0:0:
320,192,55287,128,0,55463:0:0:0:0:
192,192,55375,128,0,55552:0:0:0:0:
320,192,55552,1,0,0:0:0:60:cymbal.wav
448,192,55552,1,0,0:0:0:60:bass.wav
192,192,55728,1,0,0:0:0:40:hihat.wav
192,192,55905,128,0,56169:0:0:0:60:snare.wav
64,192,55905,1,0,0:0:0:0:
448,192,55905,1,0,0:0:0:0:
320,192,56081,128,0,56346:0:0:0:40:hihat.wav
448,192,56258,128,0,56522:0:0:0:60:bass.wav
64,192,56258,128,0,56346:0:0:0:0:
192,192,56258,128,0,56346:0:0:0:0:
192,192,56522,128,0,56610:0:0:0:0:
320,192,56522,128,0,56610:0:0:0:0:
448,192,56610,1,0,0:0:0:60:snare.wav
64,192,56610,1,0,0:0:0:0:
320,192,56787,128,0,56875:0:0:0:40:hihat.wav
448,192,56787,128,0,56875:0:0:0:0:
192,192,56963,1,0,0:0:0:60:bass.wav
64,192,56963,1,0,0:0:0:0:
448,192,56963,1,0,0:0:0:0:
192,192,57140,128,0,57228:0:0:0:40:hihat.wav
64,192,57316,128,0,57405:0:0:0:60:snare.wav
192,192,57316,128,0,57581:0:0:0:0:
448,192,57316,1,0,0:0:0:0:
320,192,57493,128,0,57581:0:0:0:40:hihat.wav
192,192,57669,128,0,57758:0:0:0:60:bass.wav
320,192,57669,128,0,57934:0:0:0:0:
64,192,57669,1,0,0:0:0:0:
448,192,57846,128,0,57934:0:0:0:40:hihat.wav
320,192,58022,128,0,58110:0:0:0:60:snare.wav
448,192,58022,128,0,58287:0:0:0:0:
64,192,58022,128,0,58199:0:0:0:0:
192,192,58110,128,0,58287:0:0:0:0:
320,192,58199,128,0,58375:0:0:0:40:hihat.wav
448,192,58375,1,0,0:0:0:60:bass.wav
192,192,58375,1,0,0:0:0:0:
64,192,58375,1,0,0:0:0:0:
320,192,58552,1,0,0:0:0:40:hihat.wav
320,192,58728,128,0,58993:0:0:0:60:snare.wav
64,192,58728,1,0,0:0:0:0:
448,192,58728,1,0,0:0:0:0:
192,192,58905,128,0,59169:0:0:0:40:hihat.wav
64,192,59081,128,0,59346:0:0:0:60:bass.wav
320,192,59081,128,0,59169:0:0:0:0:
448,192,59081,128,0,59169:0:0:0:0:
192,192,59346,128,0,59434:0:0:0:0:
320,192,59346,128,0,59434:0:0:0:0:
448,192,59434,1,0,0:0:0:60:snare.wav
64,192,59434,1,0,0:0:0:0:
64,192,59610,128,0,59699:0:0:0:40:hihat.wav
192,192,59610,128,0,59699:0:0:0:0:
320,192,59787,1,0,0:0:0:60:bass.wav
64,192,59787,1,0,0:0:0:0:
448,192,59787,1,0,0:0:0:0:
192,192,59963,128,0,60052:0:0:0:40:hihat.wav
448,192,60140,128,0,60228:0:0:0:60:snare.wav
320,192,60140,128,0,60405:0:0:0:0:
64,192,60140,1,0,0:0:0:0:
192,192,60316,128,0,60405:0:0:0:40:hihat.wav
320,192,60493,128,0,60581:0:0:0:60:bass.wav
192,192,60493,128,0,60758:0:0:0:0:
448,192,60493,1,0,0:0:0:0:
64,192,60669,128,0,60758:0:0:0:40:hihat.wav
320,192,60846,128,0,60934:0:0:0:60:snare.wav
64,192,60846,128,0,61110:0:0:0:0:
448,192,60846,128,0,61022:0:0:0:0:
192,192,60934,128,0,61110:0:0:0:0:
320,192,61022,128,0,61199:0:0:0:40:hihat.wav
448,192,61199,128,0,61375:0:0:0:60:bass.wav
64,192,61199,128,0,61287:0:0:0:0:
192,192,61199,128,0,61287:0:0:0:0:
64,192,61375,1,0,0:0:0:40:hihat.wav
320,192,61463,128,0,61640:0:0:0:0:
192,192,61552,1,0,0:0:0:60:snare.wav
64,192,61552,1,0,0:0:0:0:
448,192,61552,1,0,0:0:0:0:
192,192,61728,128,0,61905:0:0:0:40:hihat.wav
448,192,61905,128,0,62169:0:0:0:60:bass.wav
320,192,61905,1,0,0:0:0:0:
64,192,61905,1,0,0:0:0:0:
192,192,62081,1,0,0:0:0:40:hihat.wav
64,192,62258,128,0,62522:0:0:0:60:snare.wav
320,192,62258,1,0,0:0:0:0:
448,192,62258,1,0,0:0:0:0:
448,192,62434,1,0,0:0:0:40:hihat.wav
320,192,62610,128,0,62787:0:0:0:60:bass.wav
192,192,62610,128,0,62699:0:0:0:0:
64,192,62610,128,0,62699:0:0:0:0:
448,192,62787,1,0,0:0:0:40:hihat.wav
192,192,62875,128,0,63052:0:0:0:0:
320,192,62963,1,0,0:0:0:60:snare.wav
448,192,62963,1,0,0:0:0:0:
64,192,62963,1,0,0:0:0:0:
64,192,63140,128,0,63316:0:0:0:40:hihat.wav
448,192,63316,128,0,63581:0:0:0:60:bass.wav
320,192,63316,1,0,0:0:0:0:
192,192,63316,1,0,0:0:0:0:
64,192,63405,128,0,63493:0:0:0:0:
192,192,63493,128,0,63581:0:0:0:40:hihat.wav
320,192,63581,128,0,63669:0:0:0:0:
64,192,63669,128,0,63934:0:0:0:60:snare.wav
448,192,63669,1,0,0:0:0:0:
192,192,63758,128,0,63846:0:0:0:0:
320,192,63846,128,0,63934:0:0:0:40:hihat.wav
448,192,63934,128,0,64022:0:0:0:0:
192,192,64022,1,0,0:0:0:50:finish.wav
64,192,64022,1,0,0:0:0:60:bass.wav
320,192,64022,1,0,0:0:0:0:
192,192,64199,1,0,0:0:0:40:hihat.wav
64,192,64375,1,0,0:0:0:60:snare.wav
320,192,64375,1,0,0:0:0:0:
448,192,64375,1,0,0:0:0:0:
192,192,64552,1,0,0:0:0:40:hihat.wav
64,192,64728,1,0,0:0:0:60:bass.wav
320,192,64728,1,0,0:0:0:0:
192,192,64905,1,0,0:0:0:40:hihat.wav
448,192,65081,1,0,0:0:0:60:snare.wav
320,192,65081,1,0,0:0:0:0:
64,192,65081,1,0,0:0:0:0:
192,192,65258,1,0,0:0:0:40:hihat.wav
64,192,65434,1,0,0:0:0:60:bass.wav
320,192,65434,1,0,0:0:0:0:
448,192,65522,1,0,0:0:0:0:
192,192,65610,1,0,0:0:0:40:hihat.wav
192,192,65787,1,0,0:0:0:60:snare.wav
64,192,65787,1,0,0:0:0:0:
448,192,65787,1,0,0:0:0:0:
320,192,65963,128,0,66140:0:0:0:40:hihat.wav
448,192,66140,1,0,0:0:0:60:bass.wav
64,192,66140,1,0,0:0:0:0:
320,192,66228,1,0,0:0:0:0:
192,192,66316,128,0,66493:0:0:0:40:hihat.wav
64,192,66493,1,0,0:0:0:60:snare.wav
448,192,66493,1,0,0:0:0:0:
320,192,66493,1,0,0:0:0:0:
64,192,66669,128,0,66846:0:0:0:40:hihat.wav
448,192,66669,1,0,0:0:0:0:
320,192,66758,1,0,0:0:0:0:
192,192,66846,1,0,0:0:0:60:bass.wav
448,192,66846,1,0,0:0:0:0:
192,192,67022,1,0,0:0:0:40:hihat.wav
320,192,67199,1,0,0:0:0:60:snare.wav
448,192,67199,1,0,0:0:0:0:
64,192,67199,1,0,0:0:0:0:
192,192,67375,1,0,0:0:0:40:hihat.wav
320,192,67552,1,0,0:0:0:60:bass.wav
64,192,67552,1,0,0:0:0:0:
192,192,67728,1,0,0:0:0:40:hihat.wav
320,192,67905,1,0,0:0:0:60:snare.wav
448,192,67905,1,0,0:0:0:0:
64,192,67905,1,0,0:0:0:0:
192,192,68081,1,0,0:0:0:40:hihat.wav
448,192,68258,1,0,0:0:0:60:bass.wav
192,192,68258,1,0,0:0:0:0:
64,192,68258,1,0,0:0:0:0:
320,192,68346,1,0,0:0:0:0:
448,192,68434,1,0,0:0:0:40:hihat.wav
64,192,68610,1,0,0:0:0:60:snare.wav
320,192,68610,1,0,0:0:0:0:
192,192,68610,1,0,0:0:0:0:
192,192,68787,128,0,69140:0:0:0:40:hihat.wav
64,192,68963,1,0,0:0:0:60:bass.wav
448,192,68963,1,0,0:0:0:0:
320,192,69052,1,0,0:0:0:0:
448,192,69140,128,0,69228:0:0:0:40:hihat.wav
320,192,69316,1,0,0:0:0:60:snare.wav
192,192,69316,1,0,0:0:0:0:
64,192,69316,128,0,69405:0:0:0:0:
320,192,69493,128,0,69581:0:0:0:40:hihat.wav
448,192,69669,128,0,69758:0:0:0:60:bass.wav
64,192,69669,1,0,0:0:0:0:
192,192,69669,128,0,69758:0:0:0:0:
320,192,69846,128,0,69934:0:0:0:40:hihat.wav
64,192,70022,128,0,70287:0:0:0:60:snare.wav
448,192,70022,128,0,70287:0:0:0:0:
320,192,70022,128,0,70287:0:0:0:0:
192,192,70022,1,0,0:0:0:0:
320,192,70375,128,0,70463:0:0:0:60:bass.wav
64,192,70375,128,0,70463:0:0:0:0:
448,192,70375,1,0,0:0:0:0:
192,192,70552,128,0,70640:0:0:0:40:hihat.wav
64,192,70728,128,0,70993:0:0:0:60:snare.wav
192,192,70728,128,0,70993:0:0:0:0:
320,192,70728,1,0,0:0:0:0:
448,192,70728,128,0,70993:0:0:0:0:
192,192,71081,128,0,71169:0:0:0:60:bass.wav
64,192,71081,128,0,71169:0:0:0:0:
448,192,71081,1,0,0:0:0:0:
320,192,71169,1,0,0:0:0:0:
192,192,71258,1,0,0:0:0:40:hihat.wav
448,192,71434,1,0,0:0:0:60:snare.wav
64,192,71434,1,0,0:0:0:0:
320,192,71434,1,0,0:0:0:0:
192,192,71610,1,0,0:0:0:40:hihat.wav
448,192,71787,128,0,71875:0:0:0:60:bass.wav
320,192,71787,128,0,71875:0:0:0:0:
64,192,71787,1,0,0:0:0:0:
64,192,71963,1,0,0:0:0:40:hihat.wav
192,192,72052,1,0,0:0:0:0:
320,192,72140,1,0,0:0:0:60:snare.wav
64,192,72140,1,0,0:0:0:0:
448,192,72140,1,0,0:0:0:0:
192,192,72316,1,0,0:0:0:40:hihat.wav
320,192,72316,1,0,0:0:0:0:
448,192,72493,1,0,0:0:0:60:bass.wav
192,192,72493,128,0,72581:0:0:0:0:
64,192,72493,128,0,72581:0:0:0:0:
320,192,72669,128,0,72846:0:0:0:40:hihat.wav
192,192,72846,1,0,0:0:0:60:snare.wav
64,192,72846,1,0,0:0:0:0:
448,192,72846,1,0,0:0:0:0:
320,192,73022,128,0,73199:0:0:0:40:hihat.wav
64,192,73199,1,0,0:0:0:60:bass.wav
448,192,73199,1,0,0:0:0:0:
320,192,73375,128,0,73552:0:0:0:40:hihat.wav
192,192,73552,1,0,0:0:0:60:snare.wav
64,192,73552,1,0,0:0:0:0:
448,192,73552,1,0,0:0:0:0:
320,192,73728,128,0,74081:0:0:0:40:hihat.wav
64,192,73905,1,0,0:0:0:60:bass.wav
448,192,73905,1,0,0:0:0:0:
64,192,74081,128,0,74169:0:0:0:40:hihat.wav
64,192,74258,128,0,74346:0:0:0:60:snare.wav
320,192,74258,1,0,0:0:0:0:
448,192,74258,1,0,0:0:0:0:
64,192,74434,128,0,74522:0:0:0:40:hihat.wav
192,192,74434,128,0,74522:0:0:0:0:
64,192,74610,128,0,74699:0:0:0:60:bass.wav
192,192,74610,128,0,74699:0:0:0:0:
448,192,74610,1,0,0:0:0:0:
64,192,74787,128,0,74875:0:0:0:40:hihat.wav
192,192,74787,128,0,74875:0:0:0:0:
320,192,74787,128,0,74875:0:0:0:0:
64,192,74963,128,0,75052:0:0:0:60:snare.wav
192,192,74963,128,0,75052:0:0:0:0:
320,192,74963,128,0,75052:0:0:0:0:
64,192,75140,128,0,75228:0:0:0:40:hihat.wav
192,192,75140,128,0,75228:0:0:0:0:
320,192,75140,128,0,75228:0:0:0:0:
448,192,75140,128,0,75228:0:0:0:0:
448,192,75316,128,0,75405:0:0:0:60:bass.wav
320,192,75316,128,0,75405:0:0:0:0:
192,192,75316,128,0,75405:0:0:0:0:
64,192,75316,128,0,75405:0:0:0:0:
192,192,75669,128,0,75758:0:0:0:60:snare.wav
320,192,75669,1,0,0:0:0:0:
64,192,75669,1,0,0:0:0:0:
448,192,75846,128,0,75934:0:0:0:40:hihat.wav
192,192,75846,1,0,0:0:0:0:
64,192,76022,128,0,76110:0:0:0:60:bass.wav
320,192,76022,1,0,0:0:0:0:
320,192,76199,128,0,76287:0:0:0:40:hihat.wav
192,192,76199,1,0,0:0:0:0:
448,192,76375,1,0,0:0:0:60:snare.wav
64,192,76375,1,0,0:0:0:0:
320,192,76375,1,0,0:0:0:0:
320,192,76552,128,0,76728:0:0:0:40:hihat.wav
64,192,76552,128,0,76728:0:0:0:0:
448,192,76728,1,0,0:0:0:60:bass.wav
192,192,76728,1,0,0:0:0:0:
320,192,76905,1,0,0:0:0:40:hihat.wav
448,192,77081,1,0,0:0:0:60:snare.wav
192,192,77081,1,0,0:0:0:0:
64,192,77081,1,0,0:0:0:0:
448,192,77258,128,0,77346:0:0:0:40:hihat.wav
192,192,77258,128,0,77610:0:0:0:0:
448,192,77434,128,0,77522:0:0:0:60:bass.wav
64,192,77434,128,0,77610:0:0:0:0:
320,192,77610,128,0,77699:0:0:0:40:hihat.wav
192,192,77787,128,0,77875:0:0:0:60:snare.wav
448,192,77787,128,0,78140:0:0:0:0:
64,192,77787,1,0,0:0:0:0:
64,192,77963,128,0,78052:0:0:0:40:hihat.wav
320,192,77963,128,0,78140:0:0:0:0:
64,192,78140,128,0,78228:0:0:0:60:bass.wav
192,192,78140,1,0,0:0:0:0:
448,192,78316,1,0,0:0:0:40:hihat.wav
192,192,78493,128,0,78669:0:0:0:60:snare.wav
64,192,78493,128,0,78669:0:0:0:0:
320,192,78493,1,0,0:0:0:0:
448,192,78669,1,0,0:0:0:40:hihat.wav
192,192,78846,128,0,78934:0:0:0:60:bass.wav
64,192,78846,1,0,0:0:0:0:
448,192,79022,128,0,79110:0:0:0:40:hihat.wav
192,192,79022,1,0,0:0:0:0:
448,192,79199,1,0,0:0:0:60:snare.wav
64,192,79199,1,0,0:0:0:0:
320,192,79199,1,0,0:0:0:0:
320,192,79375,128,0,79552:0:0:0:40:hihat.wav
448,192,79375,128,0,79552:0:0:0:0:
64,192,79552,1,0,0:0:0:60:bass.wav
192,192,79552,1,0,0:0:0:0:
192,192,79728,128,0,79905:0:0:0:40:hihat.wav
320,192,79728,128,0,79905:0:0:0:0:
448,192,79905,1,0,0:0:0:60:snare.wav
64,192,79905,1,0,0:0:0:0:
64,192,80081,128,0,80258:0:0:0:40:hihat.wav
192,192,80081,128,0,80258:0:0:0:0:
448,192,80258,128,0,80346:0:0:0:60:bass.wav
320,192,80258,1,0,0:0:0:0:
192,192,80434,128,0,80522:0:0:0:40:hihat.wav
64,192,80434,1,0,0:0:0:0:
192,192,80610,128,0,80699:0:0:0:60:snare.wav
320,192,80610,1,0,0:0:0:0:
448,192,80610,1,0,0:0:0:0:
192,192,80787,128,0,80875:0:0:0:40:hihat.wav
64,192,80787,1,0,0:0:0:0:
320,192,80963,128,0,81140:0:0:0:60:bass.wav
64,192,80963,128,0,81140:0:0:0:0:
448,192,80963,1,0,0:0:0:0:
192,192,81140,1,0,0:0:0:40:hihat.wav
320,192,81316,128,0,81493:0:0:0:60:snare.wav
448,192,81316,128,0,81493:0:0:0:0:
64,192,81316,1,0,0:0:0:0:
192,192,81493,1,0,0:0:0:40:hihat.wav
320,192,81669,128,0,81758:0:0:0:60:bass.wav
64,192,81669,1,0,0:0:0:0:
192,192,81846,128,0,81934:0:0:0:40:hihat.wav
448,192,81846,1,0,0:0:0:0:
448,192,82022,1,0,0:0:0:60:snare.wav
320,192,82022,1,0,0:0:0:0:
64,192,82022,1,0,0:0:0:0:
192,192,82199,128,0,82375:0:0:0:40:hihat.wav
64,192,82199,128,0,82375:0:0:0:0:
320,192,82375,1,0,0:0:0:60:bass.wav
448,192,82375,1,0,0:0:0:0:
192,192,82552,128,0,82728:0:0:0:40:hihat.wav
448,192,82552,128,0,82728:0:0:0:0:
320,192,82728,1,0,0:0:0:60:snare.wav
64,192,82728,1,0,0:0:0:0:
320,192,82905,128,0,82993:0:0:0:40:hihat.wav
448,192,82905,128,0,83258:0:0:0:0:
64,192,83081,128,0,83169:0:0:0:60:bass.wav
192,192,83081,128,0,83258:0:0:0:0:
320,192,83258,128,0,83346:0:0:0:40:hihat.wav
192,192,83434,128,0,83522:0:0:0:60:snare.wav
64,192,83434,128,0,83787:0:0:0:0:
448,192,83434,1,0,0:0:0:0:
448,192,83610,128,0,83699:0:0:0:40:hihat.wav
320,192,83610,128,0,83787:0:0:0:0:
192,192,83787,128,0,83875:0:0:0:60:bass.wav
448,192,83787,1,0,0:0:0:0:
192,192,83963,1,0,0:0:0:40:hihat.wav
320,192,84052,1,0,0:0:0:0:
192,192,84140,128,0,84316:0:0:0:60:snare.wav
64,192,84140,128,0,84316:0:0:0:0:
448,192,84140,1,0,0:0:0:0:
320,192,84316,1,0,0:0:0:40:hihat.wav
192,192,84375,1,0,0:0:0:0:
64,192,84434,1,0,0:0:0:0:
448,192,84493,1,0,0:0:0:60:bass.wav
320,192,84493,128,0,84581:0:0:0:0:
192,192,84669,128,0,84758:0:0:0:40:hihat.wav
64,192,84669,1,0,0:0:0:0:
448,192,84846,1,0,0:0:0:60:snare.wav
192,192,84846,1,0,0:0:0:0:
320,192,84846,1,0,0:0:0:0:
64,192,85022,128,0,85199:0:0:0:40:hihat.wav
448,192,85022,128,0,85110:0:0:0:0:
320,192,85199,128,0,85287:0:0:0:60:bass.wav
448,192,85199,1,0,0:0:0:0:
448,192,85375,1,0,0:0:0:40:hihat.wav
192,192,85375,128,0,85463:0:0:0:0:
320,192,85463,1,0,0:0:0:0:
192,192,85552,1,0,0:0:0:60:snare.wav
64,192,85552,128,0,85640:0:0:0:0:
320,192,85728,1,0,0:0:0:40:hihat.wav
448,192,85728,128,0,85816:0:0:0:0:
192,192,85816,1,0,0:0:0:0:
320,192,85905,128,0,85993:0:0:0:60:bass.wav
64,192,85905,1,0,0:0:0:0:
192,192,86081,128,0,86169:0:0:0:40:hihat.wav
64,192,86081,1,0,0:0:0:0:
320,192,86258,128,0,86346:0:0:0:60:snare.wav
448,192,86258,1,0,0:0:0:0:
192,192,86434,128,0,86522:0:0:0:40:hihat.wav
448,192,86434,1,0,0:0:0:0:
64,192,86610,128,0,86699:0:0:0:50:finish.wav
64,192,86875,128,0,86963:0:0:0:0:
320,192,86963,1,0,0:0:0:60:clap.wav
448,192,86963,1,0,0:0:0:0:
64,192,87140,128,0,87228:0:0:0:0:
448,192,87316,128,0,87405:0:0:0:0:
192,192,87493,128,0,87581:0:0:0:0:
320,192,87669,128,0,87758:0:0:0:60:clap.wav
192,192,87669,1,0,0:0:0:0:
64,192,87669,1,0,0:0:0:0:
448,192,87846,128,0,87934:0:0:0:0:
192,192,88022,128,0,88110:0:0:0:0:
192,192,88287,128,0,88375:0:0:0:0:
320,192,88375,1,0,0:0:0:60:clap.wav
448,192,88375,1,0,0:0:0:0:
192,192,88552,128,0,88640:0:0:0:0:
320,192,88728,128,0,88816:0:0:0:0:
448,192,88905,128,0,88993:0:0:0:0:
64,192,89081,128,0,89169:0:0:0:60:clap.wav
448,192,89081,1,0,0:0:0:0:
320,192,89081,1,0,0:0:0:0:
192,192,89258,128,0,89346:0:0:0:0:
320,192,89434,128,0,89522:0:0:0:0:
320,192,89699,128,0,89787:0:0:0:0:
192,192,89787,1,0,0:0:0:60:clap.wav
64,192,89787,1,0,0:0:0:0:
320,192,89963,128,0,90052:0:0:0:0:
64,192,90140,128,0,90228:0:0:0:0:
448,192,90316,128,0,90405:0:0:0:0:
192,192,90493,128,0,90581:0:0:0:60:clap.wav
320,192,90493,1,0,0:0:0:0:
448,192,90493,1,0,0:0:0:0:
320,192,90669,128,0,90758:0:0:0:0:
448,192,90846,128,0,90934:0:0:0:0:
448,192,91110,128,0,91199:0:0:0:0:
192,192,91199,1,0,0:0:0:60:clap.wav
64,192,91199,1,0,0:0:0:0:
448,192,91375,128,0,91463:0:0:0:0:
320,192,91552,128,0,91640:0:0:0:0:
192,192,91728,128,0,91816:0:0:0:0:
320,192,91905,128,0,91993:0:0:0:60:clap.wav
192,192,91905,1,0,0:0:0:0:
64,192,91905,1,0,0:0:0:0:
192,192,92081,128,0,92169:0:0:0:0:
64,192,92258,128,0,92346:0:0:0:60:bass.wav
448,192,92258,1,0,0:0:0:0:
320,192,92258,1,0,0:0:0:0:
192,192,92346,1,0,0:0:0:0:
320,192,92434,1,0,0:0:0:0:
192,192,92522,1,0,0:0:0:0:
64,192,92522,1,0,0:0:0:0:
320,192,92610,1,0,0:0:0:60:clap.wav
448,192,92610,1,0,0:0:0:60:bass.wav
64,192,92699,1,0,0:0:0:0:
192,192,92787,1,0,0:0:0:0:
448,192,92787,1,0,0:0:0:0:
320,192,92875,1,0,0:0:0:0:
448,192,92963,1,0,0:0:0:60:bass.wav
64,192,92963,1,0,0:0:0:0:
192,192,93052,1,0,0:0:0:0:
320,192,93140,1,0,0:0:0:0:
64,192,93140,1,0,0:0:0:0:
448,192,93228,1,0,0:0:0:0:
192,192,93316,1,0,0:0:0:60:bass.wav
320,192,93316,1,0,0:0:0:60:clap.wav
64,192,93405,1,0,0:0:0:0:
192,192,93493,1,0,0:0:0:0:
448,192,93493,1,0,0:0:0:0:
320,192,93581,1,0,0:0:0:0:
448,192,93669,1,0,0:0:0:60:bass.wav
64,192,93669,1,0,0:0:0:0:
192,192,93758,1,0,0:0:0:0:
64,192,93846,1,0,0:0:0:0:
448,192,93934,1,0,0:0:0:0:
192,192,93934,1,0,0:0:0:0:
64,192,94022,1,0,0:0:0:60:bass.wav
320,192,94022,1,0,0:0:0:60:clap.wav
448,192,94110,1,0,0:0:0:0:
64,192,94199,1,0,0:0:0:0:
192,192,94199,1,0,0:0:0:0:
320,192,94287,1,0,0:0:0:0:
64,192,94375,1,0,0:0:0:60:bass.wav
448,192,94375,1,0,0:0:0:0:
192,192,94463,1,0,0:0:0:0:
320,192,94552,1,0,0:0:0:0:
448,192,94552,1,0,0:0:0:0:
192,192,94640,1,0,0:0:0:0:
448,192,94728,1,0,0:0:0:60:bass.wav
64,192,94728,1,0,0:0:0:60:clap.wav
320,192,94816,1,0,0:0:0:0:
192,192,94905,1,0,0:0:0:0:
64,192,94905,1,0,0:0:0:0:
320,192,94993,1,0,0:0:0:0:
64,192,95081,1,0,0:0:0:60:bass.wav
448,192,95081,1,0,0:0:0:0:
192,192,95169,1,0,0:0:0:0:
320,192,95258,1,0,0:0:0:0:
448,192,95346,1,0,0:0:0:0:
192,192,95346,1,0,0:0:0:0:
64,192,95434,1,0,0:0:0:60:bass.wav
320,192,95434,1,0,0:0:0:60:clap.wav
448,192,95522,1,0,0:0:0:0:
192,192,95610,1,0,0:0:0:0:
320,192,95610,1,0,0:0:0:0:
64,192,95699,1,0,0:0:0:0:
192,192,95787,1,0,0:0:0:60:bass.wav
448,192,95787,1,0,0:0:0:0:
320,192,95875,1,0,0:0:0:0:
448,192,95963,1,0,0:0:0:40:drum.wav
64,192,95963,1,0,0:0:0:0:
192,192,96052,1,0,0:0:0:0:
320,192,96140,1,0,0:0:0:60:bass.wav
448,192,96140,1,0,0:0:0:60:clap.wav
64,192,96140,1,0,0:0:0:0:
192,192,96228,1,0,0:0:0:0:
64,192,96316,1,0,0:0:0:0:
448,192,96316,1,0,0:0:0:0:
320,192,96405,1,0,0:0:0:0:
192,192,96493,1,0,0:0:0:60:bass.wav
64,192,96493,1,0,0:0:0:0:
448,192,96581,1,0,0:0:0:0:
64,192,96669,1,0,0:0:0:60:bass.wav
320,192,96669,1,0,0:0:0:0:
448,192,96758,1,0,0:0:0:0:
320,192,96846,1,0,0:0:0:60:bass.wav
192,192,96846,1,0,0:0:0:60:clap.wav
64,192,96934,1,0,0:0:0:0:
192,192,97022,1,0,0:0:0:60:bass.wav
448,192,97022,1,0,0:0:0:0:
64,192,97110,1,0,0:0:0:0:
320,192,97199,1,0,0:0:0:60:bass.wav
448,192,97199,1,0,0:0:0:0:
192,192,97287,1,0,0:0:0:60:bass.wav
64,192,97287,1,0,0:0:0:0:
320,192,97375,1,0,0:0:0:60:bass.wav
448,192,97375,1,0,0:0:0:0:
192,192,97463,1,0,0:0:0:60:bass.wav
64,192,97463,1,0,0:0:0:0:
448,192,97552,1,0,0:0:0:60:snareclap.wav
320,192,97552,1,0,0:0:0:0:
64,192,97552,1,0,0:0:0:0:
192,192,97552,1,0,0:0:0:0:
64,192,97905,1,0,0:0:0:60:bass.wav
448,192,97905,1,0,0:0:0:0:
320,192,97905,1,0,0:0:0:0:
192,192,97905,1,0,0:0:0:0:
64,192,98081,1,0,0:0:0:0:
64,192,98258,1,0,0:0:0:0:
320,192,98258,128,0,98346:0:0:0:0:
448,192,98258,128,0,98346:0:0:0:0:
64,192,98434,1,0,0:0:0:0:
64,192,98610,1,0,0:0:0:60:snareclap.wav
320,192,98610,1,0,0:0:0:0:
448,192,98610,1,0,0:0:0:0:
64,192,98787,1,0,0:0:0:0:
64,192,98963,1,0,0:0:0:60:bass.wav
192,192,98963,1,0,0:0:0:0:
320,192,98963,128,0,99052:0:0:0:0:
448,192,98963,128,0,99052:0:0:0:0:
64,192,99140,1,0,0:0:0:0:
64,192,99316,1,0,0:0:0:0:
64,192,99493,1,0,0:0:0:0:
64,192,99669,1,0,0:0:0:60:bass.wav
320,192,99669,128,0,99758:0:0:0:0:
448,192,99669,128,0,99758:0:0:0:0:
192,192,99669,1,0,0:0:0:0:
64,192,99846,1,0,0:0:0:0:
320,192,100022,1,0,0:0:0:60:snareclap.wav
448,192,100022,1,0,0:0:0:0:
64,192,100199,1,0,0:0:0:0:
64,192,100375,1,0,0:0:0:0:
320,192,100375,128,0,100463:0:0:0:0:
448,192,100375,128,0,100463:0:0:0:0:
64,192,100552,1,0,0:0:0:0:
192,192,100728,1,0,0:0:0:60:bass.wav
448,192,100728,1,0,0:0:0:0:
320,192,100728,1,0,0:0:0:0:
64,192,100728,1,0,0:0:0:0:
192,192,100905,1,0,0:0:0:0:
192,192,101081,1,0,0:0:0:0:
320,192,101081,128,0,101169:0:0:0:0:
448,192,101081,128,0,101169:0:0:0:0:
192,192,101258,1,0,0:0:0:0:
192,192,101434,1,0,0:0:0:60:snareclap.wav
320,192,101434,1,0,0:0:0:0:
448,192,101434,1,0,0:0:0:0:
192,192,101610,1,0,0:0:0:0:
192,192,101787,1,0,0:0:0:0:
320,192,101787,128,0,101875:0:0:0:0:
448,192,101787,128,0,101875:0:0:0:0:
192,192,101963,1,0,0:0:0:60:bass.wav
64,192,101963,1,0,0:0:0:0:
192,192,102140,1,0,0:0:0:0:
192,192,102316,1,0,0:0:0:0:
192,192,102493,1,0,0:0:0:60:bass.wav
320,192,102493,128,0,102581:0:0:0:0:
448,192,102493,128,0,102581:0:0:0:0:
64,192,102493,1,0,0:0:0:0:
192,192,102669,1,0,0:0:0:0:
320,192,102846,1,0,0:0:0:60:snareclap.wav
448,192,102846,1,0,0:0:0:0:
192,192,103022,1,0,0:0:0:0:
192,192,103199,1,0,0:0:0:0:
320,192,103199,128,0,103287:0:0:0:0:
448,192,103199,128,0,103287:0:0:0:0:
192,192,103375,1,0,0:0:0:0:
320,192,103552,1,0,0:0:0:60:bass.wav
64,192,103552,1,0,0:0:0:0:
192,192,103552,1,0,0:0:0:0:
448,192,103552,1,0,0:0:0:0:
320,192,103728,1,0,0:0:0:0:
320,192,103905,1,0,0:0:0:0:
192,192,103905,128,0,103993:0:0:0:0:
64,192,103905,128,0,103993:0:0:0:0:
320,192,104258,1,0,0:0:0:60:snareclap.wav
192,192,104258,1,0,0:0:0:0:
64,192,104258,1,0,0:0:0:0:
320,192,104434,1,0,0:0:0:0:
320,192,104610,1,0,0:0:0:60:bass.wav
448,192,104610,1,0,0:0:0:0:
192,192,104610,128,0,104699:0:0:0:0:
64,192,104610,128,0,104699:0:0:0:0:
320,192,104787,1,0,0:0:0:0:
320,192,104963,1,0,0:0:0:0:
320,192,105140,1,0,0:0:0:0:
320,192,105316,1,0,0:0:0:60:bass.wav
64,192,105316,128,0,105405:0:0:0:0:
192,192,105316,128,0,105405:0:0:0:0:
448,192,105316,1,0,0:0:0:0:
320,192,105493,1,0,0:0:0:0:
64,192,105669,1,0,0:0:0:60:snareclap.wav
192,192,105669,1,0,0:0:0:0:
320,192,105846,1,0,0:0:0:0:
320,192,106022,1,0,0:0:0:0:
192,192,106022,128,0,106110:0:0:0:0:
64,192,106022,128,0,106110:0:0:0:0:
320,192,106199,1,0,0:0:0:0:
448,192,106375,1,0,0:0:0:60:bass.wav
64,192,106375,1,0,0:0:0:0:
192,192,106375,1,0,0:0:0:0:
320,192,106375,1,0,0:0:0:0:
448,192,106552,1,0,0:0:0:0:
448,192,106728,1,0,0:0:0:0:
192,192,106728,128,0,106816:0:0:0:0:
64,192,106728,128,0,106816:0:0:0:0:
448,192,106905,1,0,0:0:0:0:
448,192,107081,1,0,0:0:0:60:snareclap.wav
64,192,107081,1,0,0:0:0:0:
192,192,107081,1,0,0:0:0:0:
448,192,107258,1,0,0:0:0:0:
448,192,107434,1,0,0:0:0:0:
192,192,107434,128,0,107522:0:0:0:0:
64,192,107434,128,0,107522:0:0:0:0:
448,192,107610,1,0,0:0:0:60:bass.wav
320,192,107610,1,0,0:0:0:0:
448,192,107787,1,0,0:0:0:0:
448,192,107963,1,0,0:0:0:0:
448,192,108140,1,0,0:0:0:60:bass.wav
192,192,108140,128,0,108228:0:0:0:0:
320,192,108140,1,0,0:0:0:0:
64,192,108140,128,0,108228:0:0:0:0:
448,192,108316,1,0,0:0:0:0:
192,192,108493,5,0,0:0:0:40:tick.wav
320,192,108537,1,0,0:0:0:40:tick.wav
448,192,108581,1,0,0:0:0:40:tick.wav
192,192,108669,1,0,0:0:0:40:tick.wav
192,192,108846,1,0,0:0:0:40:tick.wav
192,192,109022,1,0,0:0:0:40:tick.wav
320,192,109199,1,0,0:0:0:60:bass.wav
64,192,109199,1,0,0:0:0:60:cymbal.wav
448,192,109199,1,0,0:0:0:0:
192,192,109199,1,0,0:0:0:0:
320,192,109375,1,0,0:0:0:0:
320,192,109552,1,0,0:0:0:0:
192,192,109552,128,0,109640:0:0:0:0:
64,192,109552,128,0,109640:0:0:0:0:
320,192,109728,1,0,0:0:0:0:
320,192,109905,1,0,0:0:0:60:snareclap.wav
192,192,109905,1,0,0:0:0:0:
64,192,109905,1,0,0:0:0:0:
320,192,110081,1,0,0:0:0:0:
320,192,110258,1,0,0:0:0:60:bass.wav
448,192,110258,1,0,0:0:0:0:
192,192,110258,128,0,110346:0:0:0:0:
64,192,110258,128,0,110346:0:0:0:0:
320,192,110434,1,0,0:0:0:0:
320,192,110610,1,0,0:0:0:0:
320,192,110787,1,0,0:0:0:0:
320,192,110963,1,0,0:0:0:60:bass.wav
192,192,110963,128,0,111052:0:0:0:0:
64,192,110963,128,0,111052:0:0:0:0:
448,192,110963,1,0,0:0:0:0:
320,192,111140,1,0,0:0:0:0:
192,192,111316,1,0,0:0:0:60:snareclap.wav
64,192,111316,1,0,0:0:0:0:
320,192,111493,1,0,0:0:0:0:
320,192,111669,1,0,0:0:0:0:
192,192,111669,128,0,111758:0:0:0:0:
64,192,111669,128,0,111758:0:0:0:0:
320,192,111846,1,0,0:0:0:0:
320,192,112022,1,0,0:0:0:60:bass.wav
448,192,112022,1,0,0:0:0:0:
192,192,112022,1,0,0:0:0:0:
64,192,112022,1,0,0:0:0:0:
64,192,112199,1,0,0:0:0:0:
64,192,112375,1,0,0:0:0:0:
320,192,112375,128,0,112463:0:0:0:0:
448,192,112375,128,0,112463:0:0:0:0:
64,192,112552,1,0,0:0:0:0:
64,192,112728,1,0,0:0:0:60:snareclap.wav
320,192,112728,1,0,0:0:0:0:
448,192,112728,1,0,0:0:0:0:
64,192,112905,1,0,0:0:0:0:
64,192,113081,1,0,0:0:0:0:
320,192,113081,128,0,113169:0:0:0:0:
448,192,113081,128,0,113169:0:0:0:0:
192,192,113258,1,0,0:0:0:60:bass.wav
320,192,113258,1,0,0:0:0:0:
448,192,113258,1,0,0:0:0:0:
64,192,113258,1,0,0:0:0:0:
64,192,113434,1,0,0:0:0:0:
64,192,113610,1,0,0:0:0:0:
64,192,113787,1,0,0:0:0:60:bass.wav
320,192,113787,128,0,113875:0:0:0:0:
448,192,113787,128,0,113875:0:0:0:0:
192,192,113787,1,0,0:0:0:0:
64,192,113963,1,0,0:0:0:0:
320,192,114140,1,0,0:0:0:60:snareclap.wav
448,192,114140,1,0,0:0:0:0:
320,192,114316,1,0,0:0:0:60:bass.wav
448,192,114316,1,0,0:0:0:0:
192,192,114316,1,0,0:0:0:0:
64,192,114316,1,0,0:0:0:0:
64,192,114493,1,0,0:0:0:60:snareclap.wav
320,192,114493,128,0,114581:0:0:0:0:
448,192,114493,128,0,114581:0:0:0:0:
64,192,114669,1,0,0:0:0:0:
192,192,114846,1,0,0:0:0:60:bass.wav
64,192,114846,1,0,0:0:0:0:
320,192,114846,1,0,0:0:0:0:
448,192,114846,1,0,0:0:0:0:
448,192,115022,1,0,0:0:0:0:
448,192,115199,1,0,0:0:0:0:
192,192,115199,128,0,115287:0:0:0:0:
64,192,115199,128,0,115287:0:0:0:0:
448,192,115375,1,0,0:0:0:0:
448,192,115552,1,0,0:0:0:60:snareclap.wav
192,192,115552,1,0,0:0:0:0:
64,192,115552,1,0,0:0:0:0:
448,192,115728,1,0,0:0:0:0:
320,192,115905,1,0,0:0:0:60:bass.wav
448,192,115905,1,0,0:0:0:0:
192,192,115905,128,0,115993:0:0:0:0:
64,192,115905,128,0,115993:0:0:0:0:
448,192,116081,1,0,0:0:0:0:
448,192,116258,1,0,0:0:0:0:
448,192,116434,1,0,0:0:0:0:
192,192,116610,128,0,116699:0:0:0:60:bass.wav
64,192,116610,128,0,116699:0:0:0:0:
320,192,116610,1,0,0:0:0:0:
448,192,116787,1,0,0:0:0:0:
192,192,116963,1,0,0:0:0:60:snareclap.wav
64,192,116963,1,0,0:0:0:0:
448,192,117140,1,0,0:0:0:0:
192,192,117316,128,0,117405:0:0:0:0:
64,192,117316,128,0,117405:0:0:0:0:
448,192,117493,1,0,0:0:0:0:
192,192,117669,1,0,0:0:0:60:bass.wav
64,192,117669,1,0,0:0:0:0:
320,192,117669,1,0,0:0:0:0:
448,192,117669,1,0,0:0:0:0:
192,192,117846,1,0,0:0:0:0:
192,192,118022,1,0,0:0:0:0:
320,192,118022,128,0,118110:0:0:0:0:
448,192,118022,128,0,118110:0:0:0:0:
192,192,118199,1,0,0:0:0:0:
192,192,118375,1,0,0:0:0:60:snareclap.wav
320,192,118375,1,0,0:0:0:0:
448,192,118375,1,0,0:0:0:0:
192,192,118552,1,0,0:0:0:0:
192,192,118728,1,0,0:0:0:0:
320,192,118728,128,0,118816:0:0:0:0:
448,192,118728,128,0,118816:0:0:0:0:
320,192,118905,1,0,0:0:0:60:bass.wav
448,192,118905,1,0,0:0:0:0:
64,192,118905,1,0,0:0:0:0:
192,192,118905,1,0,0:0:0:0:
192,192,119081,1,0,0:0:0:0:
192,192,119258,1,0,0:0:0:0:
192,192,119434,1,0,0:0:0:60:bass.wav
64,192,119434,1,0,0:0:0:0:
320,192,119434,128,0,119522:0:0:0:0:
448,192,119434,128,0,119522:0:0:0:0:
192,192,119610,1,0,0:0:0:0:
192,192,119787,1,0,0:0:0:60:snareclap.wav
320,192,119787,1,0,0:0:0:0:
448,192,119787,1,0,0:0:0:0:
64,192,119963,1,0,0:0:0:60:bass.wav
192,192,119963,1,0,0:0:0:0:
192,192,120140,1,0,0:0:0:60:snareclap.wav
320,192,120140,128,0,120228:0:0:0:0:
448,192,120140,128,0,120228:0:0:0:0:
64,192,120140,1,0,0:0:0:0:
192,192,120493,128,0,120581:0:0:0:60:bass.wav
448,192,120493,1,0,0:0:0:60:cymbal.wav
320,192,120493,1,0,0:0:0:0:
64,192,120493,128,0,120581:0:0:0:0:
192,192,120758,128,0,120846:0:0:0:0:
64,192,120758,128,0,120846:0:0:0:0:
320,192,120846,1,0,0:0:0:60:bass.wav
448,192,120846,1,0,0:0:0:0:
192,192,121022,128,0,121110:0:0:0:40:hihat.wav
64,192,121022,128,0,121110:0:0:0:0:
448,192,121199,128,0,121287:0:0:0:60:bass.wav
320,192,121199,1,0,0:0:0:0:
64,192,121199,1,0,0:0:0:0:
192,192,121375,128,0,121463:0:0:0:40:hihat.wav
448,192,121375,1,0,0:0:0:0:
320,192,121552,128,0,121640:0:0:0:60:bass.wav
192,192,121552,1,0,0:0:0:0:
64,192,121552,1,0,0:0:0:0:
64,192,121728,128,0,121816:0:0:0:40:hihat.wav
320,192,121728,1,0,0:0:0:0:
320,192,121905,128,0,121993:0:0:0:60:bass.wav
64,192,121905,1,0,0:0:0:0:
448,192,121905,128,0,121993:0:0:0:0:
448,192,122169,128,0,122258:0:0:0:0:
320,192,122169,128,0,122258:0:0:0:0:
192,192,122258,1,0,0:0:0:60:bass.wav
64,192,122258,1,0,0:0:0:0:
320,192,122434,128,0,122522:0:0:0:40:hihat.wav
448,192,122434,128,0,122522:0:0:0:0:
192,192,122610,128,0,122699:0:0:0:60:bass.wav
64,192,122610,1,0,0:0:0:0:
448,192,122610,1,0,0:0:0:0:
64,192,122787,128,0,122875:0:0:0:40:hihat.wav
192,192,122787,1,0,0:0:0:0:
448,192,122963,128,0,123052:0:0:0:60:bass.wav
64,192,122963,1,0,0:0:0:0:
320,192,122963,1,0,0:0:0:0:
320,192,123140,128,0,123228:0:0:0:40:hihat.wav
448,192,123140,1,0,0:0:0:0:
192,192,123316,128,0,123405:0:0:0:60:bass.wav
64,192,123316,128,0,123405:0:0:0:0:
448,192,123316,1,0,0:0:0:0:
192,192,123581,128,0,123669:0:0:0:0:
64,192,123581,128,0,123669:0:0:0:0:
320,192,123669,1,0,0:0:0:60:bass.wav
448,192,123669,1,0,0:0:0:0:
192,192,123846,128,0,123934:0:0:0:40:hihat.wav
64,192,123846,128,0,123934:0:0:0:0:
448,192,124022,128,0,124110:0:0:0:60:bass.wav
64,192,124022,1,0,0:0:0:0:
192,192,124022,1,0,0:0:0:0:
192,192,124199,128,0,124287:0:0:0:40:hihat.wav
448,192,124199,1,0,0:0:0:0:
320,192,124375,128,0,124463:0:0:0:60:bass.wav
192,192,124375,1,0,0:0:0:0:
64,192,124375,1,0,0:0:0:0:
64,192,124552,128,0,124640:0:0:0:40:hihat.wav
448,192,124552,1,0,0:0:0:0:
320,192,124728,128,0,124816:0:0:0:60:bass.wav
448,192,124728,128,0,124816:0:0:0:0:
64,192,124728,1,0,0:0:0:0:
320,192,124993,128,0,125081:0:0:0:0:
448,192,124993,128,0,125081:0:0:0:0:
192,192,125081,1,0,0:0:0:60:bass.wav
64,192,125081,1,0,0:0:0:0:
320,192,125258,128,0,125346:0:0:0:40:hihat.wav
448,192,125258,128,0,125346:0:0:0:0:
320,192,125434,128,0,125522:0:0:0:60:bass.wav
192,192,125434,1,0,0:0:0:0:
448,192,125434,1,0,0:0:0:0:
64,192,125610,128,0,125699:0:0:0:40:hihat.wav
192,192,125610,1,0,0:0:0:0:
448,192,125787,128,0,125875:0:0:0:60:bass.wav
64,192,125787,1,0,0:0:0:0:
320,192,125787,1,0,0:0:0:0:
192,192,125963,128,0,126052:0:0:0:40:hihat.wav
320,192,125963,1,0,0:0:0:0:
192,192,126140,128,0,126228:0:0:0:60:bass.wav
64,192,126140,128,0,126228:0:0:0:0:
448,192,126140,1,0,0:0:0:0:
448,192,126405,1,0,0:0:0:0:
320,192,126405,1,0,0:0:0:0:
320,192,126493,1,0,0:0:0:60:snare.wav
448,192,126493,1,0,0:0:0:0:
64,192,126493,1,0,0:0:0:0:
320,192,126669,128,0,126758:0:0:0:40:hihat.wav
448,192,126669,128,0,126758:0:0:0:0:
320,192,126846,128,0,126934:0:0:0:60:bass.wav
64,192,126846,1,0,0:0:0:0:
192,192,126846,1,0,0:0:0:0:
448,192,127022,128,0,127110:0:0:0:40:hihat.wav
192,192,127022,1,0,0:0:0:0:
64,192,127199,128,0,127287:0:0:0:60:snare.wav
320,192,127199,1,0,0:0:0:0:
448,192,127199,1,0,0:0:0:0:
192,192,127375,128,0,127463:0:0:0:40:hihat.wav
320,192,127375,1,0,0:0:0:0:
320,192,127552,128,0,127640:0:0:0:60:bass.wav
64,192,127552,128,0,127640:0:0:0:0:
448,192,127552,1,0,0:0:0:0:
64,192,127816,1,0,0:0:0:0:
320,192,127816,1,0,0:0:0:0:
320,192,127905,1,0,0:0:0:60:snare.wav
448,192,127905,1,0,0:0:0:0:
64,192,127905,1,0,0:0:0:0:
64,192,128081,128,0,128169:0:0:0:40:hihat.wav
320,192,128081,128,0,128169:0:0:0:0:
448,192,128258,128,0,128346:0:0:0:60:bass.wav
192,192,128258,1,0,0:0:0:0:
64,192,128258,1,0,0:0:0:0:
192,192,128434,128,0,128522:0:0:0:40:hihat.wav
448,192,128434,1,0,0:0:0:0:
320,192,128610,128,0,128699:0:0:0:60:snare.wav
192,192,128610,1,0,0:0:0:0:
64,192,128610,1,0,0:0:0:0:
64,192,128787,128,0,128875:0:0:0:40:hihat.wav
448,192,128787,1,0,0:0:0:0:
192,192,128963,128,0,129052:0:0:0:60:bass.wav
448,192,128963,128,0,129052:0:0:0:0:
64,192,128963,1,0,0:0:0:0:
448,192,129228,1,0,0:0:0:0:
192,192,129228,1,0,0:0:0:0:
192,192,129316,1,0,0:0:0:60:snare.wav
448,192,129316,1,0,0:0:0:0:
64,192,129316,1,0,0:0:0:0:
192,192,129493,128,0,129581:0:0:0:40:hihat.wav
448,192,129493,128,0,129581:0:0:0:0:
64,192,129669,128,0,129758:0:0:0:60:bass.wav
320,192,129669,1,0,0:0:0:0:
448,192,129669,1,0,0:0:0:0:
192,192,129846,128,0,129934:0:0:0:40:hihat.wav
448,192,129846,1,0,0:0:0:0:
320,192,130022,128,0,130110:0:0:0:60:snare.wav
192,192,130022,1,0,0:0:0:0:
64,192,130022,1,0,0:0:0:0:
448,192,130199,128,0,130287:0:0:0:40:hihat.wav
320,192,130199,1,0,0:0:0:0:
192,192,130375,1,0,0:0:0:20:kick-a.wav
192,192,130552,1,0,0:0:0:20:kick-a.wav
320,192,130728,1,0,0:0:0:20:snare-a.wav
320,192,130905,1,0,0:0:0:20:snare-a.wav
320,192,130993,1,0,0:0:0:20:snare-a.wav
192,192,131081,1,0,0:0:0:20:kick-a.wav
320,192,131169,1,0,0:0:0:20:snare-a.wav
320,192,131258,1,0,0:0:0:20:snare-a.wav
320,192,131434,1,0,0:0:0:20:snare-a.wav
448,192,131655,1,0,0:0:0:0:
320,192,131699,1,0,0:0:0:0:
192,192,131743,1,0,0:0:0:0:
320,192,131787,128,0,133199:0:0:0:0:
64,192,131787,1,0,0:0:0:0:
192,192,131963,128,0,132316:0:0:0:0:
64,192,132316,1,0,0:0:0:0:
192,192,132493,128,0,132846:0:0:0:0:
64,192,132846,1,0,0:0:0:0:
192,192,133022,128,0,133375:0:0:0:0:
64,192,133199,128,0,134610:0:0:0:0:
448,192,133199,1,0,0:0:0:0:
320,192,133375,1,0,0:0:0:0:
192,192,133552,1,0,0:0:0:0:
320,192,133728,1,0,0:0:0:0:
448,192,133905,1,0,0:0:0:0:
320,192,134258,128,0,134610:0:0:0:0:
448,192,134610,128,0,136022:0:0:0:0:
192,192,134610,1,0,0:0:0:0:
320,192,134787,128,0,135140:0:0:0:0:
192,192,135140,1,0,0:0:0:0:
320,192,135316,128,0,135669:0:0:0:0:
192,192,135669,1,0,0:0:0:0:
320,192,135846,128,0,136199:0:0:0:0:
192,192,136022,128,0,136728:0:0:0:0:
64,192,136022,1,0,0:0:0:0:
448,192,136199,1,0,0:0:0:0:
448,192,136375,1,0,0:0:0:0:
64,192,136552,1,0,0:0:0:0:
320,192,136728,128,0,137434:0:0:0:0:
448,192,136728,1,0,0:0:0:0:
64,192,136905,1,0,0:0:0:0:
64,192,137081,1,0,0:0:0:0:
448,192,137258,1,0,0:0:0:0:
448,192,137434,128,0,138846:0:0:0:0:
64,192,137434,1,0,0:0:0:0:
320,192,137963,1,0,0:0:0:0:
64,192,138140,128,0,138316:0:0:0:0:
192,192,138493,128,0,138669:0:0:0:0:
64,192,138846,128,0,139552:0:0:0:0:
320,192,138846,128,0,139022:0:0:0:0:
192,192,138846,1,0,0:0:0:0:
448,192,139199,128,0,139375:0:0:0:0:
192,192,139552,128,0,140258:0:0:0:0:
448,192,139552,128,0,139728:0:0:0:0:
320,192,139552,1,0,0:0:0:0:
64,192,139905,128,0,140081:0:0:0:0:
320,192,140258,128,0,141669:0:0:0:0:
64,192,140258,128,0,140434:0:0:0:0:
448,192,140258,1,0,0:0:0:0:
448,192,140610,128,0,140787:0:0:0:0:
64,192,140963,128,0,141140:0:0:0:0:
448,192,141316,1,0,0:0:0:0:
192,192,141493,128,0,141846:0:0:0:0:
64,192,141669,128,0,142375:0:0:0:0:
448,192,141669,1,0,0:0:0:0:
320,192,141846,1,0,0:0:0:0:
192,192,142022,1,0,0:0:0:0:
320,192,142199,128,0,142552:0:0:0:0:
448,192,142375,128,0,143081:0:0:0:0:
192,192,142375,1,0,0:0:0:0:
64,192,142552,1,0,0:0:0:0:
320,192,142728,1,0,0:0:0:0:
192,192,143081,5,0,0:0:0:50:bass.wav
64,192,143081,1,0,0:0:0:50:hihat.wav
320,192,143081,1,0,0:0:0:0:
192,192,143434,1,0,0:0:0:50:tock.wav
448,192,143434,1,0,0:0:0:0:
320,192,143787,1,0,0:0:0:50:hihat.wav
192,192,143963,1,0,0:0:0:50:bass.wav
64,192,143963,1,0,0:0:0:0:
192,192,144140,1,0,0:0:0:50:tock.wav
448,192,144140,1,0,0:0:0:0:
320,192,144493,1,0,0:0:0:50:bass.wav
64,192,144493,1,0,0:0:0:50:hihat.wav
192,192,144493,1,0,0:0:0:0:
448,192,144846,1,0,0:0:0:50:tock.wav
192,192,144846,1,0,0:0:0:0:
320,192,145199,1,0,0:0:0:50:hihat.wav
64,192,145375,1,0,0:0:0:50:bass.wav
192,192,145375,1,0,0:0:0:0:
448,192,145552,1,0,0:0:0:50:tock.wav
192,192,145552,1,0,0:0:0:0:
448,192,145728,1,0,0:0:0:50:kick-a.wav
64,192,145728,1,0,0:0:0:0:
192,192,145905,1,0,0:0:0:50:bass.wav
64,192,145905,1,0,0:0:0:50:hihat.wav
320,192,145905,1,0,0:0:0:0:
192,192,146258,1,0,0:0:0:50:tock.wav
448,192,146258,1,0,0:0:0:0:
320,192,146610,1,0,0:0:0:50:hihat.wav
192,192,146787,1,0,0:0:0:50:bass.wav
64,192,146787,1,0,0:0:0:0:
192,192,146963,1,0,0:0:0:50:tock.wav
448,192,146963,1,0,0:0:0:0:
320,192,147316,1,0,0:0:0:50:bass.wav
64,192,147316,1,0,0:0:0:50:hihat.wav
192,192,147316,1,0,0:0:0:0:
448,192,147669,1,0,0:0:0:50:tock.wav
192,192,147669,1,0,0:0:0:0:
320,192,148022,1,0,0:0:0:50:hihat.wav
64,192,148199,1,0,0:0:0:50:bass.wav
192,192,148199,1,0,0:0:0:0:
448,192,148375,1,0,0:0:0:50:tock.wav
192,192,148375,1,0,0:0:0:0:
448,192,148552,1,0,0:0:0:50:kick-a.wav
64,192,148552,1,0,0:0:0:0:
448,192,148640,1,0,0:0:0:50:kick-a.wav
192,192,148728,1,0,0:0:0:50:bass.wav
64,192,148728,1,0,0:0:0:50:hihat.wav
320,192,148728,1,0,0:0:0:0:
192,192,149081,1,0,0:0:0:50:tock.wav
448,192,149081,1,0,0:0:0:0:
320,192,149434,1,0,0:0:0:50:hihat.wav
192,192,149610,1,0,0:0:0:50:bass.wav
64,192,149610,1,0,0:0:0:0:
192,192,149787,1,0,0:0:0:50:tock.wav
448,192,149787,1,0,0:0:0:0:
320,192,150140,1,0,0:0:0:50:bass.wav
64,192,150140,1,0,0:0:0:50:hihat.wav
192,192,150140,1,0,0:0:0:0:
448,192,150493,1,0,0:0:0:50:tock.wav
192,192,150493,1,0,0:0:0:0:
64,192,151552,1,0,0:0:0:60:cymbal.wav
192,192,151552,128,0,151728:0:0:0:60:bass.wav
320,192,151552,128,0,151640:0:0:0:0:
448,192,151552,128,0,151640:0:0:0:0:
448,192,151728,128,0,151905:0:0:0:40:hihat.wav
320,192,151905,1,0,0:0:0:60:snare.wav
192,192,151905,1,0,0:0:0:0:
64,192,151905,1,0,0:0:0:0:
192,192,152081,128,0,152258:0:0:0:40:hihat.wav
448,192,152258,128,0,152434:0:0:0:60:bass.wav
320,192,152258,128,0,152346:0:0:0:0:
64,192,152258,128,0,152346:0:0:0:0:
64,192,152434,1,0,0:0:0:40:hihat.wav
192,192,152610,128,0,152787:0:0:0:60:snare.wav
320,192,152610,1,0,0:0:0:0:
448,192,152610,1,0,0:0:0:0:
448,192,152787,128,0,152963:0:0:0:40:hihat.wav
192,192,152963,128,0,153052:0:0:0:60:bass.wav
64,192,152963,128,0,153052:0:0:0:0:
320,192,152963,1,0,0:0:0:0:
448,192,153140,128,0,153228:0:0:0:40:hihat.wav
320,192,153140,1,0,0:0:0:0:
448,192,153316,128,0,153405:0:0:0:60:snare.wav
64,192,153316,1,0,0:0:0:0:
192,192,153316,1,0,0:0:0:0:
64,192,153493,128,0,153581:0:0:0:40:hihat.wav
192,192,153493,1,0,0:0:0:0:
64,192,153669,128,0,153758:0:0:0:60:bass.wav
320,192,153669,128,0,153758:0:0:0:0:
448,192,153669,128,0,153758:0:0:0:0:
448,192,153846,1,0,0:0:0:40:hihat.wav
192,192,154022,128,0,154110:0:0:0:60:snare.wav
64,192,154022,1,0,0:0:0:0:
320,192,154022,1,0,0:0:0:0:
448,192,154199,1,0,0:0:0:40:hihat.wav
448,192,154375,128,0,154552:0:0:0:60:bass.wav
64,192,154375,128,0,154463:0:0:0:0:
192,192,154375,128,0,154463:0:0:0:0:
192,192,154552,128,0,154728:0:0:0:40:hihat.wav
320,192,154728,128,0,154816:0:0:0:60:snare.wav
448,192,154728,128,0,154816:0:0:0:0:
64,192,154728,1,0,0:0:0:0:
320,192,154905,128,0,155081:0:0:0:40:hihat.wav
192,192,155081,128,0,155258:0:0:0:60:bass.wav
64,192,155081,128,0,155169:0:0:0:0:
448,192,155081,128,0,155169:0:0:0:0:
448,192,155258,1,0,0:0:0:40:hihat.wav
320,192,155434,128,0,155610:0:0:0:60:snare.wav
192,192,155434,128,0,155522:0:0:0:0:
64,192,155434,128,0,155522:0:0:0:0:
64,192,155610,128,0,155787:0:0:0:40:hihat.wav
320,192,155787,128,0,155875:0:0:0:60:bass.wav
448,192,155787,128,0,155875:0:0:0:0:
192,192,155963,128,0,156052:0:0:0:40:hihat.wav
64,192,155963,1,0,0:0:0:0:
192,192,156140,128,0,156228:0:0:0:60:snare.wav
64,192,156140,1,0,0:0:0:0:
448,192,156140,1,0,0:0:0:0:
320,192,156316,128,0,156405:0:0:0:40:hihat.wav
448,192,156316,1,0,0:0:0:0:
320,192,156493,128,0,156581:0:0:0:60:bass.wav
192,192,156493,128,0,156581:0:0:0:0:
64,192,156493,128,0,156581:0:0:0:0:
448,192,156669,128,0,156758:0:0:0:40:hihat.wav
192,192,156669,1,0,0:0:0:0:
192,192,156846,128,0,156934:0:0:0:60:snare.wav
320,192,156846,128,0,156934:0:0:0:0:
448,192,156846,128,0,156934:0:0:0:0:
64,192,157022,128,0,157110:0:0:0:40:hihat.wav
320,192,157022,1,0,0:0:0:0:
64,192,157199,128,0,157287:0:0:0:60:bass.wav
192,192,157199,128,0,157287:0:0:0:0:
448,192,157199,128,0,157463:0:0:0:0:
64,192,157375,1,0,0:0:0:40:hihat.wav
320,192,157552,128,0,157816:0:0:0:60:snare.wav
192,192,157552,1,0,0:0:0:0:
448,192,157552,1,0,0:0:0:0:
64,192,157728,1,0,0:0:0:40:hihat.wav
192,192,157905,128,0,158169:0:0:0:60:bass.wav
320,192,157905,128,0,157993:0:0:0:0:
448,192,157905,128,0,157993:0:0:0:0:
448,192,158081,1,0,0:0:0:40:hihat.wav
320,192,158258,1,0,0:0:0:60:snare.wav
192,192,158258,1,0,0:0:0:0:
64,192,158258,128,0,158522:0:0:0:0:
448,192,158434,1,0,0:0:0:40:hihat.wav
320,192,158610,128,0,158875:0:0:0:60:bass.wav
192,192,158610,128,0,158699:0:0:0:0:
64,192,158610,128,0,158699:0:0:0:0:
64,192,158787,1,0,0:0:0:40:hihat.wav
192,192,158963,128,0,159228:0:0:0:60:snare.wav
320,192,158963,128,0,159052:0:0:0:0:
448,192,158963,128,0,159052:0:0:0:0:
448,192,159140,1,0,0:0:0:40:hihat.wav
448,192,159316,128,0,159581:0:0:0:60:bass.wav
192,192,159316,128,0,159405:0:0:0:0:
320,192,159316,128,0,159405:0:0:0:0:
64,192,159493,1,0,0:0:0:40:hihat.wav
320,192,159669,128,0,159934:0:0:0:60:snare.wav
192,192,159669,128,0,159758:0:0:0:0:
64,192,159669,128,0,159758:0:0:0:0:
448,192,159846,1,0,0:0:0:40:hihat.wav
192,192,160022,128,0,160287:0:0:0:60:bass.wav
320,192,160022,128,0,160110:0:0:0:0:
448,192,160022,128,0,160110:0:0:0:0:
320,192,160199,1,0,0:0:0:40:hihat.wav
64,192,160375,128,0,160640:0:0:0:60:snare.wav
320,192,160375,128,0,160463:0:0:0:0:
448,192,160375,128,0,160463:0:0:0:0:
192,192,160552,1,0,0:0:0:40:hihat.wav
448,192,160728,128,0,160993:0:0:0:60:bass.wav
192,192,160728,128,0,160816:0:0:0:0:
64,192,160728,128,0,160816:0:0:0:0:
64,192,160905,1,0,0:0:0:40:hihat.wav
320,192,161081,128,0,161169:0:0:0:60:snare.wav
448,192,161081,128,0,161169:0:0:0:0:
192,192,161081,128,0,161258:0:0:0:0:
320,192,161258,128,0,161434:0:0:0:40:hihat.wav
64,192,161434,128,0,161522:0:0:0:60:bass.wav
192,192,161434,128,0,161522:0:0:0:0:
448,192,161434,1,0,0:0:0:0:
448,192,161610,128,0,161699:0:0:0:40:hihat.wav
192,192,161787,128,0,161875:0:0:0:60:snare.wav
320,192,161787,1,0,0:0:0:0:
64,192,161787,1,0,0:0:0:0:
448,192,161963,128,0,162052:0:0:0:40:hihat.wav
320,192,162140,128,0,162228:0:0:0:60:bass.wav
448,192,162140,128,0,162228:0:0:0:0:
64,192,162140,1,0,0:0:0:0:
192,192,162228,1,0,0:0:0:0:
320,192,162316,1,0,0:0:0:40:hihat.wav
64,192,162493,1,0,0:0:0:60:snare.wav
192,192,162493,1,0,0:0:0:60:drum.wav
448,192,162581,1,0,0:0:0:60:drum.wav
320,192,162581,1,0,0:0:0:0:
64,192,162669,1,0,0:0:0:40:hihat.wav
192,192,162669,1,0,0:0:0:60:drum.wav
448,192,162758,1,0,0:0:0:60:drum.wav
320,192,162758,1,0,0:0:0:0:
192,192,162846,128,0,162934:0:0:0:60:cymbal.wav
320,192,162846,128,0,162934:0:0:0:60:bass.wav
448,192,162846,128,0,162934:0:0:0:0:
64,192,162846,128,0,163022:0:0:0:0:
320,192,163199,128,0,163287:0:0:0:60:snare.wav
64,192,163199,1,0,0:0:0:0:
192,192,163199,128,0,163287:0:0:0:0:
448,192,163375,128,0,163552:0:0:0:40:hihat.wav
320,192,163552,128,0,163728:0:0:0:60:bass.wav
192,192,163552,128,0,163640:0:0:0:0:
64,192,163552,128,0,163640:0:0:0:0:
192,192,163728,128,0,163905:0:0:0:40:hihat.wav
448,192,163905,1,0,0:0:0:60:snare.wav
320,192,163905,1,0,0:0:0:0:
64,192,163905,1,0,0:0:0:0:
192,192,164081,128,0,164169:0:0:0:40:hihat.wav
320,192,164081,1,0,0:0:0:0:
192,192,164258,128,0,164346:0:0:0:60:bass.wav
64,192,164258,128,0,164346:0:0:0:0:
448,192,164258,128,0,164346:0:0:0:0:
320,192,164434,128,0,164522:0:0:0:40:hihat.wav
320,192,164610,128,0,164699:0:0:0:60:snare.wav
192,192,164610,128,0,164699:0:0:0:0:
448,192,164610,1,0,0:0:0:0:
64,192,164787,128,0,164875:0:0:0:40:hihat.wav
320,192,164963,128,0,165052:0:0:0:60:bass.wav
448,192,164963,128,0,165052:0:0:0:0:
192,192,165140,128,0,165228:0:0:0:40:hihat.wav
320,192,165316,128,0,165405:0:0:0:60:snare.wav
64,192,165316,1,0,0:0:0:0:
448,192,165316,1,0,0:0:0:0:
192,192,165493,128,0,165581:0:0:0:40:hihat.wav
320,192,165669,128,0,165758:0:0:0:60:bass.wav
448,192,165669,128,0,165758:0:0:0:0:
64,192,165669,1,0,0:0:0:0:
64,192,165846,128,0,165934:0:0:0:40:hihat.wav
64,192,166022,128,0,166287:0:0:0:0:
320,192,166022,128,0,166110:0:0:0:60:snare.wav
448,192,166022,128,0,166110:0:0:0:0:
192,192,166199,128,0,166287:0:0:0:40:hihat.wav
64,192,166375,128,0,166463:0:0:0:60:bass.wav
448,192,166375,128,0,166463:0:0:0:0:
192,192,166375,1,0,0:0:0:0:
320,192,166552,128,0,166640:0:0:0:40:hihat.wav
64,192,166728,128,0,166816:0:0:0:60:snare.wav
192,192,166728,128,0,166816:0:0:0:0:
320,192,166728,128,0,166993:0:0:0:0:
448,192,166905,128,0,166993:0:0:0:40:hihat.wav
192,192,167081,128,0,167169:0:0:0:60:bass.wav
64,192,167081,128,0,167169:0:0:0:0:
448,192,167081,1,0,0:0:0:0:
320,192,167258,128,0,167346:0:0:0:40:hihat.wav
320,192,167434,128,0,167522:0:0:0:60:snare.wav
448,192,167434,1,0,0:0:0:0:
64,192,167434,1,0,0:0:0:0:
192,192,167610,1,0,0:0:0:40:hihat.wav
320,192,167787,128,0,167875:0:0:0:60:bass.wav
448,192,167787,128,0,167875:0:0:0:0:
64,192,167787,128,0,167875:0:0:0:0:
320,192,167963,128,0,168052:0:0:0:40:hihat.wav
192,192,168140,128,0,168228:0:0:0:60:snare.wav
448,192,168140,128,0,168228:0:0:0:0:
64,192,168140,128,0,168228:0:0:0:0:
320,192,168316,128,0,168405:0:0:0:40:hihat.wav
192,192,168493,128,0,168581:0:0:0:60:bass.wav
64,192,168493,128,0,168581:0:0:0:0:
448,192,168493,128,0,168758:0:0:0:0:
192,192,168669,1,0,0:0:0:40:hihat.wav
320,192,168846,128,0,169110:0:0:0:60:snare.wav
64,192,168846,1,0,0:0:0:0:
448,192,168846,1,0,0:0:0:0:
64,192,169022,1,0,0:0:0:40:hihat.wav
192,192,169199,128,0,169287:0:0:0:60:bass.wav
448,192,169199,128,0,169287:0:0:0:0:
64,192,169199,128,0,169463:0:0:0:0:
448,192,169375,1,0,0:0:0:40:hihat.wav
192,192,169552,128,0,169816:0:0:0:60:snare.wav
320,192,169552,1,0,0:0:0:0:
64,192,169552,1,0,0:0:0:0:
320,192,169728,1,0,0:0:0:40:hihat.wav
320,192,169905,128,0,169993:0:0:0:60:bass.wav
64,192,169905,128,0,169993:0:0:0:0:
448,192,169905,128,0,170169:0:0:0:0:
64,192,170081,1,0,0:0:0:40:hihat.wav
320,192,170258,128,0,170522:0:0:0:60:snare.wav
192,192,170258,1,0,0:0:0:0:
448,192,170258,1,0,0:0:0:0:
192,192,170434,1,0,0:0:0:40:hihat.wav
320,192,170610,128,0,170699:0:0:0:60:bass.wav
448,192,170610,128,0,170699:0:0:0:0:
192,192,170610,128,0,170875:0:0:0:0:
320,192,170787,1,0,0:0:0:40:hihat.wav
64,192,170963,128,0,171228:0:0:0:60:snare.wav
448,192,170963,1,0,0:0:0:0:
192,192,170963,1,0,0:0:0:0:
448,192,171140,1,0,0:0:0:40:hihat.wav
320,192,171316,128,0,171934:0:0:0:60:cymbal.wav
192,192,171316,128,0,171405:0:0:0:60:bass.wav
64,192,171316,128,0,171405:0:0:0:0:
448,192,171316,1,0,0:0:0:0:
192,192,171493,1,0,0:0:0:40:hihat.wav
448,192,171669,1,0,0:0:0:60:snare.wav
192,192,171669,1,0,0:0:0:0:
64,192,171669,1,0,0:0:0:0:
448,192,171846,1,0,0:0:0:40:hihat.wav
320,192,172022,128,0,172110:0:0:0:60:bass.wav
448,192,172022,128,0,172110:0:0:0:0:
192,192,172022,128,0,172640:0:0:0:0:
64,192,172199,1,0,0:0:0:40:hihat.wav
320,192,172375,1,0,0:0:0:60:snare.wav
64,192,172375,1,0,0:0:0:0:
448,192,172375,1,0,0:0:0:0:
320,192,172552,1,0,0:0:0:40:hihat.wav
448,192,172728,128,0,172993:0:0:0:60:bass.wav
64,192,172728,128,0,172816:0:0:0:0:
320,192,172728,128,0,172816:0:0:0:0:
64,192,172905,1,0,0:0:0:40:hihat.wav
448,192,173081,128,0,173169:0:0:0:60:snare.wav
320,192,173081,128,0,173169:0:0:0:0:
64,192,173081,128,0,173346:0:0:0:0:
192,192,173258,1,0,0:0:0:40:hihat.wav
448,192,173434,128,0,173699:0:0:0:60:bass.wav
64,192,173434,128,0,173522:0:0:0:0:
192,192,173434,128,0,173522:0:0:0:0:
320,192,173610,1,0,0:0:0:40:hihat.wav
64,192,173787,128,0,174405:0:0:0:60:snare.wav
448,192,173787,128,0,173875:0:0:0:0:
192,192,173787,128,0,173875:0:0:0:0:
448,192,173963,1,0,0:0:0:40:hihat.wav
320,192,174140,1,0,0:0:0:60:bass.wav
192,192,174140,1,0,0:0:0:0:
448,192,174316,1,0,0:0:0:40:hihat.wav
64,192,174493,128,0,174581:0:0:0:60:snare.wav
192,192,174493,128,0,174581:0:0:0:0:
448,192,174493,128,0,174758:0:0:0:0:
64,192,174669,1,0,0:0:0:40:hihat.wav
192,192,174846,128,0,175110:0:0:0:60:bass.wav
320,192,174846,128,0,174934:0:0:0:0:
448,192,174846,128,0,174934:0:0:0:0:
448,192,175022,1,0,0:0:0:40:hihat.wav
320,192,175199,128,0,175816:0:0:0:60:snare.wav
64,192,175199,128,0,175287:0:0:0:0:
192,192,175199,128,0,175287:0:0:0:0:
64,192,175375,1,0,0:0:0:40:hihat.wav
64,192,175552,1,0,0:0:0:60:bass.wav
192,192,175552,1,0,0:0:0:0:
448,192,175728,1,0,0:0:0:40:hihat.wav
320,192,175905,128,0,175993:0:0:0:60:snare.wav
448,192,175905,128,0,175993:0:0:0:0:
192,192,175905,128,0,176169:0:0:0:0:
320,192,176081,1,0,0:0:0:40:hihat.wav
320,192,176258,128,0,176346:0:0:0:60:bass.wav
64,192,176258,128,0,176522:0:0:0:0:
448,192,176258,128,0,176346:0:0:0:0:
192,192,176434,1,0,0:0:0:40:hihat.wav
192,192,176610,128,0,176699:0:0:0:60:snare.wav
448,192,176610,128,0,176875:0:0:0:0:
64,192,176610,128,0,176699:0:0:0:0:
64,192,176787,1,0,0:0:0:40:hihat.wav
64,192,176963,128,0,177052:0:0:0:60:bass.wav
192,192,176963,128,0,177052:0:0:0:0:
320,192,176963,128,0,177228:0:0:0:0:
448,192,177140,1,0,0:0:0:40:hihat.wav
192,192,177316,128,0,177581:0:0:0:60:snare.wav
320,192,177316,128,0,177405:0:0:0:0:
448,192,177316,128,0,177405:0:0:0:0:
320,192,177493,1,0,0:0:0:40:hihat.wav
320,192,177669,128,0,177934:0:0:0:60:bass.wav
64,192,177669,128,0,177758:0:0:0:0:
192,192,177669,128,0,177758:0:0:0:0:
192,192,177846,1,0,0:0:0:40:hihat.wav
448,192,178022,128,0,178287:0:0:0:60:snare.wav
64,192,178022,128,0,178110:0:0:0:0:
320,192,178022,128,0,178110:0:0:0:0:
64,192,178199,1,0,0:0:0:40:hihat.wav
64,192,178375,128,0,178993:0:0:0:60:bass.wav
320,192,178375,128,0,178463:0:0:0:0:
448,192,178375,128,0,178463:0:0:0:0:
448,192,178552,1,0,0:0:0:40:hihat.wav
192,192,178728,1,0,0:0:0:60:snare.wav
320,192,178728,1,0,0:0:0:0:
448,192,178728,1,0,0:0:0:0:
192,192,178905,1,0,0:0:0:40:hihat.wav
192,192,179081,128,0,179346:0:0:0:60:bass.wav
320,192,179081,128,0,179169:0:0:0:0:
64,192,179081,128,0,179169:0:0:0:0:
320,192,179258,1,0,0:0:0:40:hihat.wav
320,192,179434,128,0,179699:0:0:0:60:snare.wav
192,192,179434,128,0,179522:0:0:0:0:
448,192,179434,128,0,179522:0:0:0:0:
64,192,179610,1,0,0:0:0:40:hihat.wav
448,192,179787,128,0,180052:0:0:0:60:bass.wav
192,192,179787,128,0,179875:0:0:0:0:
64,192,179787,128,0,179875:0:0:0:0:
192,192,179963,1,0,0:0:0:40:hihat.wav
192,192,180140,128,0,180405:0:0:0:60:snare.wav
320,192,180140,128,0,180228:0:0:0:0:
448,192,180140,128,0,180228:0:0:0:0:
320,192,180316,1,0,0:0:0:40:hihat.wav
320,192,180493,128,0,180758:0:0:0:60:bass.wav
192,192,180493,128,0,180581:0:0:0:0:
64,192,180493,128,0,180581:0:0:0:0:
448,192,180669,1,0,0:0:0:40:hihat.wav
64,192,180846,128,0,181110:0:0:0:60:snare.wav
320,192,180846,128,0,180934:0:0:0:0:
448,192,180846,128,0,180934:0:0:0:0:
192,192,181022,1,0,0:0:0:40:hihat.wav
64,192,181199,128,0,181640:0:0:0:60:bass.wav
192,192,181199,128,0,181287:0:0:0:0:
448,192,181199,128,0,181287:0:0:0:0:
320,192,181375,1,0,0:0:0:40:hihat.wav
448,192,181552,1,0,0:0:0:60:snare.wav
192,192,181552,1,0,0:0:0:0:
320,192,181552,1,0,0:0:0:0:
448,192,181728,128,0,182169:0:0:0:40:hihat.wav
320,192,181728,128,0,181816:0:0:0:0:
64,192,181728,128,0,181816:0:0:0:0:
192,192,181905,1,0,0:0:0:60:bass.wav
64,192,181905,1,0,0:0:0:0:
192,192,182081,128,0,182169:0:0:0:40:hihat.wav
192,192,182258,128,0,182346:0:0:0:60:snare.wav
320,192,182258,1,0,0:0:0:0:
448,192,182258,1,0,0:0:0:0:
64,192,182434,128,0,182522:0:0:0:40:hihat.wav
192,192,182610,128,0,182699:0:0:0:60:bass.wav
448,192,182610,1,0,0:0:0:0:
320,192,182787,128,0,182963:0:0:0:40:hihat.wav
64,192,182963,1,0,0:0:0:60:snare.wav
192,192,182963,1,0,0:0:0:0:
448,192,182963,1,0,0:0:0:0:
64,192,183140,128,0,183228:0:0:0:40:hihat.wav
192,192,183316,128,0,183405:0:0:0:60:bass.wav
320,192,183316,1,0,0:0:0:0:
448,192,183316,1,0,0:0:0:0:
320,192,183493,128,0,183669:0:0:0:40:hihat.wav
192,192,183669,1,0,0:0:0:60:snare.wav
64,192,183669,1,0,0:0:0:0:
448,192,183669,1,0,0:0:0:0:
192,192,183846,128,0,183934:0:0:0:40:hihat.wav
64,192,184022,128,0,184110:0:0:0:60:bass.wav
192,192,184022,128,0,184110:0:0:0:0:
448,192,184022,128,0,184110:0:0:0:0:
320,192,184199,128,0,184287:0:0:0:40:hihat.wav
320,192,184375,128,0,184463:0:0:0:60:snare.wav
448,192,184375,1,0,0:0:0:0:
64,192,184375,1,0,0:0:0:0:
64,192,184552,128,0,184640:0:0:0:40:hihat.wav
64,192,184728,128,0,184816:0:0:0:60:bass.wav
320,192,184728,1,0,0:0:0:0:
192,192,184728,128,0,184816:0:0:0:0:
448,192,184905,128,0,184993:0:0:0:40:hihat.wav
320,192,185081,128,0,185169:0:0:0:60:snare.wav
64,192,185081,128,0,185346:0:0:0:0:
448,192,185081,128,0,185169:0:0:0:0:
320,192,185258,128,0,185346:0:0:0:40:hihat.wav
448,192,185258,128,0,185522:0:0:0:0:
192,192,185258,128,0,185346:0:0:0:0:
192,192,185434,128,0,185522:0:0:0:60:bass.wav
64,192,185434,128,0,185522:0:0:0:0:
448,192,185610,128,0,185699:0:0:0:40:hihat.wav
320,192,185787,128,0,185875:0:0:0:60:snare.wav
64,192,185787,128,0,186052:0:0:0:0:
448,192,185787,128,0,185875:0:0:0:0:
448,192,185963,128,0,186228:0:0:0:0:
320,192,185963,128,0,186052:0:0:0:40:hihat.wav
192,192,185963,128,0,186052:0:0:0:0:
64,192,186140,128,0,186228:0:0:0:60:bass.wav
192,192,186140,128,0,186228:0:0:0:0:
448,192,186316,128,0,186405:0:0:0:40:hihat.wav
320,192,186493,128,0,186581:0:0:0:60:snare.wav
64,192,186493,128,0,186758:0:0:0:0:
448,192,186493,128,0,186581:0:0:0:0:
320,192,186669,128,0,186758:0:0:0:40:hihat.wav
448,192,186669,128,0,186934:0:0:0:0:
192,192,186669,128,0,186758:0:0:0:0:
64,192,186846,128,0,186934:0:0:0:60:bass.wav
192,192,186846,128,0,186934:0:0:0:0:
320,192,187022,128,0,187110:0:0:0:40:hihat.wav
64,192,187199,1,0,0:0:0:60:snare.wav
192,192,187199,1,0,0:0:0:0:
448,192,187199,128,0,187287:0:0:0:0:
320,192,187375,1,0,0:0:0:40:hihat.wav
192,192,187552,128,0,187640:0:0:0:60:bass.wav
448,192,187552,128,0,187640:0:0:0:0:
64,192,187552,128,0,187640:0:0:0:0:
192,192,187728,128,0,187816:0:0:0:40:hihat.wav
448,192,187905,128,0,187993:0:0:0:60:snare.wav
320,192,187905,128,0,187993:0:0:0:0:
64,192,187905,128,0,187993:0:0:0:0:
192,192,188081,128,0,188169:0:0:0:40:hihat.wav
64,192,188258,128,0,188346:0:0:0:60:bass.wav
320,192,188258,128,0,188522:0:0:0:0:
448,192,188258,1,0,0:0:0:0:
192,192,188258,128,0,188346:0:0:0:0:
64,192,188434,1,0,0:0:0:40:hihat.wav
448,192,188610,128,0,188875:0:0:0:60:snare.wav
192,192,188610,1,0,0:0:0:0:
320,192,188610,1,0,0:0:0:0:
64,192,188787,1,0,0:0:0:40:hihat.wav
448,192,188963,128,0,189052:0:0:0:60:bass.wav
192,192,188963,128,0,189228:0:0:0:0:
64,192,188963,1,0,0:0:0:0:
320,192,188963,128,0,189052:0:0:0:0:
448,192,189140,1,0,0:0:0:40:hihat.wav
64,192,189316,128,0,189405:0:0:0:60:snare.wav
320,192,189316,128,0,189581:0:0:0:0:
192,192,189316,128,0,189405:0:0:0:0:
64,192,189493,1,0,0:0:0:40:hihat.wav
64,192,189669,128,0,189934:0:0:0:60:bass.wav
320,192,189669,128,0,189758:0:0:0:0:
448,192,189669,128,0,189758:0:0:0:0:
192,192,189669,1,0,0:0:0:0:
320,192,189846,1,0,0:0:0:40:hihat.wav
448,192,190022,1,0,0:0:0:60:snare.wav
192,192,190022,128,0,190287:0:0:0:0:
64,192,190022,1,0,0:0:0:0:
448,192,190199,1,0,0:0:0:40:hihat.wav
320,192,190375,128,0,190640:0:0:0:60:bass.wav
64,192,190375,1,0,0:0:0:0:
64,192,190552,128,0,190728:0:0:0:40:hihat.wav
192,192,190640,128,0,190816:0:0:0:0:
448,192,190728,128,0,190993:0:0:0:0:
320,192,190728,128,0,190905:0:0:0:0:
320,192,191081,128,0,191169:0:0:0:60:cymbal.wav
448,192,191081,128,0,191169:0:0:0:60:bass.wav
64,192,191081,1,0,0:0:0:0:
192,192,191081,1,0,0:0:0:0:
448,192,191346,1,0,0:0:0:0:
320,192,191346,1,0,0:0:0:0:
320,192,191434,1,0,0:0:0:60:snare.wav
448,192,191434,1,0,0:0:0:0:
64,192,191434,1,0,0:0:0:0:
320,192,191610,128,0,191699:0:0:0:40:hihat.wav
448,192,191610,128,0,191699:0:0:0:0:
64,192,191787,1,0,0:0:0:60:bass.wav
192,192,191787,128,0,191875:0:0:0:0:
448,192,191963,128,0,192052:0:0:0:40:hihat.wav
192,192,191963,1,0,0:0:0:0:
320,192,192140,128,0,192228:0:0:0:60:snare.wav
64,192,192140,1,0,0:0:0:0:
448,192,192140,1,0,0:0:0:0:
192,192,192316,128,0,192405:0:0:0:40:hihat.wav
320,192,192316,1,0,0:0:0:0:
64,192,192493,128,0,192581:0:0:0:60:bass.wav
320,192,192493,128,0,192581:0:0:0:0:
448,192,192493,1,0,0:0:0:0:
64,192,192758,1,0,0:0:0:0:
320,192,192758,1,0,0:0:0:0:
320,192,192846,1,0,0:0:0:60:snare.wav
64,192,192846,1,0,0:0:0:0:
448,192,192846,1,0,0:0:0:0:
64,192,193022,128,0,193110:0:0:0:40:hihat.wav
320,192,193022,128,0,193110:0:0:0:0:
448,192,193199,128,0,193287:0:0:0:60:bass.wav
192,192,193199,1,0,0:0:0:0:
64,192,193199,1,0,0:0:0:0:
192,192,193375,128,0,193463:0:0:0:40:hihat.wav
448,192,193375,1,0,0:0:0:0:
320,192,193552,128,0,193640:0:0:0:60:snare.wav
192,192,193552,1,0,0:0:0:0:
64,192,193552,1,0,0:0:0:0:
64,192,193728,128,0,193816:0:0:0:40:hihat.wav
448,192,193728,1,0,0:0:0:0:
192,192,193905,128,0,193993:0:0:0:60:bass.wav
448,192,193905,128,0,193993:0:0:0:0:
320,192,193905,1,0,0:0:0:0:
192,192,194169,1,0,0:0:0:0:
448,192,194169,1,0,0:0:0:0:
192,192,194258,1,0,0:0:0:60:snare.wav
448,192,194258,1,0,0:0:0:0:
64,192,194258,1,0,0:0:0:0:
192,192,194434,128,0,194522:0:0:0:40:hihat.wav
448,192,194434,128,0,194522:0:0:0:0:
64,192,194610,128,0,194699:0:0:0:60:bass.wav
320,192,194610,1,0,0:0:0:0:
448,192,194610,1,0,0:0:0:0:
192,192,194787,128,0,194875:0:0:0:40:hihat.wav
448,192,194787,1,0,0:0:0:0:
320,192,194963,128,0,195052:0:0:0:60:snare.wav
192,192,194963,1,0,0:0:0:0:
64,192,194963,1,0,0:0:0:0:
448,192,195140,128,0,195228:0:0:0:40:hihat.wav
64,192,195140,1,0,0:0:0:0:
192,192,195316,128,0,195405:0:0:0:60:bass.wav
64,192,195316,128,0,195405:0:0:0:0:
448,192,195316,1,0,0:0:0:0:
192,192,195581,1,0,0:0:0:0:
64,192,195581,1,0,0:0:0:0:
64,192,195669,1,0,0:0:0:60:snare.wav
192,192,195669,1,0,0:0:0:0:
448,192,195669,1,0,0:0:0:0:
192,192,195846,128,0,195934:0:0:0:40:hihat.wav
64,192,195846,128,0,195934:0:0:0:0:
448,192,196022,128,0,196110:0:0:0:60:bass.wav
64,192,196022,1,0,0:0:0:0:
320,192,196022,1,0,0:0:0:0:
192,192,196199,128,0,196287:0:0:0:40:hihat.wav
448,192,196199,1,0,0:0:0:0:
320,192,196375,128,0,196463:0:0:0:60:snare.wav
64,192,196375,1,0,0:0:0:0:
192,192,196375,1,0,0:0:0:0:
64,192,196552,128,0,196640:0:0:0:40:hihat.wav
320,192,196552,1,0,0:0:0:0:
448,192,196728,128,0,196816:0:0:0:60:bass.wav
320,192,196728,128,0,196816:0:0:0:0:
64,192,196728,1,0,0:0:0:0:
192,192,196993,1,0,0:0:0:0:
64,192,196993,1,0,0:0:0:0:
192,192,197081,1,0,0:0:0:60:snare.wav
64,192,197081,1,0,0:0:0:0:
448,192,197081,1,0,0:0:0:0:
192,192,197258,128,0,197346:0:0:0:40:hihat.wav
64,192,197258,128,0,197346:0:0:0:0:
320,192,197434,128,0,197610:0:0:0:60:bass.wav
448,192,197434,1,0,0:0:0:0:
64,192,197434,128,0,197522:0:0:0:0:
448,192,197610,128,0,197787:0:0:0:40:hihat.wav
192,192,197610,128,0,197699:0:0:0:0:
64,192,197787,128,0,197963:0:0:0:60:snare.wav
192,192,197787,1,0,0:0:0:0:
320,192,197787,128,0,197875:0:0:0:0:
192,192,197963,128,0,198140:0:0:0:40:hihat.wav
448,192,197963,128,0,198052:0:0:0:0:
448,192,198140,128,0,198228:0:0:0:60:bass.wav
320,192,198140,128,0,198228:0:0:0:0:
64,192,198140,1,0,0:0:0:0:
320,192,198405,1,0,0:0:0:0:
448,192,198405,1,0,0:0:0:0:
320,192,198493,1,0,0:0:0:60:snare.wav
64,192,198493,1,0,0:0:0:0:
448,192,198493,1,0,0:0:0:0:
320,192,198669,128,0,198758:0:0:0:40:hihat.wav
448,192,198669,128,0,198758:0:0:0:0:
64,192,198846,128,0,199022:0:0:0:0:
320,192,198846,128,0,198934:0:0:0:60:bass.wav
192,192,198846,1,0,0:0:0:0:
448,192,199022,128,0,199110:0:0:0:40:hihat.wav
192,192,199022,128,0,199199:0:0:0:0:
64,192,199199,128,0,199287:0:0:0:60:snare.wav
320,192,199199,128,0,199375:0:0:0:0:
448,192,199199,1,0,0:0:0:0:
448,192,199375,128,0,199552:0:0:0:0:
192,192,199375,128,0,199463:0:0:0:40:hihat.wav
64,192,199552,128,0,199728:0:0:0:50:finish.wav
192,192,199552,128,0,199684:0:0:0:0:
320,192,199552,128,0,199640:0:0:0:0:
64,192,199816,128,0,199993:0:0:0:0:
64,192,200081,128,0,200258:0:0:0:0:
448,192,200258,128,0,200434:0:0:0:0:
320,192,200434,128,0,200522:0:0:0:0:
192,192,200434,128,0,200610:0:0:0:0:
64,192,200610,128,0,200699:0:0:0:0:
320,192,200610,128,0,200787:0:0:0:0:
448,192,200787,128,0,200875:0:0:0:0:
64,192,200787,128,0,200963:0:0:0:0:
192,192,200963,128,0,201052:0:0:0:0:
448,192,200963,128,0,201140:0:0:0:0:
448,192,201228,128,0,201405:0:0:0:0:
448,192,201493,128,0,201669:0:0:0:0:
192,192,201493,128,0,201581:0:0:0:0:
64,192,201669,128,0,202199:0:0:0:0:
320,192,201669,128,0,201758:0:0:0:0:
448,192,201846,128,0,202199:0:0:0:0:
320,192,202022,128,0,202375:0:0:0:0:
192,192,202199,128,0,202552:0:0:0:0:
64,192,202375,128,0,202728:0:0:0:60:bass.wav
448,192,202375,1,0,0:0:0:0:
