osu file format v14

[General]
AudioFilename: audio.mp3
AudioLeadIn: 0
PreviewTime: 54822
Countdown: 0
SampleSet: Soft
StackLeniency: 1
Mode: 0
LetterboxInBreaks: 0
WidescreenStoryboard: 1

[Editor]
Bookmarks: 15027,29485,41051,55509,67076,90208,101774,113341,124984,137784,150584,165736,177302,188868,211097
DistanceSpacing: 1.4
BeatDivisor: 4
GridSize: 16
TimelineZoom: 1.9

[Metadata]
Title:Idol
TitleUnicode:アイドル
Artist:YOASOBI
ArtistUnicode:YOASOBI
Creator:iljaaz
Version:zekkoya's Idolless Insane
Source:【推しの子】
Tags:keqing zekk nanoya satonodiamond onk 幾田りら Ikuta Lilas ikura Ayase Japanese Pop J-pop Jpop anime opening op my star oshi no ko mother and children
BeatmapID:4098827
BeatmapSetID:1974878

[Difficulty]
HPDrainRate:4.5
CircleSize:4
OverallDifficulty:8
ApproachRate:9
SliderMultiplier:1.7
SliderTickRate:1

[Events]
//Background and Video events
0,0,"kana.png",0,0
Video,-10,"asddfgd.mp4"
//Break Periods
2,152057,164359
2,188833,192190
//Storyboard Layer 0 (Background)
//Storyboard Layer 1 (Fail)
//Storyboard Layer 2 (Pass)
//Storyboard Layer 3 (Foreground)
//Storyboard Layer 4 (Overlay)
//Storyboard Sound Samples

[TimingPoints]
335,361.44578313253,4,2,2,80,1,0
335,-125,4,2,2,80,0,0
14792,-125,4,2,2,70,0,0
17684,-125,4,2,2,60,0,0
29250,-111.111111111111,4,2,2,80,0,0
40816,-125,4,2,2,60,0,0
46600,-111.111111111111,4,2,2,70,0,0
55274,-99.9999999999999,4,2,2,90,0,1
78407,-111.111111111111,4,2,2,70,0,0
89973,-90.9090909090908,4,2,2,70,0,0
90334,-111.111111111111,4,2,2,70,0,0
96479,-90.9090909090908,4,2,2,70,0,0
96841,-111.111111111111,4,2,2,70,0,0
99009,-76.9230769230769,4,2,2,70,0,0
100094,-90.9090909090909,4,2,2,70,0,0
101539,-100,4,2,2,90,0,1
110937,-100,4,2,2,90,0,0
111479,-100,4,2,2,90,0,1
112383,-100,4,2,2,90,0,0
113106,-100,4,2,2,90,0,1
123949,400,4,2,2,70,1,0
124739,400,4,2,2,70,1,0
124739,-100,4,2,2,70,0,0
137539,-90.9090909090909,4,2,2,80,0,0
149539,-111.111111111111,4,2,2,80,0,0
150339,379.746835443038,4,2,2,80,1,0
151857,-100,4,2,2,60,0,1
151952,-100,4,2,2,60,0,0
164779,361.44578313253,4,2,2,60,1,0
164959,-120.481927710843,4,2,2,60,0,0
165501,361.44578313253,4,2,2,60,1,0
169657,-100,4,2,2,90,0,0
171284,-100,4,2,2,90,0,1
177067,-100,4,2,2,90,0,1
188633,-100,4,2,2,90,0,0
192790,-166.666666666667,4,2,2,90,0,0
193693,-100,4,2,2,90,0,0
194416,-111.111111111111,4,2,2,80,0,0
205982,-125,4,2,2,80,0,0
210862,-100,4,2,2,80,0,0

[Colours]
Combo1 : 249,30,35
Combo2 : 251,129,98
Combo3 : 255,128,255
Combo4 : 255,157,206

[HitObjects]
338,204,335,6,0,L|222:190,1,102,4|0,1:0|0:0,0:0:0:0:
188,252,696,6,0,L|191:275,4,22.6666666666667,2|2|2|2|2,0:3|0:3|0:3|0:3|0:3,0:0:0:0:
143,341,1057,2,0,P|185:306|292:319,1,136,10|2,0:0|0:3,0:0:0:0:
441,329,1600,2,0,L|482:318,2,34,2|0|2,0:0|0:0|1:3,0:0:0:0:
342,374,1961,5,0,0:0:0:0:
342,374,2142,2,0,P|355:313|344:229,1,136,4|10,1:0|0:0,0:0:0:0:
280,160,2684,2,0,L|136:179,1,136,4|2,1:0|0:2,0:0:0:0:
25,121,3226,2,0,P|12:85|19:13,1,102,4|0,1:0|0:0,0:0:0:0:
99,79,3588,6,0,L|137:83,4,22.6666666666667,2|2|2|2|0,0:3|0:3|0:3|0:3|0:0,0:0:0:0:
95,172,3949,2,0,B|103:212|103:212|120:238|120:238|120:276|134:320,1,136,10|2,0:0|0:3,0:0:0:0:
65,353,4491,2,0,L|27:343,2,34,2|0|0,0:0|0:0|1:3,0:0:0:0:
217,328,4853,5,0,0:0:0:0:
217,328,5033,2,0,P|259:301|360:305,1,136,4|8,1:0|0:0,0:0:0:0:
501,162,5575,2,0,L|357:134,1,136,4|2,1:0|0:3,0:0:0:0:
254,44,6118,6,0,L|271:121,1,68,4|0,1:1|0:0,0:0:0:0:
201,192,6479,2,0,L|164:184,4,22.6666666666667,2|2|2|2|2,0:3|0:3|0:3|0:3|0:3,0:0:0:0:
264,263,6841,2,0,P|299:254|333:253,1,68,10|2,0:0|0:3,0:0:0:0:
453,330,7202,1,2,0:3:0:0:
435,221,7383,1,2,0:0:0:0:
435,221,7473,1,0,0:0:0:0:
435,221,7563,2,0,P|430:188|427:145,1,68,2|0,1:3|0:0,0:0:0:0:
296,27,7925,5,4,1:0:0:0:
360,90,8106,2,0,P|394:80|440:74,1,68,0|10,0:0|0:0,0:0:0:0:
290,205,8467,1,4,1:0:0:0:
209,149,8648,2,0,L|216:73,1,68,0|0,0:0|0:1,0:0:0:0:
130,96,9009,2,0,P|80:69|23:72,1,102,4|0,1:0|0:0,0:0:0:0:
47,158,9371,6,0,L|56:196,4,22.6666666666667,2|2|2|2|2,0:3|0:3|0:3|0:3|0:3,0:0:0:0:
0,236,9732,2,0,B|54:224|54:224|74:206|74:206|134:193,1,136,10|2,0:0|0:3,0:0:0:0:
285,250,10274,1,2,0:0:0:0:
285,250,10365,1,0,0:0:0:0:
285,250,10455,2,0,L|364:265,1,68,2|0,1:3|0:0,0:0:0:0:
260,344,10816,5,4,1:0:0:0:
185,262,10997,2,0,P|136:269|99:283,1,68,0|8,0:0|0:0,0:0:0:0:
241,169,11359,2,0,L|261:25,1,136,4|2,1:0|0:3,0:0:0:0:
345,148,11901,6,0,P|377:164|491:158,1,136,4|2,1:0|0:0,0:0:0:0:
161,76,12624,6,0,P|129:60|15:66,1,136,6|2,1:2|0:3,0:0:0:0:
176,243,13166,5,8,1:0:0:0:
330,98,13527,5,8,1:0:0:0:
244,48,13889,5,8,1:0:0:0:
273,273,14070,1,14,0:0:0:0:
373,225,14250,1,0,3:0:0:0:
373,225,14341,1,0,3:0:0:0:
373,225,14431,2,0,P|411:215|449:211,1,68,8|0,0:0|3:0,0:0:0:0:
202,163,14792,6,0,P|154:159|102:125,2,102,4|2|2,1:0|1:0|1:0,0:0:0:0:
317,22,15515,2,0,P|330:81|304:177,1,136,2|2,0:1|0:1,0:0:0:0:
262,226,16057,1,2,1:0:0:0:
391,209,16238,2,0,P|425:201|473:194,1,68,2|0,1:0|0:0,0:0:0:0:
457,195,16509,2,0,P|444:155|433:77,1,102,2|2,1:0|1:0,0:0:0:0:
252,36,16961,6,0,P|285:42|318:51,1,68,0|2,0:0|1:0,0:0:0:0:
169,207,17322,2,0,P|153:163|151:121,1,68,0|2,0:0|1:0,0:0:0:0:
228,333,17684,5,4,1:0:0:0:
76,233,17865,1,2,0:0:0:0:
214,201,18045,1,10,0:0:0:0:
152,283,18226,1,2,0:3:0:0:
35,92,18407,6,0,P|68:129|172:133,1,136,2|8,1:3|0:0,0:0:0:0:
231,54,18949,1,2,0:0:0:0:
356,173,19130,2,0,P|349:214|332:259,1,68,2|2,1:2|0:0,0:0:0:0:
347,62,19491,1,10,0:0:0:0:
456,129,19672,1,2,0:0:0:0:
256,172,19853,2,0,P|201:176|111:194,1,136,2|8,1:2|0:0,0:0:0:0:
53,249,20395,1,2,0:0:0:0:
131,367,20575,2,0,P|146:327|153:290,1,68,2|2,1:2|0:0,0:0:0:0:
287,197,20937,1,10,0:0:0:0:
248,293,21118,1,2,0:0:0:0:
98,157,21298,2,0,P|133:168|189:178,1,68,2|2,1:2|0:0,0:0:0:0:
81,266,21660,2,0,P|50:271|-11:288,1,68,10|0,0:0|0:0,0:0:0:0:
14,279,21931,1,2,0:0:0:0:
14,279,22021,5,2,1:3:0:0:
143,196,22202,1,0,0:0:0:0:
238,362,22383,1,8,0:0:0:0:
169,282,22563,1,2,0:0:0:0:
329,323,22744,2,0,P|409:335|480:372,1,136,2|10,1:2|0:0,0:0:0:0:
380,183,23286,5,2,0:0:0:0:
380,183,23377,1,2,0:0:0:0:
380,183,23467,2,0,P|367:141|362:104,1,68,4|2,1:0|0:0,0:0:0:0:
323,7,23828,1,10,0:0:0:0:
404,36,24009,1,2,0:0:0:0:
249,83,24190,2,0,P|219:88|172:102,1,68,0|0,1:2|0:2,0:2:0:0:
55,264,24551,2,0,P|68:222|73:185,1,68,10|2,0:0|0:3,0:0:0:0:
71,198,24822,1,2,0:3:0:0:
71,198,24913,5,2,1:2:0:0:
263,277,25094,1,2,0:0:0:0:
185,194,25274,1,10,0:0:0:0:
213,356,25455,1,2,0:2:0:0:
417,308,25636,2,0,P|365:275|280:274,1,136,2|10,1:2|0:0,0:0:0:0:
204,311,26178,1,2,0:0:0:0:
63,217,26359,6,0,P|50:179|44:135,1,68,2|0,1:2|0:0,0:0:0:0:
136,33,26720,1,10,0:0:0:0:
254,186,26901,1,2,0:3:0:0:
319,91,27081,1,0,1:0:0:0:
231,108,27262,1,2,0:0:0:0:
328,164,27443,1,10,0:0:0:0:
178,253,27624,5,2,0:0:0:0:
186,261,27714,1,2,0:3:0:0:
186,261,27804,2,0,P|146:265|100:278,1,68,2|0,1:2|0:0,0:0:0:0:
283,200,28166,1,10,0:0:0:0:
262,283,28347,1,2,0:0:0:0:
94,186,28527,2,0,P|96:128|120:68,1,102,0|0,1:0|0:0,0:0:0:0:
183,52,28889,2,0,P|217:63|276:75,1,68,10|0,0:0|0:0,0:0:0:0:
378,206,29250,6,0,P|410:196|454:190,1,76.4999976654053,4|0,1:0|0:0,0:0:0:0:
452,190,29521,1,2,0:0:0:0:
452,190,29611,1,10,0:0:0:0:
390,320,29792,2,0,P|340:300|242:304,1,152.999995330811,2|2,0:0|0:0,0:0:0:0:
66,285,30334,2,0,P|77:332|82:372,1,76.4999976654053,10|2,0:0|0:3,0:0:0:0:
133,114,30696,6,0,P|125:152|108:188,1,76.4999976654053,4|0,1:2|0:0,0:0:0:0:
109,186,30967,1,2,0:0:0:0:
109,186,31057,1,10,0:0:0:0:
223,362,31238,2,0,L|204:211,1,152.999995330811,2|2,0:0|0:0,0:0:0:0:
387,360,31780,2,0,P|419:346|463:340,1,76.4999976654053,10|2,0:0|0:0,0:0:0:0:
289,215,32142,5,2,1:2:0:0:
410,262,32322,1,2,0:0:0:0:
397,120,32503,2,0,P|406:79|408:28,1,76.4999976654053,10|0,1:2|0:0,0:0:0:0:
320,79,32774,1,2,0:0:0:0:
315,71,32865,2,0,L|230:88,1,76.4999976654053,2|0,1:2|0:0,0:0:0:0:
104,225,33226,2,0,P|58:208|-21:205,1,114.749996498108,10|0,0:0|0:0,0:0:0:0:
24,131,33588,6,0,P|65:123|104:104,1,76.4999976654053,2|2,1:2|0:3,0:0:0:0:
292,115,33949,1,8,0:0:0:0:
176,5,34130,1,2,0:0:0:0:
175,186,34310,2,0,P|184:222|191:274,1,76.4999976654053,2|8,1:2|0:0,0:0:0:0:
189,262,34581,1,8,0:0:0:0:
189,262,34672,1,10,0:0:0:0:
239,360,34853,1,2,1:2:0:0:
391,281,35033,6,0,P|431:265|478:257,1,76.4999976654053,4|0,1:0|0:0,0:0:0:0:
463,258,35304,1,2,0:0:0:0:
463,258,35395,1,10,0:0:0:0:
343,384,35575,2,0,P|282:348|186:354,1,152.999995330811,2|2,0:0|0:0,0:0:0:0:
67,318,36118,2,0,P|63:285|78:224,1,76.4999976654053,10|2,0:0|0:0,0:0:0:0:
168,116,36479,6,0,P|125:126|73:133,1,76.4999976654053,4|0,1:2|0:0,0:0:0:0:
93,130,36750,1,2,0:0:0:0:
93,130,36841,1,10,0:0:0:0:
260,194,37021,2,0,B|314:203|314:203|346:223|346:223|408:230,1,152.999995330811,2|2,0:0|0:0,0:0:0:0:
457,148,37473,1,2,0:0:0:0:
456,121,37563,2,0,P|449:84|445:31,1,76.4999976654053,10|2,0:0|0:2,0:0:0:0:
506,259,37925,6,0,P|497:288|490:338,1,76.4999976654053,2|0,1:2|0:0,0:0:0:0:
304,384,38286,2,0,P|314:343|320:305,1,76.4999976654053,10|0,0:0|0:0,0:0:0:0:
287,246,38557,1,2,0:0:0:0:
287,246,38647,2,0,P|251:254|203:260,1,76.4999976654053,0|0,1:2|0:0,0:0:0:0:
87,288,39009,1,10,0:0:0:0:
159,174,39190,1,2,0:0:0:0:
159,174,39551,5,2,0:0:0:0:
152,359,39732,1,10,0:0:0:0:
297,326,39913,1,8,0:0:0:0:
309,331,40003,1,8,0:0:0:0:
318,334,40094,2,0,P|354:319|399:313,1,76.4999976654053,4|0,1:2|1:0,0:0:0:0:
486,278,40455,1,10,0:2:0:0:
463,353,40636,1,2,0:0:0:0:
357,238,40816,6,0,P|361:162|392:112,1,136,4|2,1:2|0:0,0:0:0:0:
440,180,41359,1,0,1:0:0:0:
322,148,41539,2,0,P|287:138|237:127,1,68,0|2,1:0|0:0,0:0:0:0:
58,82,41901,5,10,0:0:0:0:
155,12,42081,2,0,P|149:91|169:165,1,136,0|0,1:0|1:0,0:0:0:0:
37,267,42624,1,0,0:0:0:0:
113,219,42804,1,0,1:0:0:0:
205,259,42985,2,0,P|254:271|337:278,1,102,0|0,1:0|0:0,0:0:0:0:
305,278,43347,2,0,P|296:317|290:361,1,68,10|0,0:0|0:0,0:0:0:0:
439,252,43708,6,0,P|421:219|393:103,1,136,0|0,1:0|0:0,0:0:0:0:
383,48,44250,1,0,1:0:0:0:
288,123,44431,2,0,P|224:108|140:98,1,136,0|10,1:0|0:0,0:0:0:0:
54,26,44973,1,2,0:0:0:0:
72,216,45154,5,2,1:2:0:0:
154,98,45334,1,2,0:0:0:0:
9,174,45515,1,0,1:0:0:0:
100,147,45696,1,2,0:0:0:0:
231,209,45877,5,0,1:0:0:0:
231,209,45967,1,0,1:0:0:0:
231,209,46057,1,0,1:0:0:0:
231,209,46148,1,0,1:0:0:0:
231,209,46238,2,0,P|239:246|256:295,1,68,14|2,0:0|0:0,0:0:0:0:
89,368,46600,6,0,P|121:357|188:351,1,76.4999976654053,4|0,1:0|0:0,0:0:0:0:
322,379,46961,1,10,0:0:0:0:
422,294,47142,2,0,P|357:293|261:240,1,152.999995330811,2|2,0:0|0:0,0:0:0:0:
376,78,47684,2,0,P|390:115|396:165,1,76.4999976654053,10|2,0:2|0:0,0:0:0:0:
165,239,48045,5,0,1:0:0:0:
297,184,48226,1,2,0:0:0:0:
120,133,48407,1,10,0:0:0:0:
211,167,48588,1,2,0:0:0:0:
10,227,48768,2,0,P|51:217|95:211,1,76.4999976654053,0|0,1:2|0:0,0:0:0:0:
218,81,49130,2,0,P|227:43|232:-7,1,76.4999976654053,10|2,0:0|0:0,0:0:0:0:
315,208,49491,6,0,B|404:209|381:246|470:250,2,152.999995330811,4|2|2,1:0|1:2|1:2,0:0:0:0:
237,152,50395,1,0,0:0:0:0:
237,152,50485,1,2,1:2:0:0:
237,152,50575,2,0,P|187:166|148:171,1,76.4999976654053,0|2,0:0|1:2,0:0:0:0:
71,300,50937,1,0,1:2:0:0:
102,234,51118,1,2,0:0:0:0:
207,352,51298,2,0,P|248:357|301:370,1,76.4999976654053,2|2,1:2|0:0,0:0:0:0:
377,179,51660,1,2,1:2:0:0:
274,228,51841,1,2,0:0:0:0:
331,312,52021,1,2,1:2:0:0:
431,264,52202,5,2,0:0:0:0:
431,264,52292,1,0,0:0:0:0:
431,264,52383,2,0,P|465:268|499:277,1,38.2499988327027,10|0,0:0|0:0,0:0:0:0:
218,77,52925,6,0,L|155:95,1,38.2499988327027,10|0,0:0|0:0,0:0:0:0:
111,193,53106,2,0,L|120:148,1,38.2499988327027,10|0,0:0|0:0,0:0:0:0:
286,256,53286,5,8,0:3:0:0:
292,276,53377,1,8,0:3:0:0:
291,296,53467,1,8,0:3:0:0:
282,317,53557,1,8,0:3:0:0:
265,329,53648,2,0,P|194:309|128:300,1,114.749996498108,14|0,0:0|0:0,0:0:0:0:
76,319,54009,6,0,P|84:292|90:260,1,38.2499988327027,14|0,0:0|0:0,0:0:0:0:
136,142,54190,1,2,0:0:0:0:
185,227,54371,1,14,0:0:0:0:
244,30,54551,1,12,0:0:0:0:
26,180,54913,5,0,0:0:0:0:
26,180,55094,1,0,0:0:0:0:
185,227,55274,6,0,P|240:193|318:207,1,127.5,6|2,1:0|0:0,0:0:0:0:
358,253,55636,2,0,P|398:242|450:239,1,85,10|2,0:0|0:0,0:0:0:0:
356,104,55997,2,0,P|348:71|345:15,1,85,2|0,1:2|0:0,0:0:0:0:
458,118,56359,5,10,0:2:0:0:
246,47,56539,2,0,B|187:51|187:51|138:74|138:74|67:82,1,170,2|0,1:2|0:0,0:0:0:0:
0,212,57081,5,10,0:0:0:0:
184,134,57262,1,0,0:0:0:0:
206,298,57443,2,0,P|199:339|194:399,1,85,2|0,1:2|0:0,0:0:0:0:
101,312,57714,1,2,0:2:0:0:
101,312,57804,2,0,P|59:294|20:286,1,85,10|2,0:0|0:0,0:0:0:0:
268,195,58166,6,0,B|334:180|334:180|357:158|357:158|443:138,1,170,2|10,1:2|0:0,0:0:0:0:
512,293,58708,1,2,0:0:0:0:
325,267,58889,2,0,L|342:351,1,85,2|2,1:2|0:3,0:0:0:0:
341,350,59160,1,0,3:0:0:0:
341,350,59250,1,10,0:0:0:0:
209,292,59431,2,0,P|165:256|45:247,1,170,2|2,0:0|0:0,0:0:0:0:
16,312,59973,1,10,0:0:0:0:
24,168,60154,5,8,0:0:0:0:
24,168,60244,1,8,0:0:0:0:
24,168,60334,1,4,1:0:0:0:
207,83,60515,1,8,0:0:0:0:
207,83,60606,1,8,0:0:0:0:
207,83,60696,2,0,P|212:43|220:-2,1,85,4|8,1:1|0:0,0:0:0:0:
120,49,60967,5,8,0:0:0:0:
120,49,61057,2,0,P|75:64|25:72,1,85,6|0,1:0|0:0,0:0:0:0:
184,186,61419,2,0,P|238:218|314:209,1,127.5,10|0,0:0|0:0,0:0:0:0:
318,195,61780,1,0,1:2:0:0:
497,258,61961,1,2,0:0:0:0:
497,258,62051,1,2,0:0:0:0:
497,258,62142,1,10,0:0:0:0:
422,131,62322,2,0,P|419:105|404:44,1,85,2|0,0:0|1:2,0:0:0:0:
317,225,62684,5,2,0:0:0:0:
399,288,62865,1,10,0:0:0:0:
261,384,63045,1,2,0:0:0:0:
261,384,63136,1,2,0:0:0:0:
261,384,63226,2,0,P|205:368|169:364,1,85,0|2,1:2|0:0,0:0:0:0:
18,211,63588,1,8,0:0:0:0:
87,384,63768,1,2,0:0:0:0:
189,210,63949,6,0,P|196:145|209:68,1,127.5,4|2,1:0|0:2,0:0:0:0:
163,15,64310,2,0,P|126:25|75:36,1,85,10|2,0:0|0:0,0:0:0:0:
18,211,64672,2,0,L|106:190,1,85,2|0,1:2|0:0,0:0:0:0:
211,249,65033,1,10,0:0:0:0:
332,155,65214,2,0,P|391:160|463:109,1,127.5,2|0,0:0|0:0,0:0:0:0:
467,47,65575,2,0,P|429:43|378:25,1,85,2|10,0:0|0:0,0:0:0:0:
446,220,65937,1,0,0:0:0:0:
258,65,66118,2,0,B|280:161|222:130|248:253,1,170,4|10,1:0|0:0,0:0:0:0:
374,362,66660,5,8,0:0:0:0:
374,362,66750,1,8,0:0:0:0:
374,362,66841,2,0,P|437:348|502:342,1,127.5,4|0,1:0|0:0,0:0:0:0:
499,342,67202,2,0,P|489:297|484:257,1,85,8|2,0:0|0:0,0:0:0:0:
484,258,67473,1,0,0:0:0:0:
484,258,67563,5,2,1:2:0:0:
312,164,67744,1,2,0:0:0:0:
312,164,67834,1,2,0:2:0:0:
312,164,67925,1,10,0:0:0:0:
192,317,68106,1,2,0:0:0:0:
300,244,68286,6,0,L|436:272,1,127.5,2|0,1:2|0:0,0:0:0:0:
424,269,68648,1,8,0:0:0:0:
388,155,68828,1,2,0:0:0:0:
195,320,69009,5,2,1:2:0:0:
249,106,69190,1,2,0:0:0:0:
249,106,69280,1,2,0:0:0:0:
249,106,69371,1,10,0:0:0:0:
195,320,69551,1,2,0:0:0:0:
14,175,69732,6,0,P|59:143|157:134,1,127.5,2|0,1:2|0:0,0:0:0:0:
205,151,70094,2,0,P|218:108|224:55,1,85,10|2,0:0|0:0,0:0:0:0:
397,323,70455,2,0,P|354:329|302:343,1,85,2|2,1:2|0:3,0:0:0:0:
245,376,70726,1,2,0:0:0:0:
245,376,70816,1,10,0:0:0:0:
29,270,70997,2,0,P|84:282|173:204,1,170,2|2,0:0|0:0,0:0:0:0:
210,94,71539,1,10,0:0:0:0:
210,94,71720,1,2,0:0:0:0:
33,118,71901,6,0,P|83:135|125:143,1,85,2|0,1:2|0:0,0:0:0:0:
262,271,72262,1,10,0:0:0:0:
210,94,72443,1,2,0:0:0:0:
98,260,72624,6,0,P|59:266|-19:295,1,85,4|2,1:0|0:0,0:0:0:0:
321,132,72985,2,0,P|381:160|449:159,1,127.5,10|0,0:0|0:0,0:0:0:0:
496,236,73347,2,0,P|487:276|484:321,1,85,2|0,1:2|0:0,0:0:0:0:
410,366,73618,1,2,0:2:0:0:
410,366,73708,1,10,0:0:0:0:
325,234,73889,1,2,0:0:0:0:
89,301,74069,2,0,P|148:330|235:338,1,127.5,2|0,1:2|0:0,0:0:0:0:
285,330,74431,5,8,0:0:0:0:
168,174,74612,1,2,0:0:0:0:
168,174,74702,1,2,0:0:0:0:
168,174,74792,1,2,1:2:0:0:
118,261,74973,1,2,0:0:0:0:
306,169,75154,1,10,0:0:0:0:
115,72,75334,1,2,0:0:0:0:
255,262,75515,5,2,1:2:0:0:
398,222,75696,1,2,0:0:0:0:
156,332,75877,5,10,0:0:0:0:
219,143,76057,1,2,0:0:0:0:
365,298,76238,1,2,1:2:0:0:
147,197,76419,1,2,0:0:0:0:
355,100,76600,1,10,0:0:0:0:
168,293,76780,6,0,P|107:284|-1:233,1,170,4|8,1:0|0:0,0:0:0:0:
104,49,77322,1,8,0:0:0:0:
179,182,77503,1,0,1:2:0:0:
179,182,77594,1,0,1:2:0:0:
179,182,77684,1,2,1:2:0:0:
60,135,77865,1,0,0:0:0:0:
237,110,78045,2,0,P|282:101|323:94,1,85,0|8,1:0|0:3,0:0:0:0:
477,308,78407,6,0,P|434:294|345:277,1,114.749996498108,4|0,1:0|0:0,0:0:0:0:
297,320,78768,1,2,0:2:0:0:
328,194,78949,1,0,0:0:0:0:
184,353,79130,1,10,0:0:0:0:
233,270,79310,1,0,0:0:0:0:
51,250,79491,2,0,P|94:261|146:283,1,76.4999976654053,2|2,0:0|0:3,0:0:0:0:
249,318,79853,1,2,0:0:0:0:
249,318,80033,1,2,0:0:0:0:
182,210,80214,6,0,P|171:173|164:83,1,114.749996498108,2|0,0:0|0:0,0:0:0:0:
163,97,80575,2,0,P|131:110|75:121,1,76.4999976654053,10|2,0:0|0:0,0:0:0:0:
231,21,80937,1,2,0:0:0:0:
231,21,81118,1,2,1:2:0:0:
398,100,81298,6,0,P|425:155|420:255,1,152.999995330811,0|2,1:0|0:0,0:0:0:0:
364,345,81841,1,2,0:0:0:0:
236,195,82021,1,10,0:0:0:0:
236,195,82202,1,2,0:0:0:0:
343,269,82383,1,2,0:0:0:0:
343,269,82563,1,2,0:0:0:0:
106,264,82744,6,0,P|153:253|216:247,1,76.4999976654053,2|2,0:0|0:0,0:0:0:0:
359,116,83106,2,0,P|319:102|271:77,1,76.4999976654053,2|2,0:0|0:0,0:0:0:0:
271,292,83467,1,10,0:0:0:0:
291,190,83648,1,2,0:0:0:0:
209,356,83828,2,0,P|268:344|369:329,2,152.999995330811,2|4|2,0:0|1:0|0:3,0:0:0:0:
148,285,84732,5,2,0:3:0:0:
11,356,84913,2,0,P|23:313|29:271,1,76.4999976654053,10|2,0:0|0:0,0:0:0:0:
200,150,85274,2,0,P|154:162|106:168,1,76.4999976654053,2|2,0:0|0:0,0:0:0:0:
306,302,85636,1,2,0:0:0:0:
223,246,85816,1,2,0:0:0:0:
348,172,85997,1,2,0:3:0:0:
292,229,86178,1,2,0:0:0:0:
223,66,86359,6,0,P|261:76|299:94,1,76.4999976654053,10|2,0:0|0:0,0:0:0:0:
396,253,86720,1,2,0:0:0:0:
396,253,86901,1,0,1:0:0:0:
213,176,87081,6,0,P|135:186|46:207,1,152.999995330811,0|2,1:0|0:0,0:0:0:0:
109,96,87624,1,0,0:0:0:0:
204,304,87804,2,0,P|162:293|106:271,1,76.4999976654053,10|0,0:0|0:0,0:0:0:0:
323,221,88166,1,2,0:3:0:0:
266,358,88347,1,2,0:0:0:0:
266,358,88437,1,2,0:0:0:0:
266,358,88527,1,2,0:0:0:0:
213,137,88708,1,2,0:0:0:0:
233,227,88889,1,2,0:0:0:0:
110,144,89069,1,2,0:0:0:0:
296,186,89250,6,0,P|346:181|423:164,1,114.749996498108,2|0,1:2|0:0,0:0:0:0:
499,140,89612,2,0,P|492:177|490:219,1,76.4999976654053,2|0,1:2|0:0,0:0:0:0:
188,70,89973,6,0,B|194:109|194:109|208:133|208:133|203:169|220:216,1,140.25000428009,2|0,1:0|0:0,0:0:0:0:
152,256,90334,2,0,L|101:245,1,50.9999984436036,2|2,0:1|0:1,0:0:0:0:
60,334,90575,1,2,0:1:0:0:
70,343,90696,2,0,P|132:356|206:317,1,101.999996887207,10|0,0:2|0:0,0:0:0:0:
236,295,91057,2,0,L|286:307,2,50.9999984436036,2|2|2,0:1|0:1|0:1,0:0:0:0:
216,204,91419,5,2,0:0:0:0:
216,204,91660,5,2,0:1:0:0:
224,197,91780,2,0,B|222:165|222:165|233:133|233:133|228:78,1,114.749996498108,2|0,1:1|0:0,0:0:0:0:
141,122,92142,2,0,P|106:143|47:155,1,76.4999976654053,10|0,0:0|1:0,0:0:0:0:
313,150,92503,5,2,0:1:0:0:
407,41,92684,1,2,0:1:0:0:
407,41,92774,1,2,0:1:0:0:
407,41,92865,2,0,P|447:52|504:62,1,76.4999976654053,2|0,1:2|0:0,0:0:0:0:
422,148,93226,5,2,0:1:0:0:
429,173,93316,1,2,0:0:0:0:
437,195,93407,1,2,0:0:0:0:
437,196,93588,6,0,L|427:247,1,50.9999984436036,10|2,0:1|0:1,0:0:0:0:
351,325,93828,1,2,0:1:0:0:
351,325,93949,2,0,B|394:333|394:333|419:347|419:347|463:354,1,101.999996887207,2|0,0:1|0:0,0:0:0:0:
339,237,94310,2,0,L|278:247,1,50.9999984436036,2|2,0:1|0:1,0:0:0:0:
172,189,94551,1,2,0:1:0:0:
160,169,94672,2,0,P|203:162|262:113,1,114.749996498108,2|0,0:1|0:0,0:0:0:0:
262,97,95033,5,2,1:1:0:0:
409,173,95214,1,0,0:0:0:0:
362,101,95395,2,0,L|377:16,1,76.4999976654053,2|0,1:1|0:0,0:0:0:0:
204,245,95756,5,2,0:1:0:0:
211,271,95847,1,0,0:0:0:0:
204,298,95937,1,0,0:0:0:0:
92,365,96118,5,8,1:3:0:0:
65,320,96238,5,8,1:3:0:0:
81,276,96359,5,8,1:3:0:0:
68,241,96479,6,0,B|62:202|62:202|68:180|68:180|52:148|54:98,1,140.25000428009,2|0,0:1|0:0,0:0:0:0:
133,122,96841,2,0,P|165:136|214:148,1,76.4999976654053,2|0,1:0|0:0,0:0:0:0:
340,203,97112,1,0,0:0:0:0:
340,203,97202,2,0,P|380:179|464:184,1,114.749996498108,2|0,0:1|0:0,0:0:0:0:
428,96,97563,2,0,P|387:84|351:67,1,76.4999976654053,2|0,1:1|0:0,0:0:0:0:
239,246,97925,5,2,0:1:0:0:
244,270,98015,1,0,0:0:0:0:
248,292,98106,1,0,1:2:0:0:
248,292,98286,6,0,P|250:244|260:201,1,76.4999976654053,2|0,0:0|0:0,0:0:0:0:
209,21,98648,5,2,1:1:0:0:
198,73,98768,1,2,0:0:0:0:
219,120,98889,1,2,0:0:0:0:
241,135,99009,6,0,P|195:142|154:157,1,73.6666632944744,2|2,0:0|0:0,0:0:0:0:
86,124,99250,1,2,0:0:0:0:
86,124,99371,2,0,P|96:89|98:32,1,73.6666632944744,2|0,1:2|0:0,0:0:0:0:
159,327,99732,5,2,0:0:0:0:
186,294,99853,1,2,0:0:0:0:
236,297,99973,1,2,0:0:0:0:
253,324,100094,2,0,P|209:315|152:293,1,93.5000028533936,2|0,1:2|0:0,0:0:0:0:
113,228,100365,1,8,0:2:0:0:
113,228,100455,2,0,L|63:244,2,46.7500014266968,12|8|8,1:0|0:0|0:0,0:0:0:0:
283,127,100816,5,8,1:0:0:0:
302,128,100907,1,8,1:0:0:0:
322,137,100997,1,8,1:0:0:0:
342,137,101088,1,8,1:0:0:0:
362,146,101178,1,8,1:0:0:0:
367,263,101539,6,0,P|324:269|258:293,1,85,4|0,1:0|0:0,0:0:0:0:
10,265,101901,2,0,P|81:290|150:297,1,127.5,10|0,0:0|0:0,0:0:0:0:
132,296,102262,2,0,P|120:331|112:386,1,85,2|2,1:2|0:0,0:0:0:0:
67,105,102624,1,10,0:0:0:0:
157,172,102804,2,0,P|211:175|320:116,1,170,2|2,0:0|0:0,0:0:0:0:
395,3,103347,5,10,0:0:0:0:
207,71,103527,1,0,0:0:0:0:
434,183,103708,2,0,P|422:146|411:83,1,85,0|0,1:0|0:0,0:0:0:0:
248,285,104069,1,10,0:0:0:0:
277,201,104250,1,2,0:0:0:0:
399,324,104431,6,0,P|447:331|499:349,1,85,2|2,1:2|0:0,0:0:0:0:
293,109,104792,2,0,P|241:122|157:132,1,127.5,10|2,0:0|0:3,0:0:0:0:
167,131,105154,2,0,P|175:80|177:31,1,85,0|2,1:0|0:0,0:0:0:0:
276,180,105515,1,10,0:0:0:0:
49,304,105696,6,0,B|152:296|123:354|224:334,1,170,2|2,0:0|0:0,0:0:0:0:
387,368,106238,1,10,0:0:0:0:
283,187,106419,1,8,0:0:0:0:
283,187,106509,1,8,0:0:0:0:
283,187,106600,2,0,P|281:215|272:252,1,42.5,4|0,1:1|0:0,0:0:0:0:
127,370,106780,1,8,0:0:0:0:
106,330,106871,1,10,0:0:0:0:
130,295,106961,1,4,1:2:0:0:
361,274,107142,5,8,0:0:0:0:
361,274,107232,1,10,0:0:0:0:
361,274,107322,2,0,P|416:282|459:297,1,85,4|0,1:0|0:0,0:0:0:0:
359,70,107684,2,0,B|340:105|340:105|344:169,1,85,10|2,0:0|0:3,0:0:0:0:
187,261,108045,2,0,B|90:238|113:299|-5:266,1,170,0|10,1:0|0:0,0:0:0:0:
111,162,108588,2,0,P|154:155|202:139,1,85,2|0,0:0|1:0,0:0:0:0:
412,90,108949,5,2,0:0:0:0:
256,7,109130,1,10,0:0:0:0:
303,136,109310,1,2,0:0:0:0:
340,52,109491,1,0,1:0:0:0:
188,115,109672,1,2,0:0:0:0:
188,115,109762,1,2,0:0:0:0:
188,115,109853,1,10,0:0:0:0:
379,185,110033,1,0,0:0:0:0:
184,368,110214,6,0,P|200:304|207:206,1,127.5,2|2,1:2|0:0,0:0:0:0:
211,246,110575,2,0,B|253:227|253:227|319:244,1,85,10|2,0:0|0:0,0:0:0:0:
71,302,110937,5,2,1:1:0:0:
226,125,111208,1,2,1:1:0:0:
458,372,111479,2,0,P|382:356|292:351,1,127.5,4|0,1:2|0:0,0:0:0:0:
246,380,111841,1,10,0:0:0:0:
237,206,112021,1,10,0:0:0:0:
385,205,112202,5,2,1:2:0:0:
183,284,112383,1,0,1:0:0:0:
271,111,112563,5,0,1:0:0:0:
271,111,112654,1,0,1:0:0:0:
271,111,112744,1,8,0:0:0:0:
271,111,112834,1,8,0:0:0:0:
271,111,112925,2,0,P|303:122|332:124,1,42.5,8|8,0:0|0:0,0:0:0:0:
510,248,113106,6,0,P|462:227|375:244,1,127.5,4|0,1:0|0:0,0:0:0:0:
352,299,113467,2,0,P|302:287|255:283,1,85,10|2,0:0|0:0,0:0:0:0:
140,171,113828,1,2,1:2:0:0:
0,275,114009,1,2,0:2:0:0:
0,275,114100,1,2,0:2:0:0:
0,275,114190,1,8,0:0:0:0:
27,156,114371,2,0,P|38:115|47:46,1,85,2|2,0:0|1:2,0:0:0:0:
274,114,114732,5,2,0:0:0:0:
146,195,114913,1,10,0:0:0:0:
262,23,115094,1,2,0:0:0:0:
240,196,115274,5,2,1:1:0:0:
302,298,115455,1,2,0:0:0:0:
407,121,115636,5,10,0:1:0:0:
441,17,115816,1,2,0:0:0:0:
504,230,115997,6,0,B|453:217|453:217|392:229|392:229|326:209,1,170,4|10,1:2|0:0,0:0:0:0:
161,128,116539,1,2,0:0:0:0:
161,128,116630,1,2,0:0:0:0:
161,128,116720,2,0,P|118:136|74:149,1,85,0|0,1:0|0:0,0:0:0:0:
78,147,116991,2,0,P|85:97|83:54,1,85,2|0,0:2|0:0,0:0:0:0:
244,149,117262,2,0,L|265:329,1,170,2|2,0:0|0:0,0:0:0:0:
339,212,117804,1,10,0:0:0:0:
152,257,117985,5,2,0:0:0:0:
152,257,118075,1,2,0:0:0:0:
152,257,118166,1,0,1:0:0:0:
193,78,118347,1,2,0:0:0:0:
44,155,118527,1,10,0:0:0:0:
255,192,118708,1,2,0:0:0:0:
64,329,118889,6,0,B|98:338|98:338|118:336|118:336|146:351|219:349,1,127.5,2|2,1:2|0:0,0:0:0:0:
163,268,119250,2,0,P|160:236|142:181,1,85,10|2,0:0|0:0,0:0:0:0:
338,25,119612,2,0,L|423:51,1,85,0|0,1:2|0:0,0:0:0:0:
419,49,119883,2,0,P|388:50|331:73,1,85,2|0,0:2|0:0,0:0:0:0:
228,137,120154,2,0,P|171:108|66:125,1,170,2|0,0:0|0:0,0:0:0:0:
144,185,120696,1,10,0:0:0:0:
330,81,120877,1,2,0:0:0:0:
220,250,121057,5,2,1:1:0:0:
273,376,121238,1,2,0:0:0:0:
222,236,121419,5,10,0:1:0:0:
257,108,121600,1,2,0:0:0:0:
477,300,121780,6,0,P|412:301|345:264,1,127.5,4|2,1:2|0:0,0:0:0:0:
325,207,122142,2,0,P|274:215|226:233,1,85,10|2,0:0|0:0,0:0:0:0:
130,271,122503,5,2,1:0:0:0:
423,173,122774,5,2,1:1:0:0:
230,1,123045,6,0,L|247:143,1,127.5,4|2,1:0|0:0,0:0:0:0:
168,116,123407,2,0,L|127:134,2,42.5,10|8|10,0:0|0:0|0:0,0:0:0:0:
361,70,123768,1,8,0:0:0:0:
361,70,123859,1,8,0:0:0:0:
361,70,123949,2,0,P|408:82|456:83,1,85,4|0,1:2|1:0,0:0:0:0:
328,164,124349,2,0,L|311:270,1,85,8|0,1:3|0:0,0:0:0:0:
114,358,124739,5,4,1:0:0:0:
114,358,125139,1,2,1:3:0:0:
96,282,125339,1,0,0:0:0:0:
196,208,125539,1,8,0:0:0:0:
218,283,125739,1,2,0:0:0:0:
328,353,125939,6,0,P|364:362|403:379,2,56.6666666666667,2|2|2,1:3|1:3|1:3,0:0:0:0:
184,378,126339,1,2,1:3:0:0:
345,257,126539,5,0,1:0:0:0:
345,257,126639,1,0,1:0:0:0:
345,257,126739,2,0,P|390:244|411:242,2,56.6666666666667,2|2|2,1:3|1:3|1:3,0:0:0:0:
89,203,127139,6,0,B|45:219|-8:226,1,85,12|0,1:2|0:0,0:0:0:0:
198,104,127539,2,0,P|250:108|332:132,1,127.5,12|0,1:2|0:0,0:0:0:0:
322,127,127939,6,0,P|336:84|340:40,1,85,4|0,1:0|0:0,0:2:0:0:
447,142,128339,2,0,P|439:168|432:209,2,56.6666666666667,2|2|2,1:3|1:3|1:3,0:0:0:0:
468,52,128739,1,10,0:0:0:0:
322,127,128939,1,2,0:0:0:0:
413,285,129139,2,0,P|418:257|426:230,2,56.6666666666667,2|2|2,1:3|1:3|1:3,0:0:0:0:
296,334,129539,6,0,B|254:343|223:351|200:360,1,85,0|0,1:0|0:0,0:0:0:0:
66,237,129939,5,2,1:3:0:0:
66,237,130072,1,2,1:3:0:0:
66,237,130205,1,0,1:3:0:0:
66,237,130339,2,0,P|118:226|170:209,1,85,4|0,1:0|0:0,0:0:0:0:
251,11,130739,2,0,P|199:22|147:39,1,85,4|0,1:0|0:0,0:0:0:0:
330,130,131139,6,0,P|386:173|495:184,1,170,4|2,1:0|1:3,0:0:0:0:
396,266,131739,1,2,0:0:0:0:
499,368,131939,2,0,B|452:369|426:377|397:385,1,85,10|0,0:0|0:0,0:0:0:0:
261,273,132339,6,0,P|262:242|272:196,2,56.6666666666667,2|2|2,1:3|1:3|1:3,0:0:0:0:
283,363,132739,1,2,1:2:0:0:
159,252,132939,1,2,0:0:0:0:
361,189,133139,2,0,P|360:220|350:266,2,56.6666666666667,2|2|2,1:3|1:3|1:3,0:0:0:0:
269,121,133539,6,0,B|220:108|161:99,1,85,6|0,1:2|0:0,0:0:0:0:
92,323,133939,2,0,B|141:336|200:345,1,85,6|0,1:2|0:0,0:0:0:0:
411,316,134339,6,0,P|423:248|358:131,1,170,4|2,1:0|1:3,0:0:0:0:
291,55,134939,1,2,0:0:0:0:
220,250,135139,1,8,0:0:0:0:
316,146,135339,1,2,0:0:0:0:
141,177,135539,2,0,P|114:177|73:173,2,56.6666666666667,2|2|2,1:3|1:3|1:3,0:0:0:0:
316,146,135939,2,0,B|377:153|426:167,1,85,0|0,1:2|0:0,0:0:0:0:
278,338,136339,5,2,1:3:0:0:
278,338,136472,1,2,1:3:0:0:
278,338,136605,1,2,1:3:0:0:
278,338,136739,2,0,L|264:232,1,85,4|0,1:2|0:0,0:0:0:0:
306,12,137139,2,0,L|327:110,1,85,4|0,1:2|0:0,0:0:0:0:
297,175,137539,6,0,P|255:150|156:158,1,140.25000428009,4|0,1:0|0:0,0:0:0:0:
88,107,137939,2,0,P|43:126|-14:136,1,93.5000028533936,8|0,0:2|0:0,0:0:0:0:
163,268,138339,2,0,L|181:332,2,62.3333352355958,8|2|2,1:0|0:3|0:3,0:0:0:0:
57,276,138739,5,8,0:0:0:0:
61,263,138872,1,8,0:0:0:0:
65,250,139005,1,8,0:0:0:0:
68,238,139139,6,0,P|44:235|5:225,2,62.3333352355958,8|2|2,0:0|0:3|0:3,0:0:0:0:
166,227,139539,1,10,0:0:0:0:
200,253,139672,1,8,0:0:0:0:
242,260,139805,1,8,0:0:0:0:
282,247,139939,6,0,B|295:199|295:199|285:151|285:151|299:98,1,140.25000428009,10|0,0:0|0:0,0:0:0:0:
396,199,140339,1,10,0:0:0:0:
404,214,140472,1,10,0:0:0:0:
410,226,140605,1,10,0:0:0:0:
416,238,140739,6,0,P|430:293|426:382,1,140.25000428009,4|0,1:0|0:0,0:0:0:0:
327,337,141139,2,0,B|276:328|276:328|245:304|245:304|172:290,1,140.25000428009,10|0,0:0|0:0,0:0:0:0:
66,329,141539,2,0,L|6:344,2,62.3333352355958,10|2|2,0:0|0:3|0:3,0:0:0:0:
113,246,141939,1,10,0:0:0:0:
113,246,142072,1,10,0:0:0:0:
113,246,142205,1,10,0:0:0:0:
113,246,142339,6,0,P|80:236|44:215,2,62.3333352355958,10|2|2,0:0|0:3|0:3,0:0:0:0:
101,134,142739,1,10,0:0:0:0:
109,124,143139,5,10,1:2:0:0:
140,102,143272,1,10,0:0:0:0:
183,98,143405,1,10,0:0:0:0:
221,113,143539,2,0,L|208:179,1,62.3333352355958,10|10,0:0|0:0,0:0:0:0:
255,268,143805,1,10,0:0:0:0:
255,268,143939,6,0,P|295:281|346:290,1,93.5000028533936,4|0,1:0|0:0,0:0:0:0:
459,293,144339,1,8,0:0:0:0:
440,259,144472,1,8,0:0:0:0:
435,217,144605,1,8,0:0:0:0:
438,175,144739,2,0,L|500:189,2,62.3333352355958,10|2|2,0:0|0:3|0:3,0:0:0:0:
360,108,145139,5,10,0:0:0:0:
364,63,145272,1,10,0:0:0:0:
407,45,145405,1,10,0:0:0:0:
440,54,145539,2,0,P|453:106|454:147,1,93.5000028533936,10|0,0:0|0:0,0:0:0:0:
306,212,145939,2,0,L|188:194,1,93.5000028533936,10|0,0:0|0:0,0:0:0:0:
47,285,146339,6,0,B|99:295|99:295|128:318|128:318|188:329,1,140.25000428009,10|0,1:2|0:0,0:0:0:0:
244,281,146739,2,0,L|262:379,1,93.5000028533936,8|0,1:2|0:0,0:0:0:0:
147,147,147139,6,0,P|173:84|159:8,1,140.25000428009,4|0,1:0|0:0,0:0:0:0:
95,73,147539,2,0,P|56:86|-5:98,1,93.5000028533936,8|0,0:0|0:0,0:0:0:0:
141,243,147939,2,0,L|124:340,1,93.5000028533936,10|0,0:0|0:0,0:0:0:0:
255,184,148339,1,10,0:0:0:0:
242,222,148472,1,10,0:0:0:0:
249,265,148605,1,10,0:0:0:0:
272,298,148739,6,0,L|443:330,1,140.25000428009,10|0,1:2|0:0,0:0:0:0:
480,289,149139,2,0,L|490:360,2,62.3333352355958,8|10|10,1:0|0:0|0:0,0:0:0:0:
474,167,149539,6,0,P|418:206|313:211,1,152.999995330811,8|2,1:0|0:0,0:0:0:0:
244,176,150339,5,2,1:0:0:0:
239,154,150465,1,2,0:0:0:0:
234,130,150592,1,2,0:0:0:0:
226,104,150718,2,0,P|144:85|132:81,2,56.6666666666667,2|2|2,1:0|0:0|0:0,0:0:0:0:
323,240,151098,2,0,P|375:253|469:281,1,127.5,2|0,1:0|0:0,0:0:0:0:
445,273,151478,1,2,0:0:0:0:
273,330,151668,1,0,0:0:0:0:
181,213,151857,1,2,0:0:0:0:
182,102,164959,6,0,P|215:112|268:121,2,70.5500010226822,2|2|2,0:0|0:0|0:0,0:0:0:0:
162,118,165501,5,2,1:2:0:0:
152,132,165862,5,2,1:2:0:0:
149,150,166223,5,2,1:2:0:0:
153,168,166585,5,2,1:2:0:0:
319,223,166946,5,2,1:2:0:0:
310,204,167308,5,2,1:2:0:0:
294,191,167669,5,2,1:2:0:0:
276,189,168031,5,2,1:2:0:0:
152,308,168392,5,2,1:2:0:0:
171,309,168754,5,2,1:2:0:0:
191,304,169115,5,2,1:2:0:0:
204,294,169476,5,0,1:2:0:0:
440,158,169657,2,0,B|387:167|387:167|330:157|330:157|267:168,1,170,4|2,1:0|1:2,0:0:0:0:
92,186,170199,1,2,1:2:0:0:
204,294,170380,1,2,1:2:0:0:
258,53,170561,6,0,L|270:-3,1,42.5,14|0,0:0|0:0,0:0:0:0:
236,333,170922,6,0,L|224:389,1,42.5,14|0,0:0|0:0,0:0:0:0:
289,267,171284,6,0,B|278:239|278:239|282:214|282:214|268:187|270:141,1,127.5,6|2,1:0|0:0,0:0:0:0:
353,171,171645,2,0,P|391:190|436:203,1,85,10|0,0:0|0:0,0:0:0:0:
391,303,172007,1,2,1:2:0:0:
426,112,172187,1,2,0:0:0:0:
426,112,172278,1,2,0:0:0:0:
426,112,172368,1,10,0:0:0:0:
199,214,172549,2,0,L|29:242,1,170,2|2,0:0|0:2,0:0:0:0:
119,326,173091,2,0,P|165:335|206:349,1,85,10|2,0:0|0:0,0:0:0:0:
201,347,173362,1,0,0:0:0:0:
201,347,173452,1,2,1:2:0:0:
259,278,173633,1,2,0:0:0:0:
150,93,173814,6,0,L|136:-1,1,85,8|2,0:0|0:0,0:0:0:0:
349,154,174175,2,0,P|395:162|454:178,1,85,2|2,1:2|0:0,0:0:0:0:
255,76,174537,2,0,P|243:125|248:208,1,127.5,10|2,0:0|0:0,0:0:0:0:
259,278,174898,2,0,P|207:283|173:292,1,85,0|2,1:0|0:0,0:0:0:0:
162,215,175260,1,10,0:0:0:0:
318,353,175440,2,0,P|360:324|466:338,1,127.5,2|0,0:0|0:0,0:0:0:0:
488,250,175802,2,0,P|426:239|379:222,1,85,2|10,0:0|0:0,0:0:0:0:
235,110,176163,1,2,0:0:0:0:
175,291,176344,1,2,1:2:0:0:
81,198,176525,5,8,0:0:0:0:
81,198,176615,1,8,0:0:0:0:
81,198,176705,1,10,0:0:0:0:
349,154,176886,5,8,0:0:0:0:
349,154,176976,1,8,0:0:0:0:
349,154,177067,2,0,P|399:140|477:128,1,127.5,6|2,1:2|0:0,0:0:0:0:
486,48,177428,2,0,P|436:38|389:19,1,85,10|2,0:1|0:0,0:0:0:0:
182,144,177790,1,2,1:2:0:0:
314,101,177970,1,2,0:0:0:0:
110,47,178151,1,10,0:1:0:0:
262,248,178332,1,2,0:0:0:0:
26,306,178513,6,0,P|31:261|35:168,1,127.5,2|0,1:2|0:0,0:0:0:0:
149,135,178874,2,0,P|154:177|157:244,1,85,10|2,0:1|0:0,0:0:0:0:
156,219,179145,1,2,0:0:0:0:
156,219,179235,1,2,1:2:0:0:
169,338,179416,1,0,0:0:0:0:
337,164,179597,1,10,0:1:0:0:
286,351,179778,1,2,0:0:0:0:
447,246,179958,6,0,P|395:251|339:266,1,85,2|2,1:2|0:0,0:0:0:0:
116,78,180320,2,0,P|155:96|254:106,1,127.5,10|0,0:1|0:0,0:0:0:0:
301,57,180681,1,2,1:2:0:0:
223,234,180862,1,2,0:2:0:0:
223,234,180952,1,2,0:2:0:0:
223,234,181043,1,10,0:1:0:0:
296,168,181223,1,2,0:0:0:0:
98,224,181404,5,2,1:2:0:0:
337,311,181585,1,2,0:0:0:0:
192,349,181766,5,10,0:1:0:0:
363,224,181946,1,2,0:0:0:0:
455,364,182127,5,2,1:2:0:0:
455,364,182308,1,2,0:0:0:0:
263,258,182488,2,0,P|260:216|243:116,1,127.5,10|0,0:1|0:0,0:0:0:0:
223,30,182850,5,4,1:2:0:0:
337,77,183031,1,0,0:0:0:0:
159,179,183211,2,0,P|127:183|50:202,1,85,10|0,0:1|0:0,0:0:0:0:
138,368,183573,5,2,1:2:0:0:
10,249,183754,1,2,0:0:0:0:
272,183,183934,1,10,0:1:0:0:
159,270,184115,1,2,0:0:0:0:
2,74,184296,6,0,P|60:79|146:114,1,127.5,2|2,1:2|0:0,0:0:0:0:
204,144,184657,2,0,B|221:104|221:104|193:32,1,85,10|2,0:1|0:0,0:0:0:0:
205,65,184928,1,2,0:0:0:0:
205,65,185019,1,2,1:2:0:0:
33,144,185199,1,2,0:0:0:0:
232,225,185380,5,10,0:1:0:0:
384,278,185561,1,2,0:0:0:0:
175,349,185741,5,2,1:2:0:0:
175,349,185922,1,2,0:0:0:0:
315,198,186103,1,10,0:1:0:0:
280,318,186284,1,2,0:0:0:0:
50,139,186464,1,2,1:2:0:0:
232,225,186645,1,2,0:0:0:0:
44,290,186826,5,10,0:1:0:0:
212,111,187007,2,0,P|277:107|386:84,1,170,6|8,1:2|0:0,0:0:0:0:
431,277,187549,1,8,0:0:0:0:
291,187,187729,1,8,0:0:0:0:
291,187,187820,1,8,0:0:0:0:
291,187,187910,1,8,0:0:0:0:
137,322,188091,1,0,1:0:0:0:
311,291,188272,2,0,P|257:279|204:259,1,85,0|2,1:0|0:0,0:0:0:0:
228,269,188633,1,2,1:2:0:0:
323,205,192790,6,0,P|240:279|131:280,1,203.999993774414,10|2,0:0|0:0,0:0:0:0:
66,360,193693,1,2,1:2:0:0:
250,308,193874,1,8,0:0:0:0:
250,308,193964,1,8,0:0:0:0:
250,308,194055,2,0,L|300:322,1,42.5,8|8,0:0|0:0,0:0:0:0:
415,365,194235,2,0,L|401:315,1,42.5,8|8,0:0|0:0,0:0:0:0:
385,98,194416,6,0,L|294:125,1,76.4999976654053,4|2,1:1|0:0,0:0:0:0:
233,43,194778,1,10,0:0:0:0:
176,185,194958,2,0,P|169:231|153:270,1,76.4999976654053,2|0,0:0|1:0,0:0:0:0:
34,113,195320,2,0,L|112:100,1,76.4999976654053,2|8,0:0|0:0,0:0:0:0:
271,207,195681,5,2,0:0:0:0:
271,207,195772,1,2,0:3:0:0:
271,207,195862,2,0,P|269:268|275:296,1,76.4999976654053,2|2,1:2|0:0,0:0:0:0:
366,296,196223,1,10,0:2:0:0:
191,353,196404,2,0,P|149:357|109:368,1,76.4999976654053,2|0,0:0|1:0,0:0:0:0:
158,258,196766,5,2,0:0:0:0:
336,379,196946,1,10,0:0:0:0:
171,262,197127,1,2,0:0:0:0:
358,170,197308,6,0,P|396:165|441:153,1,76.4999976654053,2|2,1:2|0:0,0:0:0:0:
416,260,197669,1,10,0:0:0:0:
245,152,197850,2,0,P|233:111|239:31,1,114.749996498108,2|2,0:0|0:0,0:0:0:0:
157,146,198211,2,0,P|148:191|133:230,1,76.4999976654053,2|10,0:2|0:2,0:2:0:0:
237,333,198573,5,2,0:2:0:0:
334,208,198754,1,2,1:2:0:0:
397,376,198934,1,2,0:0:0:0:
227,241,199115,1,10,0:0:0:0:
416,132,199296,2,0,P|426:99|434:47,1,76.4999976654053,2|0,0:0|1:2,0:0:0:0:
249,144,199657,1,2,0:0:0:0:
369,295,199838,1,10,0:0:0:0:
227,241,200019,5,0,0:0:0:0:
227,241,200109,1,2,0:3:0:0:
227,241,200199,2,0,L|131:256,1,76.4999976654053,2|0,1:2|0:0,0:0:0:0:
50,336,200561,1,10,0:0:0:0:
107,172,200741,2,0,P|128:125|130:47,1,114.749996498108,2|2,0:0|0:0,0:0:0:0:
132,62,201103,2,0,L|49:78,1,76.4999976654053,2|8,0:0|0:0,0:0:0:0:
151,252,201464,5,2,0:0:0:0:
12,182,201645,1,2,1:2:0:0:
215,141,201826,1,2,0:0:0:0:
131,346,202007,1,10,0:0:0:0:
276,277,202187,2,0,P|325:248|426:259,1,152.999995330811,2|2,0:0|0:0,0:0:0:0:
499,97,202729,2,0,L|422:113,1,76.4999976654053,10|2,0:0|0:0,0:0:0:0:
215,141,203091,6,0,L|231:38,1,76.4999976654053,2|2,1:2|0:0,0:0:0:0:
327,37,203452,1,10,0:0:0:0:
299,207,203633,2,0,B|305:237|305:237|316:257|316:257|316:297|331:338,1,114.749996498108,2|2,0:0|0:0,0:0:0:0:
399,375,203994,2,0,P|407:328|418:285,1,76.4999976654053,2|10,0:0|0:0,0:0:0:0:
228,276,204356,5,2,0:0:0:0:
228,276,204446,1,2,0:3:0:0:
228,276,204537,2,0,P|177:293|137:304,1,76.4999976654053,2|2,1:2|0:0,0:0:0:0:
185,376,204898,1,10,0:0:0:0:
42,245,205079,2,0,P|20:192|31:105,1,114.749996498108,2|0,0:0|0:0,0:0:0:0:
28,122,205440,1,2,0:0:0:0:
208,175,205621,2,0,L|287:151,1,76.4999976654053,14|0,0:0|0:0,0:0:0:0:
491,267,205982,6,0,P|442:252|411:246,1,68,4|2,1:0|0:3,0:0:0:0:
425,248,206344,2,0,P|417:281|406:313,1,68,2|2,1:3|0:0,0:0:0:0:
196,106,206705,6,0,P|245:91|276:85,1,68,2|2,1:2|0:0,0:0:0:0:
262,87,207067,2,0,P|269:120|280:152,1,68,0|2,1:0|0:0,0:0:0:0:
275,307,207428,6,0,L|181:288,1,68,2|2,1:2|0:3,0:0:0:0:
134,224,207699,1,2,0:3:0:0:
134,224,207790,2,0,P|176:214|207:205,1,68,2|2,1:3|0:0,0:0:0:0:
406,78,208151,6,0,L|420:9,1,68,0|2,1:0|0:0,0:0:0:0:
457,162,208513,2,0,P|407:168|366:182,1,68,0|2,1:0|0:0,0:0:0:0:
267,88,208874,6,0,P|227:80|191:68,1,68,2|2,1:2|0:3,0:0:0:0:
111,44,209145,1,2,0:3:0:0:
111,44,209235,2,0,P|120:76|127:114,1,68,2|2,1:3|0:0,0:0:0:0:
202,177,209597,1,0,1:0:0:0:
202,177,209778,1,2,0:0:0:0:
109,249,209958,2,0,P|65:243|24:226,1,68,2|0,1:2|0:0,0:0:0:0:
193,319,210320,6,0,L|181:358,2,34,2|2|2,1:2|0:3|0:3,0:0:0:0:
289,273,210591,2,0,L|277:234,2,34,2|2|2,1:2|0:3|0:3,0:0:0:0:
381,323,210862,2,0,B|405:330|405:330|422:348|422:348|451:353|451:353|484:369,1,85,2|0,1:1|0:0,0:0:0:0:
