osu file format v14

[General]
AudioFilename: audio.ogg
AudioLeadIn: 0
PreviewTime: 54908
Countdown: 0
SampleSet: Soft
StackLeniency: 0.6
Mode: 0
LetterboxInBreaks: 0
WidescreenStoryboard: 1

[Editor]
DistanceSpacing: 0.9
BeatDivisor: 4
GridSize: 4
TimelineZoom: 1.8

[Metadata]
Title:Idol (TV Size)
TitleUnicode:アイドル (TV Size)
Artist:YOASOBI
ArtistUnicode:YOASOBI
Creator:kanpakyin
Version:Normal
Source:【推しの子】
Tags:Momochikun KantoKun jpop j-pop pop anime japanese opening op Oshi no ko Her Fans Their Idol's Children 【Oshi No Ko】 星野 愛久愛海 瑠美衣 Hoshino Akuamarin Aquamarine Aqua アクア Ruby Rubii Ai アイ Aidoru my star 幾田りら ikuta lilas ikura ayase
BeatmapID:4104244
BeatmapSetID:1977083

[Difficulty]
HPDrainRate:4
CircleSize:4
OverallDifficulty:4
ApproachRate:5.5
SliderMultiplier:0.999999999999999
SliderTickRate:1

[Events]
//Background and Video events
0,0,"BG.jpg",0,0
Video,-275,"video.mp4"
//Break Periods
//Storyboard Layer 0 (Background)
//Storyboard Layer 1 (Fail)
//Storyboard Layer 2 (Pass)
//Storyboard Layer 3 (Foreground)
//Storyboard Layer 4 (Overlay)
//Storyboard Sound Samples

[TimingPoints]
330,361.44578313253,4,2,1,75,1,0
11896,-100,4,2,99,75,0,0
11941,-100,4,2,1,75,0,0
12573,-100,4,2,99,75,0,0
12664,-100,4,2,1,75,0,0
13116,-100,4,2,99,75,0,0
13206,-100,4,2,1,75,0,0
13477,-100,4,2,99,75,0,0
13567,-100,4,2,1,75,0,0
13839,-100,4,2,99,75,0,0
14110,-100,4,2,1,75,0,0
14426,-100,4,2,1,40,0,0
14471,-100,4,2,2,75,0,0
17679,-100,4,2,4,75,0,0
22829,-100,4,2,5,85,0,0
23101,-100,4,2,4,75,0,0
23191,-100,4,2,5,85,0,0
23372,-100,4,2,4,75,0,0
23417,-100,4,2,1,75,0,0
23507,-100,4,2,4,75,0,0
24275,-100,4,2,5,85,0,0
24547,-100,4,2,4,75,0,0
26083,-100,4,2,5,85,0,0
26263,-100,4,2,4,75,0,0
30058,-100,4,2,5,85,0,0
30239,-100,4,2,4,75,0,0
33673,-100,4,2,4,30,0,0
33763,-100,4,2,4,75,0,0
33854,-100,4,2,4,30,0,0
33944,-100,4,2,4,75,0,0
34034,-100,4,2,4,30,0,0
34125,-100,4,2,5,75,0,0
34396,-100,4,2,2,55,0,0
34667,-100,4,2,2,75,0,0
35028,-100,4,2,4,75,0,0
36203,-100,4,2,5,85,0,0
36384,-100,4,2,4,75,0,0
37287,-100,4,2,5,85,0,0
37468,-100,4,2,4,75,0,0
40811,-100,4,2,2,75,0,0
41896,-100,4,2,1,75,0,0
41986,-100,4,2,2,75,0,0
43161,-100,4,2,2,10,0,0
43342,-100,4,2,1,75,0,0
43613,-100,4,2,2,10,0,0
43703,-100,4,2,2,75,0,0
44697,-100,4,2,2,10,0,0
44787,-100,4,2,1,75,0,0
45058,-100,4,2,1,10,0,0
45149,-100,4,2,2,75,0,0
46233,-100,4,2,4,75,0,0
46685,-100,4,2,3,75,0,0
49486,-100,4,2,2,75,0,0
49576,-100,4,2,3,75,0,0
52287,-100,4,2,2,55,0,0
52468,-100,4,2,3,75,0,0
52829,-100,4,2,2,55,0,0
53191,-100,4,2,2,75,0,0
53643,-100,4,2,2,55,0,0
54908,-100,4,2,1,75,0,0
55269,-100,4,2,50,75,0,1
55360,-100,4,2,5,80,0,1
60329,-100,4,2,2,55,0,1
61052,-100,4,2,50,80,0,1
61143,-100,4,2,5,80,0,1
66203,-100,4,2,2,55,0,1
66836,-100,4,2,50,80,0,1
66926,-100,4,2,5,80,0,0
72528,-100,4,2,4,80,0,0
72709,-100,4,2,5,80,0,0
76775,-100,4,2,2,80,0,0
77137,-100,4,2,2,65,0,0
78311,-100,4,2,4,75,0,0
84185,-100,4,2,50,75,0,0
84275,-100,4,2,4,75,0,0
88522,-100,4,2,2,75,0,0
88613,-100,4,2,2,45,0,0
88703,-100,4,2,2,75,0,0
88884,-100,4,2,2,45,0,0
88974,-100,4,2,2,75,0,0
89064,-100,4,2,2,70,0,0

[Colours]
Combo1 : 237,175,73
Combo2 : 155,115,251
Combo3 : 232,113,169

[HitObjects]
74,193,330,6,0,L|178:177,1,99.9999999999999,4|2,0:0|1:2,0:0:0:0:
202,211,872,1,0,1:0:0:0:
245,223,1052,2,0,B|282:191|292:120|251:68,1,150,8|0,1:2|1:0,0:0:0:0:
223,61,1775,2,0,P|198:76|176:81,1,50,2|0,1:2|0:0,0:0:0:0:
136,62,2137,5,4,0:0:0:0:
25,139,2679,1,4,0:0:0:0:
141,207,3221,1,4,0:0:0:0:
222,168,3583,6,0,L|207:280,1,99.9999999999999,2|8,1:2|1:2,0:0:0:0:
238,351,4305,2,0,P|269:338|296:336,1,50,2|0,1:2|1:0,0:0:0:0:
312,299,4667,2,0,P|349:315|367:329,1,50,2|0,1:2|1:0,0:0:0:0:
383,356,5028,5,4,0:0:0:0:
426,228,5570,1,4,0:0:0:0:
312,299,6113,1,4,1:2:0:0:
335,212,6474,6,0,B|303:203|303:203|279:225|224:233,1,99.9999999999999,2|8,1:2|1:2,0:0:0:0:
156,201,7197,1,2,1:2:0:0:
140,158,7378,1,0,1:0:0:0:
163,119,7558,2,0,P|198:128|233:130,1,50,2|0,1:2|1:0,0:0:0:0:
256,121,7920,6,0,B|282:93|282:93|306:31|226:-12,2,150,4|4|4,1:2|0:0|1:2,0:0:0:0:
292,201,9366,2,0,B|324:215|371:196|371:196|386:209|401:213,1,99.9999999999999,2|8,1:2|1:2,0:0:0:0:
414,241,9908,1,0,1:0:0:0:
457,251,10089,2,0,P|482:245|507:233,2,50,2|0|2,1:2|1:0|1:2,0:0:0:0:
459,161,10811,6,0,L|440:4,1,150,4|4,0:0|0:0,0:0:0:0:
332,92,11896,6,0,P|273:120|178:92,1,150,12|0,0:0|0:0,0:0:0:0:
158,73,12619,2,0,P|212:136|208:213,1,150,12|12,0:0|0:0,0:0:0:0:
140,253,13522,1,8,0:0:0:0:
74,191,13884,2,0,P|47:207|30:214,1,50,12|12,0:0|0:0,0:0:0:0:
226,276,14787,6,0,L|234:367,2,74.9999999999999,6|0|0,3:2|3:0|3:0,0:0:0:0:
305,233,15691,1,0,3:0:0:0:
306,326,16052,1,0,3:0:0:0:
306,326,16233,2,0,P|347:319|381:290,2,74.9999999999999,0|0|0,3:2|3:0|3:0,0:0:0:0:
306,234,17137,1,0,3:0:0:0:
439,254,17679,5,4,3:2:0:0:
423,173,18040,1,8,0:0:0:0:
465,158,18221,1,0,1:0:0:0:
493,123,18402,2,0,B|509:98|502:63|502:63|481:39|482:11,1,99.9999999999999,0|8,3:0|0:0,0:0:0:0:
407,87,19125,6,0,P|380:78|347:74,1,50,0|0,3:0|1:0,0:0:0:0:
332,38,19486,2,0,P|297:47|272:61,1,50,8|0,0:0|1:0,0:0:0:0:
246,29,19848,2,0,B|231:50|231:50|224:90|250:128,1,99.9999999999999,0|8,3:0|0:0,0:0:0:0:
305,187,20570,2,0,P|337:182|365:172,2,50,0|0|8,3:0|1:0|0:0,0:0:0:0:
268,214,21113,1,0,1:0:0:0:
224,226,21293,2,0,B|189:215|189:215|156:238|124:231,1,99.9999999999999,0|8,3:0|0:0,0:0:0:0:
49,191,22016,6,0,B|27:161|25:124|25:124|43:106|45:81,1,99.9999999999999,0|8,3:0|0:0,0:0:0:0:
76,73,22558,1,0,1:0:0:0:
89,30,22739,1,0,3:0:0:0:
166,146,23281,5,2,0:0:0:0:
166,146,23462,2,0,B|153:184|179:219|179:219|161:234|154:253,1,99.9999999999999,4|8,0:2|0:0,0:0:0:0:
131,266,24004,1,0,1:0:0:0:
87,256,24185,2,0,B|74:270|67:283|67:283|83:349,1,99.9999999999999,0|8,3:0|0:0,0:0:0:0:
124,364,24727,1,0,1:0:0:0:
164,343,24908,5,0,3:0:0:0:
238,292,25269,1,8,0:0:0:0:
301,356,25631,2,0,B|332:364|332:364|367:359|367:359|400:370,1,99.9999999999999,0|8,3:0|0:0,0:0:0:0:
464,308,26354,5,0,3:0:0:0:
414,232,26715,1,8,0:0:0:0:
456,216,26896,1,0,1:0:0:0:
481,179,27076,2,0,P|472:152|470:121,1,50,0|0,3:0|1:0,0:0:0:0:
493,91,27438,6,0,B|450:69|434:75|434:75|419:94|396:94,1,99.9999999999999,8|0,0:0|3:0,0:0:0:0:
323,73,28161,1,8,0:0:0:0:
323,73,28342,1,0,1:0:0:0:
323,73,28522,2,0,L|341:181,1,99.9999999999999,0|8,3:0|0:0,0:0:0:0:
265,223,29245,6,0,P|227:208|189:205,2,74.9999999999999,4|0|0,3:2|0:0|1:0,0:0:0:0:
298,252,29968,1,0,3:0:0:0:
336,333,30329,1,8,0:0:0:0:
418,295,30691,6,0,P|428:331|432:368,2,74.9999999999999,0|0|0,3:0|0:0|1:0,0:0:0:0:
448,261,31414,1,0,3:0:0:0:
497,185,31775,1,8,0:0:0:0:
406,181,32137,5,0,3:0:0:0:
371,151,32317,1,0,1:0:0:0:
358,108,32498,1,8,0:0:0:0:
280,61,32860,5,0,3:0:0:0:
259,100,33040,1,0,1:0:0:0:
218,118,33221,1,8,0:0:0:0:
239,205,33583,5,0,3:0:0:0:
284,199,33763,1,0,1:0:0:0:
324,219,33944,2,0,P|334:247|338:275,1,50,8|2,0:0|0:1,0:0:0:0:
323,309,34305,1,2,3:1:0:0:
254,367,34667,1,8,0:0:0:0:
183,311,35028,6,0,B|146:325|125:326|125:326|107:313|96:315,2,74.9999999999999,4|0|0,3:2|0:0|1:0,0:0:0:0:
131,243,35932,1,0,1:0:0:0:
131,243,36113,2,0,P|101:233|78:221,1,50,8|2,0:0|0:0,0:0:0:0:
45,247,36474,6,0,P|48:209|20:158,2,74.9999999999999,0|0|0,3:0|0:0|1:0,0:0:0:0:
183,311,37558,1,8,0:0:0:0:
131,243,37920,6,0,P|162:237|185:224,1,50,0|2,3:0|1:2,0:0:0:0:
217,206,38281,2,0,B|235:143|235:143|216:119|213:98,1,99.9999999999999,8|0,0:0|3:0,0:0:0:0:
305,85,39004,1,8,0:0:0:0:
305,85,39185,2,0,L|408:74,1,99.9999999999999,2|0,1:2|1:0,0:0:0:0:
441,100,39727,2,0,P|472:117|498:122,2,50,8|8|0,0:0|1:2|3:0,0:0:0:0:
400,180,40450,1,4,3:0:0:0:
312,160,40811,6,0,L|331:324,1,150,2|0,3:2|3:0,0:0:0:0:
349,349,41534,2,0,B|374:349|392:331|392:331|410:343|452:337,1,99.9999999999999,0|8,3:0|0:0,0:0:0:0:
486,327,42076,1,0,3:0:0:0:
507,239,42438,1,0,3:0:0:0:
422,261,42799,1,0,3:0:0:0:
422,261,42980,2,0,B|400:218|419:184|419:184|406:157,1,99.9999999999999,0|8,3:0|0:0,0:0:0:0:
484,115,43703,6,0,P|410:127|335:78,1,150,0|0,3:0|3:0,0:0:0:0:
300,70,44426,2,0,L|196:87,1,99.9999999999999,0|8,3:0|0:0,0:0:0:0:
141,153,45149,5,0,3:0:0:0:
73,93,45510,1,0,3:0:0:0:
133,26,45872,1,0,3:0:0:0:
200,85,46233,1,8,3:2:0:0:
224,171,46595,6,0,B|207:192|207:192|241:237|215:267,1,99.9999999999999,4|10,3:2|3:2,0:0:0:0:
169,329,47317,2,0,P|126:333|65:292,1,99.9999999999999,8|10,3:2|3:2,0:0:0:0:
68,217,48040,1,8,3:2:0:0:
155,196,48402,1,10,3:2:0:0:
220,259,48763,2,0,B|249:245|286:241|286:241|297:257|322:269,1,99.9999999999999,10|8,3:2|3:2,0:0:0:0:
377,320,49486,6,0,L|394:203,1,99.9999999999999,4|8,3:2|3:2,0:0:0:0:
443,147,50209,2,0,P|477:158|518:179,2,74.9999999999999,10|2|2,3:2|0:0|0:0,0:0:0:0:
357,143,51113,1,2,0:0:0:0:
357,143,51293,2,0,B|326:157|303:154|303:154|279:131|249:130,1,99.9999999999999,8|10,3:2|3:2,0:0:0:0:
221,119,51836,1,0,0:0:0:0:
184,145,52016,2,0,P|196:179|199:197,1,50,8|2,3:2|0:0,0:0:0:0:
181,234,52378,5,8,0:2:0:0:
55,198,52920,1,8,0:0:0:0:
55,198,53101,2,0,P|43:161|31:136,1,50,8|8,0:0|3:0,0:0:0:0:
61,111,53462,1,4,3:0:0:0:
105,101,53643,6,0,B|91:34|91:34|106:16|108:-11,1,99.9999999999999,8|8,0:0|0:0,0:0:0:0:
191,45,54366,1,8,0:0:0:0:
191,45,54546,2,0,L|180:149,1,99.9999999999999,8|0,0:0|0:0,0:0:0:0:
237,214,55269,6,0,B|276:228|310:209|310:209|323:218|337:221,1,99.9999999999999,6|8,3:2|3:2,0:0:0:0:
415,255,55992,2,0,P|437:295|428:362,1,99.9999999999999,0|8,3:0|3:2,0:0:0:0:
392,365,56534,1,2,0:0:0:0:
314,319,56896,1,2,0:0:0:0:
274,340,57076,2,0,P|246:334|221:320,1,50,8|2,3:2|0:0,0:0:0:0:
182,331,57438,2,0,B|193:259|193:259|178:266|154:287,1,99.9999999999999,0|8,3:2|3:2,0:0:0:0:
129,292,57980,5,2,0:0:0:0:
84,300,58161,2,0,P|52:297|30:286,1,50,0|2,3:2|0:0,0:0:0:0:
8,254,58522,2,0,B|-17:211|7:177|7:177|-5:150,1,99.9999999999999,8|0,3:2|3:0,0:0:0:0:
78,213,59245,5,8,3:2:0:0:
78,213,59426,2,0,B|95:174|77:138|77:138|88:127|93:116,1,99.9999999999999,2|2,0:0|0:0,0:0:0:0:
134,108,59968,1,8,3:2:0:0:
167,78,60149,1,10,0:0:0:0:
168,33,60329,2,0,B|206:59|248:38|248:38|270:53,1,99.9999999999999,12|8,3:2|3:2,0:0:0:0:
241,133,61052,5,6,3:2:0:0:
290,208,61414,1,8,3:2:0:0:
377,226,61775,2,0,B|413:219|413:219|441:231|441:231|485:225,1,99.9999999999999,0|8,3:0|3:2,0:0:0:0:
511,201,62317,2,0,B|520:220|528:231|528:231|510:304,1,99.9999999999999,2|2,0:0|0:0,0:0:0:0:
479,326,62860,1,8,3:2:0:0:
393,354,63221,6,0,B|375:334|375:334|340:365|302:363,1,99.9999999999999,0|8,3:2|3:2,0:0:0:0:
266,349,63763,1,2,0:0:0:0:
238,313,63944,2,0,L|249:202,1,99.9999999999999,0|8,3:0|3:2,0:0:0:0:
162,243,64667,6,0,P|134:246|101:232,1,50,0|2,3:0|0:0,0:0:0:0:
78,211,65028,1,8,3:2:0:0:
61,169,65209,2,0,B|38:143|57:92|57:92|49:81|49:64,1,99.9999999999999,2|2,0:0|0:0,0:0:0:0:
123,126,65932,2,0,P|147:123|180:112,1,50,2|8,0:0|3:0,0:0:0:0:
207,142,66293,1,8,0:0:0:0:
251,149,66474,2,0,P|266:121|275:96,1,50,8|8,3:2|0:0,0:0:0:0:
256,61,66836,6,0,B|282:51|316:60|316:60|338:86|369:78,1,99.9999999999999,6|8,3:2|3:2,0:0:0:0:
433,48,67558,1,0,3:0:0:0:
482,123,67920,1,8,3:2:0:0:
425,193,68281,2,0,B|414:227|414:227|422:260|422:260|410:301,1,99.9999999999999,0|8,3:0|3:2,0:0:0:0:
427,331,68823,5,2,0:1:0:0:
386,349,69004,2,0,P|348:347|331:338,1,50,0|2,3:0|0:1,0:0:0:0:
313,303,69366,2,0,P|304:271|307:249,1,50,8|2,3:2|2:1,0:0:0:0:
342,229,69727,6,0,P|289:234|236:199,1,99.9999999999999,2|8,3:1|3:2,0:0:0:0:
209,131,70450,2,0,P|204:94|216:59,2,74.9999999999999,0|2|2,3:0|0:1|0:1,0:0:0:0:
176,162,71173,6,0,P|150:175|128:179,1,50,0|2,3:1|0:1,0:0:0:0:
97,147,71534,2,0,B|88:167|88:167|118:206|102:240,1,99.9999999999999,8|0,3:2|3:0,0:0:0:0:
70,271,72076,1,2,0:1:0:0:
101,302,72257,2,0,P|91:330|90:361,1,50,10|2,3:1|0:1,0:0:0:0:
121,382,72619,5,4,3:2:0:0:
198,336,72980,1,8,3:2:0:0:
241,325,73161,1,2,0:1:0:0:
284,314,73342,2,0,P|318:328|370:325,2,74.9999999999999,0|2|2,3:0|0:1|0:1,0:0:0:0:
260,275,74064,6,0,B|272:241|252:212|252:212|259:188|289:180,1,99.9999999999999,0|8,3:0|3:2,0:0:0:0:
361,168,74787,2,0,P|378:136|379:108,1,50,0|2,3:1|0:1,0:0:0:0:
373,77,75149,2,0,P|362:49|348:31,1,50,8|2,3:2|0:1,0:0:0:0:
311,9,75510,5,0,3:0:0:0:
265,86,75872,2,0,P|231:79|215:74,1,50,8|2,3:2|0:1,0:0:0:0:
180,47,76233,2,0,P|170:19|166:-4,2,50,2|2|10,3:1|0:1|3:1,0:0:0:0:
151,81,76775,5,4,1:2:0:0:
96,152,77137,1,8,0:0:0:0:
155,219,77498,1,8,0:0:0:0:
168,262,77679,1,8,0:0:0:0:
235,321,78040,1,4,3:0:0:0:
295,254,78402,6,0,B|329:264|360:246|360:246|382:260|400:258,1,99.9999999999999,6|0,3:2|3:2,0:0:0:0:
462,311,79125,2,0,P|479:266|465:214,1,99.9999999999999,0|0,3:0|3:2,0:0:0:0:
410,146,79848,2,0,L|299:166,1,99.9999999999999,2|0,3:2|3:0,0:0:0:0:
241,107,80570,2,0,B|228:79|228:79|237:43|237:43|224:11,1,99.9999999999999,0|0,3:0|3:0,0:0:0:0:
135,22,81293,5,2,3:2:0:0:
150,110,81655,1,0,3:0:0:0:
85,172,82016,2,0,P|42:162|-2:125,1,99.9999999999999,0|0,3:0|3:0,0:0:0:0:
74,76,82739,6,0,B|114:117|113:181|113:181|69:236|84:278,1,200,0|0,3:0|3:0,0:0:0:0:
145,319,83823,1,0,3:0:0:0:
220,270,84185,6,0,B|252:277|252:277|279:239|326:245,1,99.9999999999999,6|8,3:2|3:2,0:0:0:0:
349,261,84727,1,2,0:0:0:0:
377,296,84908,2,0,L|391:186,1,99.9999999999999,0|10,3:0|3:2,0:0:0:0:
458,138,85631,6,0,P|485:145|503:160,2,50,0|0|10,3:0|0:0|3:2,0:0:0:0:
388,80,86354,2,0,P|381:58|382:20,2,50,0|0|10,3:0|0:0|3:2,0:0:0:0:
375,168,87076,6,0,P|347:193|328:197,1,50,0|0,3:2|0:0,0:0:0:0:
292,181,87438,2,0,P|270:163|247:158,1,50,10|0,3:2|0:0,0:0:0:0:
213,185,87799,2,0,P|181:199|162:197,1,50,0|0,3:2|0:0,0:0:0:0:
134,166,88161,1,10,3:2:0:0:
82,239,88522,6,0,B|71:261|69:272|69:272|81:294|81:294|74:321,2,74.9999999999999,0|0|0,3:0|3:0|3:0,0:0:0:0:
