osu file format v14

[General]
AudioFilename: audio.ogg
AudioLeadIn: 0
PreviewTime: 55150
Countdown: 0
SampleSet: None
StackLeniency: 0.2
Mode: 0
LetterboxInBreaks: 0
WidescreenStoryboard: 1

[Editor]
Bookmarks: 15029,17921,29487,41053,46837,52620,55511,67078,78644
DistanceSpacing: 0.3
BeatDivisor: 4
GridSize: 32
TimelineZoom: 1.8

[Metadata]
Title:Idol (TV Size)
TitleUnicode:アイドル (TV Size)
Artist:YOASOBI
ArtistUnicode:YOASOBI
Creator:achyoo
Version:Suou's Expert
Source:【推しの子】
Tags:mocaotic iceluin shirahane suou rtyzen fairyaccel midorijeon ayucchi 幾田りら Ikuta Lilas ikura Ayase Japanese Pop J-pop Jpop anime opening op my star oshi no ko mom mum mother and children
BeatmapID:4097135
BeatmapSetID:1974204

[Difficulty]
HPDrainRate:5
CircleSize:4
OverallDifficulty:8.8
ApproachRate:9.2
SliderMultiplier:2
SliderTickRate:1

[Events]
//Background and Video events
0,0,"hoshinoai.jpg",0,0
//Break Periods
//Storyboard Layer 0 (Background)
//Storyboard Layer 1 (Fail)
//Storyboard Layer 2 (Pass)
//Storyboard Layer 3 (Foreground)
//Storyboard Layer 4 (Overlay)
//Storyboard Sound Samples

[TimingPoints]
572,361.44578313253,4,2,1,75,1,0
572,-50,4,2,1,75,0,0
933,-100,4,2,1,75,0,0
2379,-50,4,2,1,75,0,0
3825,-100,4,2,1,75,0,0
5270,-50,4,2,1,75,0,0
6716,-100,4,2,1,75,0,0
8162,-50,4,2,1,75,0,0
9608,-100,4,2,1,75,0,0
11053,-50,4,2,1,75,0,0
12138,-100,4,2,1,75,0,0
14668,-400,4,2,1,75,0,0
15029,-100,4,2,1,75,0,0
15571,-66.6666666666667,4,2,1,75,0,0
15933,-200,4,2,1,75,0,0
16475,-100,4,2,1,75,0,0
17017,-66.6666666666667,4,2,1,75,0,0
17379,-200,4,2,1,75,0,0
17921,-100,4,2,1,65,0,0
18463,-133.333333333333,4,2,1,65,0,0
23704,-50,4,2,1,65,0,0
24246,-133.333333333333,4,2,1,65,0,0
28764,-66.6666666666667,4,2,1,65,0,0
29126,-100,4,2,1,65,0,0
29487,-83.3333333333333,4,2,1,65,0,0
41053,-83.3333333333333,4,2,1,55,0,0
41776,-117.647058823529,4,2,1,55,0,0
42138,-66.6666666666667,4,2,1,55,0,0
42318,-117.647058823529,4,2,1,55,0,0
43584,-66.6666666666667,4,2,1,55,0,0
44668,-117.647058823529,4,2,1,55,0,0
45029,-66.6666666666667,4,2,1,55,0,0
46837,-83.3333333333333,4,2,1,65,0,0
55150,-166.666666666667,4,2,1,50,0,0
55511,-100,4,2,1,80,0,1
55873,-50,4,2,1,80,0,1
56234,-66.6666666666667,4,2,1,80,0,1
58403,-100,4,2,1,80,0,1
58764,-50,4,2,1,80,0,1
59126,-66.6666666666667,4,2,1,80,0,1
60571,-100,4,2,1,80,0,1
60933,-50,4,2,1,80,0,1
61294,-100,4,2,1,80,0,1
61656,-50,4,2,1,80,0,1
62017,-66.6666666666667,4,2,1,80,0,1
64186,-100,4,2,1,80,0,1
64547,-50,4,2,1,80,0,1
64909,-66.6666666666667,4,2,1,80,0,1
67078,-83.3333333333333,4,2,1,80,0,0
68523,-58.8235294117647,4,2,1,80,0,0
69246,-83.3333333333333,4,2,1,80,0,0
69969,-200,4,2,1,80,0,0
70331,-66.6666666666667,4,2,1,80,0,0
70692,-83.3333333333333,4,2,1,80,0,0
71415,-58.8235294117647,4,2,1,80,0,0
72138,-83.3333333333333,4,2,1,80,0,0
74306,-58.8235294117647,4,2,1,80,0,0
75029,-83.3333333333333,4,2,1,80,0,0
78282,-200,4,2,1,80,0,0
78644,-133.333333333333,4,2,1,70,0,0
88855,-100,4,2,1,70,0,0

[Colours]
Combo1 : 189,147,247
Combo2 : 253,151,255

[HitObjects]
178,139,572,6,0,B|310:85|396:210|396:210|353:214|329:253,1,300,6|0,1:3|2:0,2:0:0:0:
392,321,933,6,0,P|393:310|400:295,8,25,2|0|0|0|2|0|0|0|10,2:0|2:0|2:0|2:0|2:0|2:0|2:0|2:0|2:3,2:0:0:0:
277,170,1656,5,2,2:0:0:0:
271,187,2017,1,2,2:0:0:0:
331,258,2379,6,0,P|299:144|219:5,1,200,6|2,1:3|2:0,2:0:0:0:
247,63,2740,1,10,2:3:0:0:
193,384,2921,6,0,P|225:270|305:131,1,200,6|2,1:3|2:0,2:0:0:0:
271,187,3282,1,0,2:0:0:0:
353,384,3463,6,0,P|227:303|80:280,1,300,6|0,1:3|2:0,2:0:0:0:
24,342,3825,6,0,B|20:357|20:357|38:380,8,25,2|0|0|0|2|0|0|0|10,2:0|2:0|2:0|2:0|2:0|2:0|2:0|2:0|2:3,2:0:0:0:
194,296,4547,5,2,2:0:0:0:
178,304,4909,1,2,2:0:0:0:
176,198,5270,6,0,B|242:173|264:238|260:239|294:303|383:250,1,200,6|2,1:3|2:0,2:0:0:0:
363,262,5632,1,10,2:3:0:0:
194,296,5812,6,0,B|264:291|258:223|254:224|259:152|361:164,1,200,6|2,1:3|2:0,2:0:0:0:
338,170,6174,1,0,2:0:0:0:
166,66,6355,6,0,B|131:56|118:33|118:33|126:121|176:198|176:198|152:168|98:148,1,300,6|0,1:3|2:0,2:0:0:0:
81,258,6716,6,0,L|104:248,8,25,2|0|0|0|0|0|0|0|10,2:0|2:0|2:0|2:0|2:0|2:0|2:0|2:0|2:3,2:0:0:0:
232,132,7439,5,2,2:0:0:0:
244,140,7800,1,2,2:0:0:0:
185,316,8162,6,0,B|217:242|302:267|302:267|269:311|286:372,1,200,6|0,1:3|2:0,2:0:0:0:
281,338,8523,1,10,2:3:0:0:
486,253,8704,6,0,B|454:179|369:204|369:204|402:248|385:309,1,200,6|2,1:3|2:0,2:0:0:0:
390,275,9065,1,0,2:0:0:0:
407,384,9246,6,0,P|441:238|491:96,1,300,6|0,1:3|2:0,2:0:0:0:
478,15,9608,6,0,L|432:31,8,25,2|0|0|0|0|0|0|0|8,2:0|2:0|2:0|2:0|2:0|2:0|2:0|2:0|2:3,2:0:0:0:
391,93,10331,5,2,2:0:0:0:
397,112,10692,1,2,2:0:0:0:
280,281,11053,6,0,P|423:339|488:430,1,200,6|0,1:3|2:0,2:0:0:0:
459,384,11415,1,10,2:3:0:0:
168,273,11596,6,0,P|263:246|340:184,1,200,6|2,1:3|2:0,2:0:0:0:
346,169,11957,1,0,2:0:0:0:
137,0,12138,6,0,P|187:33|297:55,1,150,6|0,1:3|2:0,2:0:0:0:
106,75,12499,6,0,P|156:108|266:130,1,150,2|0,2:0|2:0,2:0:0:0:
75,150,12861,6,0,P|125:183|235:205,1,150,6|0,1:3|2:0,2:0:0:0:
289,201,13222,1,2,2:0:0:0:
22,384,13403,6,0,P|38:322|132:309,1,150,2|0,1:2|2:0,2:0:0:0:
6,239,13764,6,0,P|69:235|111:320,1,150,2|0,1:2|2:0,2:0:0:0:
100,376,14126,1,2,1:2:0:0:
0,146,14306,5,2,1:2:0:0:
0,146,14668,2,0,L|12:104,1,37.5
111,10,15029,6,0,B|158:-7|158:-7|200:40,1,100,2|0,1:2|0:0,0:0:0:0:
170,107,15300,2,0,B|123:124|123:124|81:77,1,100,0|0,1:0|0:0,0:0:0:0:
35,27,15571,6,0,P|141:62|250:90,1,225.000008583069,0|0,1:0|0:0,0:0:0:0:
265,89,15933,6,0,P|289:68|277:-3,1,100,0|0,1:0|1:0,0:0:0:0:
133,183,16475,6,0,B|126:207|105:224|105:224|125:210|171:215,1,100,2|0,1:2|0:0,0:0:0:0:
257,223,16746,2,0,B|263:198|284:181|284:181|264:195|218:190,1,100,0|0,1:0|0:0,0:0:0:0:
170,107,17017,6,0,B|142:182|205:211|214:204|277:258|215:338,1,225.000008583069,0|0,1:0|0:0,0:0:0:0:
225,318,17379,6,0,P|176:313|140:345,1,100,0|0,1:0|1:0,0:0:0:0:
56,232,17921,5,6,1:0:0:0:
124,165,18102,1,2,2:0:0:0:
214,191,18282,1,10,1:2:0:0:
236,281,18463,2,0,L|218:343,1,37.5000000000001,2|0,2:0|2:0,2:0:0:0:
324,306,18644,2,0,L|306:368,1,37.5000000000001,2|0,1:2|2:0,2:0:0:0:
392,239,18825,2,0,L|368:142,1,75.0000000000002,0|8,2:0|1:2,2:0:0:0:
190,99,19186,2,0,L|181:63,1,37.5000000000001,2|0,2:0|2:0,2:0:0:0:
282,124,19367,5,2,1:2:0:0:
350,57,19547,1,2,2:0:0:0:
376,47,19638,1,0,2:0:0:0:
404,50,19728,1,10,1:2:0:0:
428,64,19818,1,0,2:0:0:0:
444,87,19909,1,2,2:0:0:0:
374,166,20090,1,2,1:2:0:0:
497,259,20270,2,0,L|471:165,1,75.0000000000002,0|8,2:0|1:2,2:0:0:0:
282,124,20632,2,0,L|272:160,1,37.5000000000001,2|0,2:0|2:0,2:0:0:0:
214,383,20812,5,2,1:2:0:0:
329,263,20993,1,2,2:0:0:0:
167,224,21174,1,10,1:2:0:0:
249,305,21355,2,0,L|240:268,1,37.5000000000001,0|0,2:0|2:0,2:0:0:0:
133,335,21535,2,0,L|123:298,1,37.5000000000001,2|0,1:2|2:0,2:0:0:0:
210,149,21716,1,2,2:0:0:0:
136,104,21897,1,10,1:2:0:0:
93,179,22078,1,0,2:0:0:0:
285,195,22258,5,2,1:2:0:0:
287,96,22439,1,2,2:0:0:0:
283,68,22529,1,0,2:0:0:0:
263,49,22620,1,10,1:2:0:0:
236,45,22710,1,0,2:0:0:0:
212,58,22800,1,2,2:0:0:0:
210,149,22981,5,2,1:2:0:0:
378,51,23162,1,0,2:0:0:0:
210,149,23343,1,8,1:2:0:0:
378,51,23523,1,2,2:0:0:0:
276,239,23704,6,0,P|193:183|97:158,1,200,6|2,1:3|2:0,2:0:0:0:
86,309,24065,5,10,1:2:0:0:
148,229,24246,2,0,L|167:285,1,37.5000000000001,2|0,2:0|2:0,2:0:0:0:
210,149,24427,2,0,L|229:205,1,37.5000000000001,2|0,1:2|2:0,2:0:0:0:
326,374,24608,2,0,L|360:273,1,75.0000000000002,0|8,2:0|1:2,2:0:0:0:
502,190,24969,2,0,L|490:225,1,37.5000000000001,2|0,2:0|2:0,2:0:0:0:
441,328,25150,5,2,1:2:0:0:
315,181,25331,1,2,2:0:0:0:
341,177,25421,1,0,2:0:0:0:
368,187,25511,1,10,1:2:0:0:
388,207,25602,1,0,2:0:0:0:
397,233,25692,1,2,2:0:0:0:
290,352,25873,2,0,L|185:330,1,75.0000000000002,2|0,1:2|2:0,2:0:0:0:
149,169,26234,2,0,L|222:184,1,75.0000000000002,8|2,1:2|2:0,2:0:0:0:
66,384,26596,5,2,1:2:0:0:
1,237,26776,1,2,2:0:0:0:
77,121,26957,1,10,1:2:0:0:
49,36,27138,2,0,L|67:-22,1,37.5000000000001,0|0,2:0|2:0,2:0:0:0:
143,20,27318,2,0,L|131:55,1,37.5000000000001,2|0,1:2|2:0,2:0:0:0:
0,155,27499,1,2,2:0:0:0:
126,192,27680,2,0,L|199:172,1,75.0000000000002,10|0,1:2|2:0,2:0:0:0:
339,87,28041,5,2,1:2:0:0:
290,12,28222,1,2,2:0:0:0:
263,21,28312,1,0,2:0:0:0:
246,42,28403,1,10,1:2:0:0:
241,70,28493,1,0,2:0:0:0:
251,96,28584,1,2,2:0:0:0:
500,80,28764,6,0,B|526:52|526:52|501:-9,1,75,2|0,1:2|2:0,2:0:0:0:
435,4,28945,2,0,B|409:32|409:32|434:93,1,75,0|0,2:0|2:0,2:0:0:0:
482,164,29126,6,0,B|486:191|486:191|456:238,1,50,10|0,1:2|2:0,2:0:0:0:
397,192,29306,2,0,B|393:165|393:165|423:118,1,50,0|0,2:0|2:0,2:0:0:0:
476,307,29487,6,0,P|421:283|361:280,1,120,6|0,1:2|2:0,2:0:0:0:
352,287,29758,1,2,2:0:0:0:
282,327,29849,2,0,P|267:301|272:272,1,60,8|0,1:2|2:0,2:0:0:0:
270,86,30029,2,0,P|316:129|303:192,1,120,2|0,2:0|1:0,2:0:0:0:
184,359,30391,6,0,P|174:330|188:287,1,60,2|0,2:0|2:0,2:0:0:0:
115,254,30571,2,0,P|134:231|178:222,1,60,10|0,1:2|2:0,2:0:0:0:
172,141,30752,2,0,P|201:146|231:180,1,60,2|0,2:0|2:0,2:0:0:0:
361,279,30933,6,0,P|420:275|453:226,1,120,2|0,1:2|2:0,2:0:0:0:
464,222,31204,1,2,2:0:0:0:
506,154,31294,2,0,P|473:145|438:127,1,60,8|0,1:2|2:0,2:0:0:0:
320,0,31475,2,0,P|366:49|355:115,1,120,2|0,2:0|1:0,2:0:0:0:
204,219,31837,6,0,P|207:189|224:164,1,60,2|0,2:0|2:0,2:0:0:0:
158,293,32017,2,0,P|134:275|121:248,1,60,10|0,1:2|2:0,2:0:0:0:
199,369,32198,2,0,P|171:380|141:378,1,60,2|0,2:0|2:0,2:0:0:0:
292,219,32379,6,0,P|321:224|348:237,1,60,2|0,1:2|2:0,2:0:0:0:
268,303,32559,2,0,P|297:308|324:321,1,60,2|0,2:0|2:0,2:0:0:0:
497,161,32740,2,0,P|456:241|440:329,1,180,10|0,1:2|2:0,2:0:0:0:
453,332,33102,6,0,P|452:307|420:264,1,60,2|0,1:2|2:0,2:0:0:0:
388,195,33282,2,0,P|366:208|345:257,1,60,2|0,2:0|2:0,2:0:0:0:
366,384,33463,2,0,P|285:343|197:327,1,180,10|0,1:2|2:0,2:0:0:0:
184,338,33825,5,2,1:2:0:0:
147,248,34005,1,2,2:0:0:0:
256,152,34186,5,10,1:2:0:0:
219,62,34367,1,2,2:0:0:0:
245,257,34547,5,2,1:2:0:0:
130,98,34728,6,0,P|95:110|71:152,1,60,10|8,2:0|2:0,2:0:0:0:
9,188,34909,2,0,P|37:211|85:211,1,60,10|0,1:2|2:0,2:0:0:0:
147,248,35090,2,0,P|152:211|129:170,1,60,10|0,1:2|2:0,2:0:0:0:
0,350,35270,6,0,P|42:309|102:320,1,120,6|0,1:2|2:0,2:0:0:0:
105,329,35541,1,2,2:0:0:0:
160,384,35632,2,0,P|181:357|184:324,1,60,8|0,1:2|2:0,2:0:0:0:
343,224,35812,2,0,P|300:264|240:253,1,120,2|0,2:0|1:0,2:0:0:0:
451,384,36174,6,0,P|425:369|396:360,1,60,2|0,2:0|2:0,2:0:0:0:
480,303,36355,2,0,P|454:288|425:279,1,60,10|0,1:2|2:0,2:0:0:0:
509,222,36535,2,0,P|483:207|454:198,1,60,2|0,2:0|2:0,2:0:0:0:
344,28,36716,6,0,P|368:82|382:140,1,120,2|0,1:2|2:0,2:0:0:0:
378,153,36987,1,2,2:0:0:0:
343,224,37078,2,0,P|320:208|305:148,1,60,8|0,1:2|2:0,2:0:0:0:
430,0,37258,2,0,P|454:54|468:112,1,120,2|0,2:0|1:0,2:0:0:0:
241,238,37620,5,2,2:0:0:0:
233,229,37710,1,2,2:0:0:0:
225,221,37800,2,0,P|193:236|179:276,1,60,10|0,1:2|2:0,2:0:0:0:
97,245,37981,2,0,P|94:280|122:312,1,60,2|0,2:0|2:0,2:0:0:0:
211,130,38162,6,0,P|197:103|190:72,1,60,2|0,1:2|2:0,2:0:0:0:
106,106,38343,2,0,P|119:132|126:162,1,60,2|0,2:0|2:0,2:0:0:0:
277,73,38523,2,0,L|425:113,1,120,10|0,1:2|2:0,2:0:0:0:
442,181,38794,5,2,2:0:0:0:
442,181,38885,2,0,P|424:212|424:258,1,60,2|0,1:2|2:0,2:0:0:0:
364,316,39065,2,0,P|345:285|305:262,1,60,2|0,2:0|2:0,2:0:0:0:
286,181,39246,2,0,P|321:180|361:157,1,60,10|0,1:2|2:0,2:0:0:0:
286,352,39427,6,0,P|231:352|170:388,1,120,2|0,2:0|1:0,2:0:0:0:
17,221,39788,2,0,P|6:248|-2:296,1,60,2|0,2:0|2:0,2:0:0:0:
141,249,39969,2,0,P|131:276|124:306,1,60,10|0,1:2|2:0,2:0:0:0:
59,115,40150,5,10,2:0:0:0:
53,126,40240,1,8,2:0:0:0:
47,138,40331,2,0,B|73:152|91:175|91:175|123:159|170:155,1,120,10|0,1:2|3:0,2:0:0:0:
327,75,40692,2,0,P|310:99|303:129,1,60,2|0,3:2|2:0,2:0:0:0:
225,85,40873,2,0,P|232:55|248:30,1,60,2|0,2:0|2:0,2:0:0:0:
393,139,41053,5,6,1:2:0:0:
393,139,41415,1,2,2:0:0:0:
275,206,41596,1,2,1:2:0:0:
415,356,41776,2,0,P|406:314|392:274,1,85.0000000000003,0|2,1:0|2:0,2:0:0:0:
142,150,42138,6,0,B|131:185|131:185|155:215,1,75,8|0,2:0|2:0,2:0:0:0:
67,303,42318,2,0,P|128:295|179:331,1,127.5,2|0,1:2|2:0,2:0:0:0:
239,383,42680,2,0,B|270:355|270:355|260:312,1,85.0000000000003,2|2,1:2|2:0,2:0:0:0:
247,217,43041,1,2,1:2:0:0:
108,382,43222,1,2,1:2:0:0:
108,382,43584,2,0,B|62:320|110:272|118:279|172:231|101:154,1,225,10|0,2:0|2:0,2:0:0:0:
52,126,43945,5,2,1:2:0:0:
52,126,44306,1,2,2:0:0:0:
167,81,44487,1,2,1:2:0:0:
80,259,44668,2,0,P|41:241|0:235,1,85.0000000000003,2|0,1:2|2:0,2:0:0:0:
257,130,45029,6,0,P|286:154|335:148,1,75,10|0,2:0|2:0,2:0:0:0:
313,75,45210,1,2,2:0:0:0:
169,193,45391,5,2,1:2:0:0:
222,383,45571,1,2,2:0:0:0:
284,243,45752,5,2,1:2:0:0:
315,357,45933,1,2,2:0:0:0:
401,304,46114,5,2,1:2:0:0:
205,48,46294,5,0,1:0:0:0:
199,58,46385,1,0,1:0:0:0:
194,68,46475,2,0,B|224:150|335:125|335:125|307:88|312:38,1,225,10|0,2:0|2:0,2:0:0:0:
401,66,46837,6,0,P|452:95|511:103,1,120,6|0,1:2|2:0,2:0:0:0:
286,295,47198,1,10,1:2:0:0:
401,304,47379,2,0,B|414:247|414:247|353:193,1,120,2|0,2:0|1:0,2:0:0:0:
204,383,47740,2,0,B|158:343|158:343|171:286,1,120,2|8,2:0|1:2,2:0:0:0:
284,71,48102,6,0,P|261:126|254:185,1,120,2|0,2:0|1:0,2:0:0:0:
80,321,48463,1,2,2:0:0:0:
70,327,48553,1,0,2:0:0:0:
61,332,48644,2,0,P|33:321|3:318,1,60,10|0,1:2|2:0,2:0:0:0:
27,218,48825,2,0,P|54:228|84:232,1,60,2|0,2:0|2:0,2:0:0:0:
165,384,49005,2,0,P|248:350|337:349,1,180,2|0,1:2|2:0,2:0:0:0:
382,276,49367,2,0,P|404:291|419:333,1,60,10|0,1:2|2:0,2:0:0:0:
500,320,49547,2,0,P|498:346|469:380,1,60,2|0,2:0|2:0,2:0:0:0:
465,229,49728,6,0,P|476:171|494:113,1,120,6|0,1:2|2:0,2:0:0:0:
246,53,50090,2,0,P|234:111|216:169,1,120,10|0,1:2|2:0,2:0:0:0:
23,373,50451,6,0,P|72:323|146:342,1,120,2|0,1:2|2:0,2:0:0:0:
186,273,50722,1,2,2:0:0:0:
186,273,50812,2,0,P|202:302|201:336,1,60,8|0,1:2|2:0,2:0:0:0:
22,248,50993,2,0,P|3:180|56:125,1,120,2|0,2:0|1:0,2:0:0:0:
165,0,51355,5,2,2:0:0:0:
314,152,51535,1,10,1:2:0:0:
108,204,51716,1,2,2:0:0:0:
196,118,51897,1,2,1:2:0:0:
432,185,52078,5,2,2:0:0:0:
344,271,52258,1,10,1:2:0:0:
402,66,52439,1,2,2:0:0:0:
314,152,52620,1,10,1:2:0:0:
462,304,52800,5,8,2:1:0:0:
284,32,52981,1,8,2:1:0:0:
226,238,53162,5,10,1:2:0:0:
77,86,53343,1,10,1:2:0:0:
78,304,53523,1,8,2:0:0:0:
78,355,53614,1,8,2:0:0:0:
31,372,53704,1,2,3:2:0:0:
0,333,53794,1,0,3:0:0:0:
28,292,53885,6,0,B|137:269|137:269|160:307|194:316,1,180,10|0,1:2|2:0,2:0:0:0:
385,216,54246,6,0,B|276:193|276:193|253:231|219:240,1,180,10|0,1:2|2:0,2:0:0:0:
176,97,54608,6,0,P|189:123|194:153,1,60,10|0,1:2|2:0,2:0:0:0:
293,356,54788,2,0,P|298:326|311:299,1,60,10|0,1:2|2:0,2:0:0:0:
393,327,55150,6,0,P|387:356|374:383,1,59.9999999999999,2|2,2:0|2:0,2:0:0:0:
316,209,55511,6,0,P|354:166|413:175,1,100,6|0,1:0|2:0,2:0:0:0:
405,171,55782,1,0,2:0:0:0:
481,235,55873,6,0,P|340:182|189:152,1,300,10|0,1:2|2:0,2:0:0:0:
128,214,56234,6,0,P|103:188|107:134,1,75,2|0,1:2|2:0,2:0:0:0:
198,0,56415,2,0,P|223:26|219:80,1,75,2|0,2:0|2:0,2:0:0:0:
138,68,56596,1,10,1:2:0:0:
289,271,56776,6,0,P|198:279|164:346,1,150,2|0,2:0|1:0,2:0:0:0:
255,355,57047,1,0,2:0:0:0:
255,355,57138,2,0,P|291:364|322:384,1,75,2|0,2:0|2:0,2:0:0:0:
453,275,57318,2,0,P|416:284|385:304,1,75,10|0,1:2|2:0,2:0:0:0:
287,174,57499,2,0,P|323:183|354:203,1,75,2|0,2:0|2:0,2:0:0:0:
512,40,57680,6,0,P|464:97|447:169,1,150,2|0,1:2|2:0,2:0:0:0:
189,26,58041,2,0,P|225:16|259:0,1,75,10|0,1:2|2:0,2:0:0:0:
295,84,58222,2,0,P|258:93|224:109,1,75,2|0,2:0|2:0,2:0:0:0:
39,153,58403,6,0,P|0:124|0:76,1,100,2|0,1:2|2:0,2:0:0:0:
5,63,58674,1,0,2:0:0:0:
74,0,58764,6,0,B|137:85|159:226|159:226|123:195|64:199,1,300,10|0,1:2|2:0,2:0:0:0:
102,293,59126,6,0,P|171:265|245:253,1,150,2|0,1:2|2:0,2:0:0:0:
336,255,59397,1,0,2:0:0:0:
336,255,59487,2,0,P|358:224|356:182,1,75,10|0,1:2|2:0,2:0:0:0:
256,48,59668,2,0,P|234:79|236:121,1,75,2|0,2:0|2:0,2:0:0:0:
422,299,59849,5,0,1:0:0:0:
320,109,60029,1,2,2:0:0:0:
276,384,60210,1,10,1:2:0:0:
512,202,60391,5,10,2:0:0:0:
506,194,60481,1,8,2:0:0:0:
502,186,60571,2,0,L|435:199,1,50,2|0,1:2|2:0,2:0:0:0:
179,197,60752,5,8,2:0:0:0:
171,209,60843,1,8,2:0:0:0:
174,223,60933,2,0,B|227:320|340:265|340:265|320:177|210:207,1,300,10|8,1:2|2:0,2:0:0:0:
108,278,61294,6,0,P|50:298|8:330,1,100,6|0,1:2|2:0,2:0:0:0:
12,336,61565,1,0,2:0:0:0:
93,373,61656,6,0,B|130:267|44:235|38:243|-31:200|16:88,1,300,10|0,1:2|2:0,2:0:0:0:
21,25,62017,6,0,P|54:40|125:46,1,75,2|0,1:2|2:0,2:0:0:0:
267,199,62198,2,0,P|233:183|163:178,1,75,0|0,2:0|2:0,2:0:0:0:
144,112,62379,1,10,1:2:0:0:
377,22,62559,6,0,B|385:56|410:90|410:90|377:113|352:153,1,150,2|0,2:0|1:0,2:0:0:0:
254,10,62831,1,0,2:0:0:0:
254,10,62921,2,0,P|278:35|300:77,1,75,2|0,2:0|2:0,2:0:0:0:
454,179,63102,2,0,P|430:204|408:246,1,75,10|0,1:2|2:0,2:0:0:0:
258,321,63282,2,0,P|282:346|304:388,1,75,2|0,2:0|2:0,2:0:0:0:
471,306,63463,6,0,P|401:278|328:262,1,150,2|0,1:2|2:0,2:0:0:0:
243,231,63734,1,0,2:0:0:0:
243,231,63825,2,0,P|207:238|184:268,1,75,10|0,1:2|2:0,2:0:0:0:
109,384,64005,2,0,P|120:349|105:315,1,75,2|0,2:0|2:0,2:0:0:0:
7,165,64186,6,0,P|34:205|81:219,1,100,2|0,1:2|2:0,2:0:0:0:
98,217,64457,1,0,2:0:0:0:
17,291,64547,6,0,B|66:175|91:65|91:65|93:105|124:145,1,300,10|0,1:2|2:0,2:0:0:0:
318,112,64909,6,0,P|261:64|176:78,1,150,2|0,1:2|2:0,2:0:0:0:
209,226,65180,1,0,2:0:0:0:
209,226,65270,2,0,P|218:189|234:155,1,75,10|0,1:2|2:0,2:0:0:0:
378,27,65451,6,0,B|416:29|451:14|451:14|462:57|505:90,1,150,2|0,2:0|1:0,2:0:0:0:
378,358,65812,2,0,B|340:356|305:371|305:371|294:328|251:295,1,150,2|8,2:0|1:2,2:0:0:0:
336,123,66174,5,2,2:0:0:0:
345,117,66264,1,0,2:0:0:0:
354,113,66355,2,0,P|396:127|437:150,1,75,10|8,1:2|2:0,2:0:0:0:
315,228,66535,2,0,P|357:242|398:265,1,75,8|8,2:0|2:0,2:0:0:0:
251,158,66716,5,10,1:2:0:0:
216,168,66806,1,8,2:0:0:0:
181,157,66897,1,10,2:0:0:0:
157,129,66987,1,8,2:0:0:0:
225,78,67078,6,0,P|191:161|184:279,1,180,6|0,1:2|2:0,2:0:0:0:
195,272,67439,2,0,P|154:321|92:312,1,120,8|2,1:2|2:0,2:0:0:0:
0,223,67710,5,0,2:0:0:0:
0,223,67800,2,0,P|41:174|103:183,1,120,2|2,1:2|2:0,2:0:0:0:
225,78,68071,1,0,0:0:0:0:
225,78,68162,2,0,P|221:49|199:6,1,60,10|0,1:2|2:0,2:0:0:0:
139,98,68343,2,0,P|135:69|113:26,1,60,2|0,2:0|2:0,2:0:0:0:
310,124,68523,6,0,P|406:163|499:175,2,170,2|0|8,1:2|2:0|1:2,2:0:0:0:
202,176,69065,5,2,2:0:0:0:
195,186,69156,1,0,2:0:0:0:
189,196,69246,2,0,P|201:223|208:252,1,60,2|0,1:2|2:0,2:0:0:0:
306,358,69427,2,0,P|293:330|286:301,1,60,2|0,2:0|2:0,2:0:0:0:
152,330,69608,6,0,P|181:337|208:349,1,60,10|0,1:2|2:0,2:0:0:0:
291,212,69788,2,0,P|319:224|348:232,1,60,2|0,2:0|2:0,2:0:0:0:
441,316,69969,6,0,L|512:294,1,75,2|0,1:2|2:0,2:0:0:0:
392,384,70331,6,0,L|464:148,1,225,10|0,1:2|2:0,2:0:0:0:
461,87,70692,6,0,B|450:56|454:26|454:26|425:43|378:42,1,119.999996337891,2|0,1:2|0:0,0:0:0:0:
263,48,70963,1,2,2:0:0:0:
263,48,71053,2,0,P|285:67|314:73,1,60,8|0,1:2|2:0,2:0:0:0:
333,157,71234,2,0,P|361:147|381:125,1,60,2|0,2:0|2:0,2:0:0:0:
238,132,71415,6,0,B|217:188|217:188|239:232|239:232|212:307,2,170,2|2|10,1:2|2:0|1:2,2:0:0:0:
391,262,71957,5,2,2:0:0:0:
383,253,72047,1,0,2:0:0:0:
375,246,72138,2,0,P|345:252|318:264,1,60,2|0,1:2|2:0,2:0:0:0:
214,378,72318,2,0,P|184:371|157:359,1,60,0|0,2:0|2:0,2:0:0:0:
0,251,72499,6,0,P|11:278|18:307,1,60,10|0,1:2|2:0,2:0:0:0:
129,188,72680,2,0,P|117:215|110:244,1,60,2|0,2:0|2:0,2:0:0:0:
0,97,72861,6,0,P|87:104|151:45,1,180,6|0,1:2|2:0,2:0:0:0:
144,26,73222,2,0,P|203:35|257:60,1,120,8|2,1:2|2:0,2:0:0:0:
417,67,73493,5,2,2:0:0:0:
417,67,73584,2,0,P|345:121|303:99,1,119.999996337891,2|2,1:2|2:0,2:0:0:0:
185,185,73855,1,0,0:0:0:0:
185,185,73945,2,0,P|162:165|149:138,1,59.9999981689454,10|0,1:2|2:0,2:0:0:0:
233,113,74126,2,0,P|239:84|257:59,1,60,2|0,2:0|2:0,2:0:0:0:
329,202,74306,6,0,P|360:281|376:365,2,170,2|0|8,1:2|2:0|1:2,2:0:0:0:
270,384,74849,5,2,2:0:0:0:
265,376,74939,1,2,2:0:0:0:
260,369,75029,2,0,P|265:339|278:312,1,60,2|0,1:2|2:0,2:0:0:0:
198,282,75210,2,0,P|184:308|179:338,1,60,2|0,2:0|2:0,2:0:0:0:
20,251,75391,6,0,P|14:221|1:194,1,60,10|0,1:2|2:0,2:0:0:0:
82,164,75571,2,0,P|95:190|100:220,1,60,2|0,2:0|2:0,2:0:0:0:
86,299,75752,5,10,1:0:0:0:
269,229,75933,1,2,2:0:0:0:
16,116,76114,1,10,1:0:0:0:
199,46,76294,1,2,2:0:0:0:
179,337,76475,5,10,1:0:0:0:
289,124,76656,1,0,2:0:0:0:
75,23,76837,1,10,2:0:0:0:
269,229,77017,6,0,B|327:294|395:239|395:239|342:174,1,180,6|0,1:2|2:0,2:0:0:0:
492,75,77379,6,0,B|434:10|366:65|366:65|419:130,1,180,2|0,2:0|2:0,2:0:0:0:
457,168,77740,5,2,2:0:0:0:
463,178,77831,1,0,0:0:0:0:
468,187,77921,2,0,L|427:363,1,179.999994506836,2|8,1:2|2:0,0:0:0:0:
416,379,78282,6,0,L|336:357,1,75,8|8,1:2|2:0,0:0:0:0:
251,341,78644,6,0,P|274:269|292:197,3,150,6|2|2|2,1:0|1:2|1:2|1:2,2:0:0:0:
43,131,80090,2,0,P|19:202|2:274,3,150,2|2|2|2,1:2|1:2|1:2|1:2,2:0:0:0:
311,384,81535,6,0,P|347:364|395:364,1,75.0000000000002,2|0,1:2|2:0,2:0:0:0:
285,299,81897,2,0,P|321:279|369:279,1,75.0000000000002,2|0,1:2|2:0,2:0:0:0:
483,224,82258,6,0,P|446:204|398:204,1,75.0000000000002,2|0,1:2|2:0,2:0:0:0:
509,139,82620,2,0,P|472:119|424:119,1,75.0000000000002,2|0,1:2|2:0,2:0:0:0:
245,45,82981,5,0,1:0:0:0:
328,141,83162,1,0,2:0:0:0:
333,133,83252,1,0,2:0:0:0:
338,123,83343,2,0,L|326:73,2,37.5000000000001,0|0|0,1:0|2:0|2:0,2:0:0:0:
136,219,83704,5,0,1:0:0:0:
220,319,83885,1,0,2:0:0:0:
318,236,84065,1,0,1:0:0:0:
236,138,84246,1,0,2:0:0:0:
122,322,84427,6,0,P|64:310|-1:384,3,150,6|10|2|10,1:2|1:2|1:2|1:2,2:0:0:0:
318,236,85873,2,0,P|389:244|438:190,3,150,2|10|2|10,1:2|1:2|1:2|1:2,2:0:0:0:
178,11,87318,6,0,P|162:45|154:82,1,75.0000000000002,2|0,1:2|2:0,2:0:0:0:
262,41,87680,2,0,P|246:75|238:112,1,75.0000000000002,10|0,1:2|2:0,2:0:0:0:
93,158,88041,6,0,P|109:192|117:229,1,75.0000000000002,2|0,1:2|2:0,2:0:0:0:
9,188,88403,2,0,P|25:222|33:259,1,75.0000000000002,10|0,1:2|2:0,2:0:0:0:
292,358,88764,5,2,1:2:0:0:
299,349,88855,2,0,L|281:273,1,50,2|2,2:0|2:0,2:0:0:0:
207,197,89035,5,2,1:2:0:0:
200,206,89126,2,0,L|218:282,1,50,2|2,2:0|2:0,2:0:0:0:
383,306,89306,5,2,1:2:0:0:
