osu file format v14

[General]
AudioFilename: audio.ogg
AudioLeadIn: 0
PreviewTime: 55150
Countdown: 0
SampleSet: Soft
StackLeniency: 0.2
Mode: 0
LetterboxInBreaks: 0
WidescreenStoryboard: 1

[Editor]
Bookmarks: 15323,18215
DistanceSpacing: 0.3
BeatDivisor: 8
GridSize: 32
TimelineZoom: 1.8

[Metadata]
Title:Idol (TV Size)
TitleUnicode:アイドル (TV Size)
Artist:YOASOBI
ArtistUnicode:YOASOBI
Creator:achyoo
Version:Rtyzen's Perfect
Source:【推しの子】
Tags:mocaotic iceluin shirahane suou rtyzen fairyaccel midorijeon ayucchi 幾田りら Ikuta Lilas ikura Ayase Japanese Pop J-pop Jpop anime opening op my star oshi no ko mom mum mother and children
BeatmapID:4097134
BeatmapSetID:1974204

[Difficulty]
HPDrainRate:5
CircleSize:4
OverallDifficulty:9
ApproachRate:9.2
SliderMultiplier:2.3
SliderTickRate:1

[Events]
//Background and Video events
0,0,"hoshinoai.jpg",0,0
//Break Periods
//Storyboard Layer 0 (Background)
//Storyboard Layer 1 (Fail)
//Storyboard Layer 2 (Pass)
//Storyboard Layer 3 (Foreground)
//Storyboard Layer 4 (Overlay)
//Storyboard Sound Samples

[TimingPoints]
572,361.44578313253,4,2,1,75,1,0
2379,-50,4,2,1,75,0,0
2559,-100,4,2,1,75,0,0
2921,-50,4,2,1,75,0,0
3282,-100,4,2,1,75,0,0
3463,-50,4,2,1,75,0,0
3825,-100,4,2,1,75,0,0
5270,-40,4,2,1,75,0,0
5451,-100,4,2,1,75,0,0
5812,-50,4,2,1,75,0,0
6174,-100,4,2,1,75,0,0
6355,-133.333333333333,4,2,1,75,0,0
6716,-100,4,2,1,75,0,0
8162,-50,4,2,1,75,0,0
8343,-100,4,2,1,75,0,0
8704,-57.1428571428571,4,2,1,75,0,0
9065,-100,4,2,1,75,0,0
9246,-57.1428571428571,4,2,1,75,0,0
9969,-100,4,2,1,75,0,0
11053,-50,4,2,1,75,0,0
11234,-100,4,2,1,75,0,0
11596,-40,4,2,1,75,0,0
11957,-100,4,2,1,75,0,0
12138,-66.6666666666667,4,2,1,75,0,0
13403,-50,4,2,1,75,0,0
13764,-66.6666666666667,4,2,1,75,0,0
13945,-100,4,2,1,75,0,0
14306,-66.6666666666667,4,2,1,75,0,0
14668,-50,4,2,1,75,0,0
17921,-83.3333333333333,4,2,1,65,0,0
18282,-100,4,2,1,65,0,0
18644,-66.6666666666667,4,2,1,65,0,0
19005,-100,4,2,1,65,0,0
19186,-80,4,2,1,65,0,0
20090,-100,4,2,1,65,0,0
20451,-66.6666666666667,4,2,1,65,0,0
20993,-100,4,2,1,65,0,0
23704,-50,4,2,1,65,0,0
24065,-66.6666666666667,4,2,1,65,0,0
25873,-100,4,2,1,65,0,0
26596,-83.3333333333333,4,2,1,65,0,0
28764,-66.6666666666667,4,2,1,65,0,0
29126,-50,4,2,1,65,0,0
29849,-57.1428571428571,4,2,1,65,0,0
30029,-50,4,2,1,65,0,0
30391,-57.1428571428571,4,2,1,65,0,0
30571,-50,4,2,1,65,0,0
31837,-66.6666666666667,4,2,1,65,0,0
32740,-57.1428571428571,4,2,1,65,0,0
33011,-66.6666666666667,4,2,1,65,0,0
33825,-80,4,2,1,65,0,0
34547,-57.1428571428571,4,2,1,65,0,0
35270,-50,4,2,1,65,0,0
35812,-66.6666666666667,4,2,1,65,0,0
36174,-50,4,2,1,65,0,0
36716,-57.1428571428571,4,2,1,65,0,0
37258,-50,4,2,1,65,0,0
37981,-80,4,2,1,65,0,0
38523,-57.1428571428571,4,2,1,65,0,0
38794,-80,4,2,1,65,0,0
40873,-111.111111111111,4,2,1,65,0,0
41053,-111.111111111111,4,2,1,55,0,0
41776,-100,4,2,1,55,0,0
42138,-40,4,2,30,90,0,0
42318,-133.333333333333,4,2,1,55,0,0
42861,-80,4,2,1,55,0,0
43222,-100,4,2,1,55,0,0
43584,-40,4,2,30,90,0,0
43764,-100,4,2,1,55,0,0
43945,-133.333333333333,4,2,1,55,0,0
45029,-40,4,2,30,90,0,0
45210,-100,4,2,1,55,0,0
45391,-66.6666666666667,4,2,1,55,0,0
46475,-40,4,2,30,90,0,0
46837,-66.6666666666667,4,2,1,65,0,0
47198,-40,4,2,30,90,0,0
47379,-100,4,2,1,65,0,0
47559,-66.6666666666667,4,2,1,65,0,0
47921,-40,4,2,30,90,0,0
48102,-66.6666666666667,4,2,1,65,0,0
48644,-40,4,2,30,90,0,0
48825,-66.6666666666667,4,2,1,65,0,0
49367,-40,4,2,30,90,0,0
49547,-100,4,2,1,65,0,0
49728,-66.6666666666667,4,2,1,65,0,0
50090,-40,4,2,30,90,0,0
50270,-100,4,2,1,65,0,0
50451,-57.1428571428571,4,2,1,65,0,0
50632,-100,4,2,1,65,0,0
50812,-40,4,2,30,90,0,0
50993,-66.6666666666667,4,2,1,65,0,0
51174,-57.1428571428571,4,2,1,65,0,0
51535,-40,4,2,30,90,0,0
51716,-80,4,2,1,65,0,0
51897,-50,4,2,1,65,0,0
52258,-40,4,2,30,90,0,0
52439,-50,4,2,1,65,0,0
52800,-100,4,2,1,65,0,0
53162,-50,4,2,1,65,0,0
54246,-33.3333333333333,4,2,1,65,0,0
54427,-40,4,2,1,65,0,0
54608,-50,4,2,1,65,0,0
55150,-66.6666666666667,4,2,1,50,0,0
55511,-40,4,2,1,80,0,1
55873,-66.6666666666667,4,2,1,80,0,1
56053,-100,4,2,1,80,0,1
56234,-66.6666666666667,4,2,1,80,0,1
56776,-50,4,2,1,80,0,1
57138,-57.1428571428571,4,2,1,80,0,1
57318,-100,4,2,1,80,0,1
57861,-80,4,2,1,80,0,1
58041,-100,4,2,1,80,0,1
58222,-80,4,2,1,80,0,1
58403,-50,4,2,1,80,0,1
58584,-100,4,2,1,80,0,1
58764,-50,4,2,1,80,0,1
59126,-80,4,2,1,80,0,1
59487,-100,4,2,1,80,0,1
59668,-50,4,2,1,80,0,1
60029,-66.6666666666667,4,2,1,80,0,1
60210,-50,4,2,1,80,0,1
60391,-66.6666666666667,4,2,1,80,0,1
61294,-57.1428571428571,4,2,1,80,0,1
61656,-66.6666666666667,4,2,1,80,0,1
61837,-100,4,2,1,80,0,1
62017,-57.1428571428571,4,2,1,80,0,1
62379,-66.6666666666667,4,2,1,80,0,1
62559,-57.1428571428571,4,2,1,80,0,1
62740,-100,4,2,1,80,0,1
62921,-66.6666666666667,4,2,1,80,0,1
63825,-100,4,2,1,80,0,1
64005,-66.6666666666667,4,2,1,80,0,1
64547,-80,4,2,1,80,0,1
64909,-57.1428571428571,4,2,1,80,0,1
65270,-80,4,2,1,80,0,1
65451,-57.1428571428571,4,2,1,80,0,1
65632,-100,4,2,1,80,0,1
65812,-66.6666666666667,4,2,1,80,0,1
66174,-100,4,2,1,80,0,1
67078,-66.6666666666667,4,2,1,80,0,0
67439,-57.1428571428571,4,2,1,80,0,0
67620,-100,4,2,1,80,0,0
67800,-66.6666666666667,4,2,1,80,0,0
68162,-100,4,2,1,80,0,0
68523,-57.1428571428571,4,2,1,80,0,0
69065,-100,4,2,1,80,0,0
69246,-66.6666666666667,4,2,1,80,0,0
69608,-100,4,2,1,80,0,0
69969,-50,4,2,1,80,0,0
70331,-66.6666666666667,4,2,1,80,0,0
70692,-50,4,2,1,80,0,0
70873,-100,4,2,1,80,0,0
71053,-50,4,2,1,80,0,0
71234,-100,4,2,1,80,0,0
71415,-66.6666666666667,4,2,1,80,0,0
71957,-100,4,2,1,80,0,0
72138,-66.6666666666667,4,2,1,80,0,0
73222,-50,4,2,1,80,0,0
73403,-100,4,2,1,80,0,0
73584,-66.6666666666667,4,2,1,80,0,0
73945,-100,4,2,1,80,0,0
74306,-66.6666666666667,4,2,1,80,0,0
75571,-100,4,2,1,80,0,0
75752,-66.6666666666667,4,2,1,80,0,0
76475,-100,4,2,1,80,0,0
77017,-66.6666666666667,4,2,1,80,0,0
77379,-57.1428571428571,4,2,1,80,0,0
77921,-50,4,2,1,80,0,0
78463,-100,4,2,1,80,0,0
78644,-50,4,2,1,70,0,0
81174,-80,4,2,1,70,0,0
81535,-57.1428571428571,4,2,1,70,0,0
82620,-66.6666666666667,4,2,1,70,0,0
84427,-50,4,2,1,70,0,0
84788,-66.6666666666667,4,2,1,70,0,0
85692,-100,4,2,1,70,0,0
86415,-66.6666666666667,4,2,1,70,0,0
86596,-50,4,2,1,70,0,0
86957,-66.6666666666667,4,2,1,70,0,0
87318,-50,4,2,1,70,0,0
87680,-66.6666666666667,4,2,1,70,0,0
88403,-50,4,2,1,70,0,0

[Colours]
Combo1 : 238,119,11
Combo2 : 253,151,255
Combo3 : 189,147,247

[HitObjects]
90,316,572,6,0,B|169:323|168:264|173:263|178:264|197:202|279:225,1,201.25,6|0,1:3|0:0,0:0:0:0:
253,221,933,6,0,P|233:248|192:250,1,57.5,2|0,2:0|0:0,0:0:0:0:
84,152,1114,2,0,L|78:119,2,28.75,2|0|0,2:0|0:0|0:0,0:0:0:0:
211,253,1294,22,0,P|244:256|266:291,1,57.5,10|0,2:3|0:0,0:0:0:0:
335,356,1475,2,0,L|329:389,2,28.75
260,272,1656,6,0,P|246:241|265:204,1,57.5,2|0,2:0|0:0,0:0:0:0:
330,140,1837,2,0,L|324:107,2,28.75,2|0|0,2:0|0:0|0:0,0:0:0:0:
460,256,2017,21,2,2:0:0:0:
439,328,2198,1,0,0:0:0:0:
109,52,2379,6,0,B|251:73|251:73|278:47,1,172.5,6|0,1:3|0:0,0:0:0:0:
271,52,2559,2,0,L|265:19,2,28.75,2|0|0,2:0|0:0|0:0,0:0:0:0:
453,175,2740,2,0,P|410:187|397:211,1,57.5,10|0,2:3|0:0,0:0:0:0:
157,320,2921,22,0,B|104:315|107:228|113:227|119:226|157:207|170:170|167:136|167:136|209:160|211:179|204:229|170:244,1,345,6|0,1:3|0:0,0:0:0:0:
30,168,3282,2,0,P|65:145|90:147,1,57.5
440,125,3463,6,0,B|284:83|284:83|273:42|202:10,1,230,6|0,1:3|0:0,0:0:0:0:
238,35,3734,1,0,0:0:0:0:
235,39,3825,22,0,L|246:110,1,57.5,2|0,2:0|0:0,0:0:0:0:
399,215,4005,2,0,L|444:224,2,28.75,2|0|0,2:0|0:0|0:0,0:0:0:0:
243,95,4186,6,0,L|232:166,1,57.5,10|0,2:3|0:0,0:0:0:0:
39,290,4367,2,0,L|-6:299,2,28.75
234,151,4547,22,0,L|245:222,1,57.5,2|0,2:0|0:0,0:0:0:0:
468,360,4728,2,0,L|513:369,2,28.75,2|0|0,2:0|0:0|0:0,0:0:0:0:
242,207,4909,5,2,2:0:0:0:
231,285,5090,1,0,0:0:0:0:
75,62,5270,22,0,B|240:14|240:14|195:56,1,215.625,6|0,1:3|0:0,0:0:0:0:
207,43,5451,2,0,L|216:-9,2,28.75,2|0|0,2:0|0:0|0:0,0:0:0:0:
432,198,5632,2,0,P|392:193|376:179,1,57.5,10|0,2:3|0:0,0:0:0:0:
316,36,5812,6,0,B|334:70|309:142|243:117|238:117|234:118|161:96|146:194|148:230|214:265|274:231|239:204,1,345,6|0,1:3|0:0,0:0:0:0:
207,43,6174,2,0,L|221:111,1,57.5
312,351,6355,22,0,L|365:363,1,43.1250000000001,6|0,1:3|0:0,0:0:0:0:
367,287,6535,2,0,L|420:299,1,43.1250000000001,2|0,2:0|0:0,0:0:0:0:
151,267,6716,6,0,L|89:281,1,57.5,2|0,2:0|0:0,0:0:0:0:
103,203,6897,2,0,L|41:217,1,57.5
347,68,7078,22,0,P|390:83|403:115,1,57.5,10|0,2:3|0:0,0:0:0:0:
281,243,7258,2,0,L|261:271,2,28.75,2|0|0,2:0|0:0|0:0,0:0:0:0:
397,178,7439,6,0,P|362:207|328:202,1,57.5,2|0,2:0|0:0,0:0:0:0:
278,33,7620,2,0,L|263:1,2,28.75
277,165,7800,22,0,P|268:120|289:93,1,57.5,2|0,2:0|0:0,0:0:0:0:
461,135,7981,2,0,L|495:138,2,28.75,2|0|0,2:0|0:0|0:0,0:0:0:0:
343,133,8162,6,0,L|373:330,1,172.5,6|0,1:3|0:0,0:0:0:0:
368,303,8343,2,0,L|363:348,2,28.75
489,137,8523,2,0,L|417:152,1,57.5,10|0,2:3|0:0,0:0:0:0:
129,373,8704,22,0,B|269:327|269:327|271:206|394:212,1,301.875,6|0,1:3|0:0,0:0:0:0:
432,148,9065,2,0,L|417:76,1,57.5
137,4,9246,6,0,B|84:21|84:21|55:78|89:143|154:132,1,201.25,6|0,1:3|0:0,0:0:0:0:
274,146,9517,1,0,0:0:0:0:
242,80,9608,22,0,B|146:83|134:161|140:160|147:159|115:264|0:260,1,301.875,2|0,2:0|0:0,0:0:0:0:
25,175,9969,6,0,P|62:184|102:192,1,57.5,8|0,2:3|0:0,0:0:0:0:
229,324,10150,2,0,L|224:360,2,28.75,2|0|0,2:0|0:0|0:0,0:0:0:0:
166,175,10331,22,0,P|203:166|243:158,1,57.5,2|0,2:0|0:0,0:0:0:0:
310,44,10511,2,0,L|305:8,2,28.75,2|0|0,2:0|0:0|0:0,0:0:0:0:
299,172,10692,6,0,P|336:181|376:189,1,57.5,2|0,2:0|0:0,0:0:0:0:
443,303,10873,2,0,L|438:339,2,28.75,2|0|0,2:0|0:0|0:0,0:0:0:0:
469,143,11053,22,0,L|260:178,1,172.5,6|0,1:3|0:0,0:0:0:0:
298,171,11234,2,0,L|309:134,2,28.75
120,27,11415,2,0,L|135:97,1,57.5,10|0,2:3|0:0,0:0:0:0:
405,225,11596,6,0,B|238:257|238:257|298:117|298:117|242:83|242:83|201:108,1,431.25,6|0,1:3|0:0,0:0:0:0:
132,83,11957,2,0,L|120:27,1,57.5
13,241,12138,22,0,B|133:266|133:266|161:328,1,172.5,6|0,1:3|0:0,0:0:0:0:
471,146,12499,2,0,B|351:121|351:121|323:59,1,172.5,2|0,2:0|0:0,0:0:0:0:
335,71,12770,1,0,0:0:0:0:
340,67,12861,6,0,P|385:61|415:15,1,86.25,6|0,1:3|0:0,0:0:0:0:
134,160,13041,2,0,P|89:154|59:108,1,86.25
359,279,13222,2,0,P|404:273|434:227,1,86.25,2|0,2:0|0:0,0:0:0:0:
88,370,13403,22,0,P|93:291|237:249,1,230,2|0,1:2|0:0,0:0:0:0:
224,243,13674,1,0,0:0:0:0:
229,246,13764,2,0,P|226:190|209:152,1,86.25,2|0,1:2|0:0,0:0:0:0:
185,7,13945,2,0,L|177:40,2,28.75
291,75,14126,2,0,L|214:91,1,57.5,2|0,1:2|0:0,0:0:0:0:
0,77,14306,2,0,B|78:48|89:96|94:95|97:95|119:127|181:101,1,172.5,2|0,1:2|0:0,0:0:0:0:
484,182,14668,6,0,B|384:81|291:151|280:198|307:261|386:277|406:206,1,345
251,19,15029,21,2,1:2:0:0:
256,192,15120,12,2,17559,2:0:0:0:
416,245,17921,6,0,P|422:180|369:140,1,137.999995788574,6|2,1:0|2:0,0:0:0:0:
364,144,18192,1,0,0:0:0:0:
359,148,18282,2,0,P|344:184|360:215,1,57.5,10|0,1:2|0:0,0:0:0:0:
285,250,18463,2,0,P|315:273|349:266,1,57.5,2|0,2:0|0:0,0:0:0:0:
416,246,18644,2,0,P|329:291|274:359,1,172.5,2|0,1:2|0:0,0:0:0:0:
276,352,18915,1,0,0:0:0:0:
285,250,19005,2,0,P|319:264|330:297,1,57.5,8|0,1:2|0:0,0:0:0:0:
106,284,19186,22,0,P|109:249|157:217,1,71.875,2|0,2:0|0:0,0:0:0:0:
203,254,19367,2,0,P|200:289|152:321,1,71.875,2|0,1:2|0:0,0:0:0:0:
72,356,19547,5,2,2:0:0:0:
32,343,19638,21,0,0:0:0:0:
0,305,19728,5,10,1:2:0:0:
5,243,19818,21,0,0:0:0:0:
48,199,19909,5,2,2:0:0:0:
319,60,20090,22,0,L|306:118,1,57.5,2|0,1:2|0:0,0:0:0:0:
228,111,20270,2,0,L|241:53,1,57.5
453,150,20451,6,0,B|345:155|402:200|281:207,1,172.5,8|2,1:2|2:0,0:0:0:0:
289,211,20722,1,0,0:0:0:0:
284,216,20812,2,0,L|308:355,1,129.375,2|0,1:2|0:0,0:0:0:0:
306,343,20993,2,0,L|304:372,2,28.75,2|0|0,2:0|0:0|0:0,0:0:0:0:
451,232,21174,2,0,L|375:217,1,57.5,10|0,1:2|0:0,0:0:0:0:
320,119,21355,21,0,0:0:0:0:
281,104,21445,5,0,0:0:0:0:
233,110,21535,21,2,1:2:0:0:
193,150,21626,5,0,0:0:0:0:
163,202,21716,21,2,2:0:0:0:
99,213,21806,5,0,0:0:0:0:
43,182,21897,21,10,1:2:0:0:
323,125,22078,2,0,L|253:116,1,57.5
98,58,22258,2,0,L|102:23,2,28.75,2|0|0,1:2|0:0|0:0,0:0:0:0:
266,233,22439,5,2,2:0:0:0:
299,257,22529,21,0,0:0:0:0:
349,260,22620,5,10,1:2:0:0:
395,218,22710,21,0,0:0:0:0:
405,158,22800,5,2,2:0:0:0:
257,231,22981,22,0,L|248:301,1,57.5,2|0,1:2|0:0,0:0:0:0:
369,365,23162,2,0,L|406:372,2,28.75
237,88,23343,6,0,L|246:158,1,57.5,8|0,1:2|0:0,0:0:0:0:
76,257,23523,1,2,2:0:0:0:
76,268,23614,1,0,0:0:0:0:
4,234,23704,22,0,B|292:154|292:154|315:105,1,345,6|0,1:3|0:0,0:0:0:0:
344,36,24065,2,0,B|376:49|376:49|401:125,1,86.25,10|0,1:2|0:0,0:0:0:0:
235,257,24246,5,2,2:0:0:0:
194,259,24337,21,0,0:0:0:0:
150,234,24427,5,2,1:2:0:0:
134,174,24517,21,0,0:0:0:0:
159,118,24608,5,0,0:0:0:0:
443,339,24788,22,0,L|356:322,1,86.25,8|0,1:2|0:0,0:0:0:0:
228,246,24969,2,0,L|245:159,1,86.25,2|0,2:0|0:0,0:0:0:0:
101,61,25150,2,0,L|14:78,1,86.25,2|0,1:2|0:0,0:0:0:0:
297,14,25331,5,2,2:0:0:0:
305,54,25421,21,0,0:0:0:0:
313,99,25511,5,10,1:2:0:0:
321,152,25602,21,0,0:0:0:0:
333,211,25692,5,2,2:0:0:0:
494,49,25873,22,0,L|412:35,1,57.5,2|0,1:2|0:0,0:0:0:0:
297,14,26053,2,0,L|292:47,2,28.75
333,211,26234,6,0,L|251:225,1,57.5,8|0,1:2|0:0,0:0:0:0:
129,244,26415,2,0,L|124:211,2,28.75,2|0|0,2:0|0:0|0:0,0:0:0:0:
127,38,26596,22,0,P|77:30|50:7,1,69,2|0,1:2|0:0,0:0:0:0:
276,220,26776,2,0,P|307:180|341:168,1,69,2|0,2:0|0:0,0:0:0:0:
43,258,26957,2,0,P|61:305|54:340,1,69,10|0,1:2|0:0,0:0:0:0:
216,333,27138,5,0,0:0:0:0:
252,310,27228,21,0,0:0:0:0:
269,264,27318,5,2,1:2:0:0:
265,209,27409,21,0,0:0:0:0:
225,165,27499,5,2,2:0:0:0:
161,163,27590,21,0,0:0:0:0:
109,203,27680,5,10,1:2:0:0:
210,340,27861,22,0,P|266:353|293:370,1,69
63,113,28041,2,0,L|20:122,2,34.5,2|0|0,1:2|0:0|0:0,0:0:0:0:
109,203,28222,5,2,2:0:0:0:
150,205,28312,21,0,0:0:0:0:
194,180,28403,5,10,1:2:0:0:
210,120,28493,21,0,0:0:0:0:
185,64,28584,5,2,2:0:0:0:
351,44,28764,22,0,B|343:89|343:89|341:91|341:91|332:135,1,86.25,2|0,1:2|0:0,0:0:0:0:
80,29,28945,2,0,B|72:74|72:74|70:76|70:76|61:120,1,86.25
346,310,29126,6,0,B|356:251|356:251|358:248|358:248|370:191,1,115,10|0,1:2|0:0,0:0:0:0:
66,299,29306,2,0,B|76:240|76:240|78:237|78:237|90:180,1,115
240,22,29487,22,0,B|270:52|252:80|252:80|189:178|189:178|168:207|205:247,1,230,6|0,1:2|0:0,0:0:0:0:
192,223,29758,1,2,2:0:0:0:
197,223,29849,2,0,B|217:198|197:179|197:179|142:125,1,100.625,8|0,1:2|0:0,0:0:0:0:
56,282,30029,2,0,B|69:331|123:324|123:324|275:288,1,230,2|0,2:0|1:0,0:0:0:0:
261,292,30391,6,0,B|287:308|277:334|277:334|251:407,1,100.625,2|0,2:0|0:0,0:0:0:0:
434,384,30571,2,0,B|387:363|402:310|402:310|461:166,1,230,10|2,1:2|2:0,0:0:0:0:
416,113,30843,1,0,0:0:0:0:
352,66,30933,22,0,B|297:39|297:39|368:219,1,230,2|0,1:2|0:0,0:0:0:0:
356,201,31204,1,2,2:0:0:0:
353,206,31294,2,0,B|281:245|281:245|314:188,1,115,8|0,1:2|0:0,0:0:0:0:
219,104,31475,2,0,B|72:25|72:25|125:117,1,230,2|0,2:0|1:0,0:0:0:0:
103,79,31837,6,0,L|200:62,1,86.25,2|0,2:0|0:0,0:0:0:0:
353,206,32017,2,0,L|174:239,1,172.5,10|2,1:2|2:0,0:0:0:0:
292,144,32288,21,0,0:0:0:0:
299,155,32379,2,0,L|283:246,1,86.25,2|0,1:2|0:0,0:0:0:0:
16,332,32559,2,0,L|32:241,1,86.25,2|0,2:0|0:0,0:0:0:0:
186,136,32740,6,0,B|217:223|152:256|151:252|148:245|90:290|129:376,1,251.5625,10|0,1:2|0:0,0:0:0:0:
123,360,33011,2,0,L|182:372,2,43.125,0|0|2,0:0|0:0|1:2,0:0:0:0:
284,239,33282,2,0,P|244:281|251:318,1,86.25,2|0,2:0|0:0,0:0:0:0:
7,69,33463,22,0,P|62:87|113:198,1,172.5,10|0,1:2|0:0,0:0:0:0:
112,189,33734,1,0,0:0:0:0:
110,195,33825,2,0,L|129:288,1,71.875,2|0,1:2|0:0,0:0:0:0:
284,239,34005,2,0,L|298:168,1,71.875,2|0,2:0|0:0,0:0:0:0:
123,360,34186,2,0,P|160:335|197:341,1,71.875,10|0,1:2|0:0,0:0:0:0:
216,197,34367,2,0,P|193:192|179:172,2,35.9375,2|0|0,2:0|0:0|0:0,0:0:0:0:
332,374,34547,6,0,P|363:325|325:268,1,100.625,2|0,1:2|0:0,0:0:0:0:
184,183,34728,1,10,2:0:0:0:
187,195,34818,1,8,2:0:0:0:
190,207,34909,1,10,1:2:0:0:
193,219,34999,1,8,2:2:0:0:
196,231,35090,1,10,1:2:0:0:
454,150,35270,22,0,B|310:99|310:99|339:9,1,230,6|0,1:2|0:0,0:0:0:0:
338,28,35541,1,2,2:0:0:0:
343,31,35632,2,0,B|356:89|356:89|278:113,1,115,8|0,1:2|0:0,0:0:0:0:
60,223,35812,2,0,B|112:153|112:153|192:198,1,172.5,2|0,2:0|1:0,0:0:0:0:
186,194,36174,6,0,B|160:245|160:245|221:283,1,115,2|0,2:0|0:0,0:0:0:0:
356,361,36355,2,0,B|400:216|400:216|491:243,1,230,10|2,1:2|2:0,0:0:0:0:
451,315,36626,1,0,0:0:0:0:
357,266,36716,22,0,B|321:225|321:225|354:124|354:124|404:117,1,201.25,2|0,1:2|0:0,0:0:0:0:
401,116,36987,1,2,2:0:0:0:
408,115,37078,2,0,B|424:89|424:89|410:48|410:48|371:38,1,100.625,8|0,1:2|0:0,0:0:0:0:
163,120,37258,2,0,B|170:165|170:165|294:210|294:210|344:169,1,230,2|0,2:0|1:0,0:0:0:0:
334,177,37620,5,2,2:0:0:0:
279,158,37710,1,2,2:0:0:0:
236,198,37800,1,10,1:2:0:0:
226,17,37981,2,0,L|247:87,1,71.875,2|0,2:0|0:0,0:0:0:0:
322,318,38162,22,0,L|300:247,1,71.875,2|0,1:2|0:0,0:0:0:0:
96,256,38343,2,0,L|74:185,1,71.875,2|0,2:0|0:0,0:0:0:0:
243,370,38523,2,0,B|180:319|112:278|-23:260,1,251.5625,10|0,1:2|0:0,0:0:0:0:
17,266,38794,2,0,L|31:312,2,35.9375,2|0|2,2:0|0:0|1:2,0:0:0:0:
169,217,39065,6,0,P|181:276|158:302,1,71.875,2|0,2:0|0:0,0:0:0:0:
69,379,39246,2,0,P|114:338|148:345,1,71.875,10|0,1:2|0:0,0:0:0:0:
351,294,39427,2,0,P|210:369|187:343,1,215.625,2|0,2:0|0:0,0:0:0:0:
198,357,39788,22,0,L|278:340,1,71.875,2|0,2:0|0:0,0:0:0:0:
470,154,39969,2,0,L|390:171,1,71.875,10|0,1:2|0:0,0:0:0:0:
254,184,40150,1,10,2:0:0:0:
220,144,40240,1,8,2:0:0:0:
248,99,40331,1,10,1:2:0:0:
253,90,40511,6,0,L|213:98,2,35.9375,0|0|0,3:0|0:0|0:0,0:0:0:0:
148,58,40692,22,0,L|123:140,1,71.875,2|0,3:2|0:0,0:0:0:0:
43,124,40873,6,0,L|71:190,1,51.7500000000001,2|0,2:0|0:0,0:0:0:0:
10,225,41053,21,6,1:2:0:0:
209,355,41596,1,2,1:2:0:0:
133,333,41776,2,0,P|132:255|204:286,1,172.5,0|0,1:0|0:0,0:0:0:0:
209,355,42138,22,0,P|221:276|257:124,1,215.625,8|0,2:0|0:0,0:0:0:0:
252,144,42318,6,0,B|329:133|299:177|378:164,1,129.375,2|0,1:2|0:0,0:0:0:0:
441,122,42680,1,2,1:2:0:0:
440,21,42861,2,0,P|369:3|341:76,1,143.75,2|2,2:0|1:2,0:0:0:0:
441,122,43222,2,0,P|421:205|407:291,1,172.5,2|0,1:2|0:0,0:0:0:0:
400,289,43584,22,0,P|412:210|458:49,1,215.625,8|0,2:0|0:0,0:0:0:0:
447,79,43764,6,0,L|439:13,1,57.5,2|0,2:0|0:0,0:0:0:0:
245,91,43945,6,0,L|261:224,1,129.375,2|0,1:2|0:0,0:0:0:0:
209,276,44306,1,2,2:0:0:0:
367,204,44487,1,2,1:2:0:0:
209,276,44668,2,0,L|75:259,1,129.375,2|0,1:2|0:0,0:0:0:0:
80,260,45029,6,0,P|92:181|138:20,1,215.625,8|0,2:0|0:0,0:0:0:0:
119,43,45210,6,0,L|138:107,1,57.5,2|0,2:0|0:0,0:0:0:0:
21,93,45391,6,0,P|39:137|79:148,1,86.25,2|0,1:2|0:0,0:0:0:0:
272,22,45571,2,0,P|224:27|203:63,1,86.25,2|0,2:0|0:0,0:0:0:0:
168,255,45752,22,0,P|160:197|136:169,1,86.25,2|0,1:2|0:0,0:0:0:0:
346,123,45933,2,0,P|354:181|378:209,1,86.25,2|0,2:0|0:0,0:0:0:0:
160,347,46114,5,2,1:2:0:0:
211,330,46204,1,0,1:0:0:0:
262,313,46294,1,0,1:0:0:0:
312,296,46385,1,0,1:0:0:0:
365,281,46475,6,0,P|377:202|423:41,1,215.625,8|0,2:0|0:0,0:0:0:0:
412,71,46837,6,0,B|449:152|350:163|348:162|345:161|264:157|277:260,1,258.75,6|0,1:2|0:0,0:0:0:0:
276,248,47198,22,0,P|288:169|334:8,1,215.625,8|0,1:2|0:0,0:0:0:0:
323,38,47379,6,0,L|260:45,1,57.5,2|0,2:0|0:0,0:0:0:0:
34,73,47559,6,0,P|61:40|102:29,1,86.25,0|0,1:0|0:0,0:0:0:0:
189,90,47740,2,0,P|227:107|248:144,1,86.25,2|0,2:0|0:0,0:0:0:0:
155,320,47921,6,0,P|143:241|97:80,1,215.625,8|0,1:2|0:0,0:0:0:0:
107,110,48102,6,0,P|102:170|131:195,1,86.25,2|0,2:0|0:0,0:0:0:0:
238,375,48282,6,0,P|255:322|370:285,1,172.5,0|2,1:0|2:0,0:0:0:0:
363,284,48553,1,0,0:0:0:0:
370,287,48644,6,0,P|382:208|428:47,1,215.625,8|0,1:2|0:0,0:0:0:0:
417,77,48825,6,0,B|459:66|459:66|497:105,1,86.25,2|0,2:0|0:0,0:0:0:0:
339,206,49005,6,0,B|298:201|298:201|295:197|295:197|242:188,1,86.25,2|0,1:2|0:0,0:0:0:0:
34,124,49186,2,0,P|70:178|111:171,1,86.25
155,320,49367,6,0,P|143:241|97:80,1,215.625,8|0,1:2|0:0,0:0:0:0:
107,110,49547,6,0,L|116:43,1,57.5,2|0,2:0|0:0,0:0:0:0:
146,323,49728,6,0,P|169:246|266:227,1,172.5,6|0,1:2|0:0,0:0:0:0:
326,227,49999,1,0,0:0:0:0:
370,287,50090,6,0,P|382:208|428:47,1,215.625,8|0,1:2|0:0,0:0:0:0:
417,77,50270,6,0,P|390:110|392:139,1,57.5
376,296,50451,6,0,L|207:258,1,150.9375,2|0,1:2|0:0,0:0:0:0:
228,262,50632,2,0,L|221:227,2,28.75,0|0|2,0:0|0:0|2:0,0:0:0:0:
155,320,50812,6,0,P|143:241|97:80,1,215.625,8|0,1:2|0:0,0:0:0:0:
107,110,50993,6,0,P|63:114|31:86,1,86.25,2|0,2:0|0:0,0:0:0:0:
253,109,51174,6,0,P|328:100|398:204,1,201.25,0|2,1:0|2:0,0:0:0:0:
327,250,51445,1,0,0:0:0:0:
357,320,51535,6,0,P|369:241|415:80,1,215.625,8|0,1:2|0:0,0:0:0:0:
404,110,51716,6,0,L|498:125,1,71.875,2|0,2:0|0:0,0:0:0:0:
327,250,51897,6,0,P|302:184|293:130,1,115,2|0,1:2|0:0,0:0:0:0:
241,55,52078,2,0,P|216:121|207:175,1,115,2|0,2:0|0:0,0:0:0:0:
155,320,52258,6,0,P|143:241|97:80,1,215.625,8|0,1:2|0:0,0:0:0:0:
54,46,52439,6,0,P|29:112|20:166,1,115,2|0,2:0|0:0,0:0:0:0:
11,234,52620,5,10,1:2:0:0:
297,73,52800,2,0,P|289:35|287:8,1,57.5,8|0,2:1|0:0,0:0:0:0:
212,32,52981,2,0,P|220:70|222:97,1,57.5,8|0,2:1|0:0,0:0:0:0:
428,111,53162,22,0,P|366:131|327:185,1,115,10|0,1:2|0:0,0:0:0:0:
97,154,53343,2,0,P|162:153|215:193,1,115,10|0,1:2|0:0,0:0:0:0:
326,303,53523,5,8,2:0:0:0:
296,352,53614,1,8,2:0:0:0:
239,339,53704,1,2,3:2:0:0:
234,281,53794,1,0,3:0:0:0:
287,260,53885,1,10,1:2:0:0:
279,278,54246,22,0,P|276:335|285:279,1,172.500006580353,10|0,1:2|0:0,0:0:0:0:
413,226,54427,6,0,P|456:245|416:221,1,143.75,2|0,2:0|0:0,0:0:0:0:
399,82,54608,22,0,P|436:70|398:77,1,115,10|0,1:2|0:0,0:0:0:0:
256,32,54788,5,10,1:2:0:0:
74,57,55150,22,0,P|75:109|113:125,1,86.25,2|0,2:0|0:0,0:0:0:0:
172,98,55331,2,0,P|171:46|133:30,1,86.25,2|0,2:0|0:0,0:0:0:0:
27,213,55511,6,0,P|113:135|311:117,1,287.5,6|0,1:0|0:0,0:0:0:0:
330,169,55782,1,0,0:0:0:0:
403,231,55873,2,0,P|425:194|456:165,1,86.25,10|0,1:2|0:0,0:0:0:0:
251,180,56053,2,0,P|256:202|275:216,2,28.75
393,115,56234,2,0,P|364:82|347:43,1,86.25,2|0,1:2|0:0,0:0:0:0:
296,277,56415,1,2,2:0:0:0:
337,286,56505,1,0,0:0:0:0:
375,307,56596,1,10,1:2:0:0:
218,37,56776,22,0,P|130:83|164:208,1,230,2|0,2:0|1:0,0:0:0:0:
296,277,57138,2,0,P|256:227|201:236,1,100.625,2|0,2:0|0:0,0:0:0:0:
153,277,57318,2,0,P|145:292|140:305,2,28.75,10|0|0,1:2|0:0|0:0,0:0:0:0:
349,345,57499,1,2,2:0:0:0:
383,310,57590,1,0,0:0:0:0:
379,261,57680,1,2,1:2:0:0:
224,301,57861,2,0,P|226:336|238:374,1,71.875
429,193,58041,2,0,P|426:169|420:145,2,28.75,10|0|0,1:2|0:0|0:0,0:0:0:0:
198,161,58222,2,0,P|158:177|119:175,1,71.875,2|0,2:0|0:0,0:0:0:0:
244,38,58403,6,0,B|350:38|299:83|416:79,1,172.5,2|0,1:2|0:0,0:0:0:0:
407,79,58584,2,0,P|404:55|398:31,2,28.75
198,161,58764,22,0,B|120:144|92:203|97:201|105:200|63:280|-28:227,1,230,10|0,1:2|0:0,0:0:0:0:
2,125,59035,1,0,0:0:0:0:
88,74,59126,2,0,P|131:100|136:143,1,71.875,2|0,1:2|0:0,0:0:0:0:
333,129,59306,2,0,P|283:140|265:180,1,71.875
198,161,59487,2,0,L|190:202,2,28.75,10|0|0,1:2|0:0|0:0,0:0:0:0:
197,17,59668,6,0,P|272:40|194:35,1,230,2|0,2:0|1:0,0:0:0:0:
87,223,60029,22,0,P|102:194|75:211,1,86.25,2|0,2:0|0:0,0:0:0:0:
168,273,60210,6,0,P|190:308|173:269,1,115,10|0,1:2|0:0,0:0:0:0:
292,245,60391,22,0,P|276:216|304:232,1,86.25,10|8,2:0|2:0,0:0:0:0:
405,168,60571,5,2,1:2:0:0:
486,276,60752,1,8,2:0:0:0:
434,313,60843,1,8,2:0:0:0:
369,303,60933,1,10,1:2:0:0:
211,167,61114,1,8,2:0:0:0:
151,119,61204,1,8,2:0:0:0:
77,155,61294,2,0,B|208:209|208:209|292:30,1,301.875,6|0,1:2|0:0,0:0:0:0:
276,63,61656,22,0,B|239:34|239:34|185:56,1,86.25,10|0,1:2|0:0,0:0:0:0:
430,201,61837,2,0,L|470:193,2,28.75
151,119,62017,2,0,P|178:191|206:325,1,201.25,2|0,1:2|0:0,0:0:0:0:
209,316,62288,1,0,0:0:0:0:
214,320,62379,2,0,P|260:334|279:382,1,86.25,10|0,1:2|0:0,0:0:0:0:
362,165,62559,6,0,P|306:175|280:286,1,150.9375,2|0,2:0|0:0,0:0:0:0:
268,254,62740,2,0,P|292:265|311:281,2,28.75,0|0|0,1:0|0:0|0:0,0:0:0:0:
457,296,62921,2,0,B|399:301|431:322|363:330,1,86.25,2|0,2:0|0:0,0:0:0:0:
109,291,63102,21,10,1:2:0:0:
268,254,63282,5,2,2:0:0:0:
193,274,63373,1,0,0:0:0:0:
118,295,63463,1,2,1:2:0:0:
223,118,63644,22,0,P|229:171|201:198,1,86.25
109,291,63825,2,0,L|94:258,2,28.75,10|0|0,1:2|0:0|0:0,0:0:0:0:
305,384,64005,2,0,P|277:338|238:334,1,86.25,2|0,2:0|0:0,0:0:0:0:
0,145,64186,6,0,B|16:189|63:175|63:175|171:139,1,172.5,2|0,1:2|0:0,0:0:0:0:
155,139,64457,1,0,0:0:0:0:
159,133,64547,2,0,L|170:51,1,71.875,10|0,1:2|0:0,0:0:0:0:
358,166,64728,2,0,L|347:248,1,71.875
260,352,64909,22,0,P|286:303|428:272,1,201.25,2|0,1:2|0:0,0:0:0:0:
423,274,65180,1,0,0:0:0:0:
428,280,65270,2,0,P|410:307|349:298,1,71.875,10|0,1:2|0:0,0:0:0:0:
331,80,65451,6,0,P|398:86|440:178,1,150.9375,2|0,2:0|0:0,0:0:0:0:
441,151,65632,2,0,L|482:142,2,28.75,0|0|0,1:0|0:0|0:0,0:0:0:0:
277,184,65812,2,0,L|189:203,1,86.25,2|0,2:0|0:0,0:0:0:0:
358,166,65993,1,8,1:2:0:0:
142,117,66174,2,0,L|137:153,2,28.75,2|0|0,2:0|0:0|0:0,0:0:0:0:
363,251,66355,21,10,1:2:0:0:
316,257,66445,1,8,2:0:0:0:
281,289,66535,1,8,2:0:0:0:
271,335,66626,1,8,2:2:0:0:
213,378,66716,5,10,1:2:0:0:
180,331,66806,1,8,2:0:0:0:
129,306,66897,1,10,2:0:0:0:
72,311,66987,1,8,2:0:0:0:
0,273,67078,22,0,B|-28:188|53:180|55:179|61:180|146:126|65:58,1,258.75,6|0,1:2|0:0,0:0:0:0:
13,140,67439,6,0,B|22:188|69:181|72:179|73:179|116:157|138:216,1,150.9375,8|0,1:2|0:0,0:0:0:0:
133,205,67620,2,0,L|127:239,2,28.75,2|0|0,2:0|0:0|0:0,0:0:0:0:
281,81,67800,22,0,P|234:57|213:24,1,86.25,2|0,1:2|0:0,0:0:0:0:
204,254,67981,2,0,P|247:226|286:223,1,86.25,2|0,2:0|0:0,0:0:0:0:
147,127,68162,2,0,L|113:121,2,28.75,10|0|0,1:2|0:0|0:0,0:0:0:0:
306,154,68343,2,0,L|334:158,2,28.75,2|0|0,2:0|0:0|0:0,0:0:0:0:
226,143,68523,6,0,L|261:357,1,201.25,2|0,1:2|0:0,0:0:0:0:
353,281,68794,1,0,0:0:0:0:
351,264,68885,2,0,P|415:278|438:366,1,150.9375,8|0,1:2|0:0,0:0:0:0:
442,352,69065,2,0,L|487:357,2,28.75,2|0|0,2:0|0:0|0:0,0:0:0:0:
258,341,69246,22,0,L|172:331,1,86.25,2|0,1:2|0:0,0:0:0:0:
62,178,69427,2,0,L|147:168,1,86.25,2|0,2:0|0:0,0:0:0:0:
254,261,69608,2,0,L|258:216,2,28.75,10|0|0,1:2|0:0|0:0,0:0:0:0:
91,259,69788,2,0,L|94:287,2,28.75,2|0|0,2:0|0:0|0:0,0:0:0:0:
293,92,69969,6,0,P|209:124|177:264,1,230,2|0,1:2|0:0,0:0:0:0:
172,249,70331,22,0,B|247:170|177:49|65:112|108:177,1,258.75,10|0,1:2|0:0,0:0:0:0:
102,166,70692,6,0,L|311:192,1,172.5,2|0,1:2|0:0,0:0:0:0:
273,188,70873,2,0,L|270:146,2,28.75,0|0|2,0:0|0:0|2:0,0:0:0:0:
286,358,71053,2,0,P|307:294|406:272,1,172.5,8|0,1:2|0:0,0:0:0:0:
401,270,71234,2,0,L|443:279,2,28.75,2|0|0,2:0|0:0|0:0,0:0:0:0:
500,249,71415,22,0,P|468:207|399:213,1,86.25,2|0,1:2|0:0,0:0:0:0:
286,358,71596,2,0,P|288:303|280:256,1,86.25,2|0,2:0|0:0,0:0:0:0:
429,119,71776,2,0,P|380:139|368:207,1,86.25,10|0,1:2|0:0,0:0:0:0:
209,296,71957,2,0,P|209:317|208:339,2,28.75,2|0|0,2:0|0:0|0:0,0:0:0:0:
59,137,72138,6,0,P|97:172|153:151,1,86.25,2|0,1:2|0:0,0:0:0:0:
283,272,72318,2,0,P|272:220|214:204,1,86.25
180,31,72499,2,0,P|157:78|195:125,1,86.25,10|0,1:2|0:0,0:0:0:0:
122,286,72680,2,0,P|168:260|164:200,1,86.25,2|0,2:0|0:0,0:0:0:0:
320,114,72861,2,0,P|267:107|234:158,1,86.25,6|0,1:2|0:0,0:0:0:0:
408,263,73041,1,0,0:0:0:0:
404,252,73132,1,0,0:0:0:0:
457,201,73222,22,0,L|269:247,1,172.5,8|0,1:2|0:0,0:0:0:0:
290,242,73403,2,0,L|296:207,2,28.75,2|0|2,2:0|0:0|2:0,0:0:0:0:
289,354,73584,6,0,P|244:317|204:320,1,86.25,2|0,1:2|0:0,0:0:0:0:
182,242,73764,2,0,P|134:275|127:315,1,86.25,2|0,2:0|0:0,0:0:0:0:
48,258,73945,2,0,L|43:286,2,28.75,10|0|0,1:2|0:0|0:0,0:0:0:0:
227,176,74126,2,0,L|233:141,2,28.75,2|0|0,2:0|0:0|0:0,0:0:0:0:
14,105,74306,22,0,P|36:166|137:175,1,172.5,2|0,1:2|0:0,0:0:0:0:
164,102,74578,1,0,0:0:0:0:
236,72,74668,2,0,P|286:87|304:142,1,86.25,8|0,1:2|0:0,0:0:0:0:
374,176,74849,1,2,2:0:0:0:
400,142,74939,1,2,2:0:0:0:
397,100,75029,1,2,1:2:0:0:
231,147,75210,6,0,P|229:199|180:230,1,86.25,2|0,2:0|0:0,0:0:0:0:
414,373,75391,2,0,P|415:320|464:289,1,86.25,10|0,1:2|0:0,0:0:0:0:
163,284,75571,2,0,L|128:293,2,28.75,2|0|0,2:0|0:0|0:0,0:0:0:0:
333,350,75752,22,0,B|276:334|308:317|241:307,1,86.25,10|0,1:0|0:0,0:0:0:0:
179,34,75933,2,0,B|236:50|204:67|271:77,1,86.25,2|0,2:0|0:0,0:0:0:0:
135,291,76114,6,0,P|173:242|220:250,1,86.25,10|0,1:0|0:0,0:0:0:0:
377,93,76294,2,0,P|339:142|292:134,1,86.25,2|0,2:0|0:0,0:0:0:0:
119,119,76475,22,0,L|114:85,2,28.75,10|0|0,1:0|0:0|0:0,0:0:0:0:
393,265,76656,2,0,L|398:299,2,28.75
256,192,76837,5,10,2:0:0:0:
135,291,77017,22,0,P|36:260|36:199,1,172.5,6|0,1:2|0:0,0:0:0:0:
283,31,77379,2,0,B|355:35|333:146|269:126|266:127|261:129|190:130|174:235|259:247,1,301.875,2|0,2:0|0:0,0:0:0:0:
359,258,77740,2,0,B|363:228|333:203|313:202|313:202|326:208|330:227,1,100.625,2|0,2:0|0:0,0:0:0:0:
166,356,77921,6,0,P|231:286|373:260,1,230,2|8,1:2|2:0,0:0:0:0:
437,265,78192,1,8,2:0:0:0:
391,335,78282,1,8,1:2:0:0:
235,185,78463,2,0,L|244:252,1,57.5,8|8,2:0|2:0,0:0:0:0:
391,335,78644,22,0,P|404:231|461:103,1,230,6|0,1:0|0:0,0:0:0:0:
61,42,79005,2,0,P|106:147|122:260,1,230,2|0,1:2|0:0,0:0:0:0:
64,317,79276,5,0,0:0:0:0:
100,343,79367,21,2,1:2:0:0:
156,336,79457,5,0,0:0:0:0:
195,283,79547,21,0,0:0:0:0:
413,346,79728,2,0,P|394:267|236:251,1,230,2|0,1:2|0:0,0:0:0:0:
195,283,79999,1,0,0:0:0:0:
270,312,80090,6,0,L|517:270,1,230,2|0,1:2|0:0,0:0:0:0:
242,72,80451,2,0,L|-5:114,1,230,2|0,1:2|0:0,0:0:0:0:
62,51,80722,21,0,0:0:0:0:
104,37,80812,5,2,1:2:0:0:
155,61,80903,21,0,0:0:0:0:
176,123,80993,5,0,0:0:0:0:
357,11,81174,22,0,P|326:44|322:81,1,71.875,2|0,1:2|0:0,0:0:0:0:
249,149,81355,1,0,0:0:0:0:
255,154,81445,1,0,0:0:0:0:
261,159,81535,2,0,L|236:397,1,201.25,2|0,1:2|0:0,0:0:0:0:
474,243,81897,2,0,L|499:5,1,201.25,2|0,1:2|0:0,0:0:0:0:
434,89,82168,5,0,0:0:0:0:
385,105,82258,21,2,1:2:0:0:
326,77,82349,5,0,0:0:0:0:
307,14,82439,21,0,0:0:0:0:
485,248,82620,6,0,L|497:128,1,86.25,2|0,1:2|0:0,0:0:0:0:
243,61,82800,21,0,0:0:0:0:
211,61,82891,1,0,0:0:0:0:
193,82,82981,2,0,P|197:137|237:143,1,86.25,0|0,1:0|0:0,0:0:0:0:
379,251,83162,5,0,0:0:0:0:
403,222,83252,1,0,0:0:0:0:
382,192,83343,2,0,P|330:179|308:208,1,86.25,0|0,1:0|0:0,0:0:0:0:
95,246,83523,21,0,0:0:0:0:
77,257,83614,1,0,0:0:0:0:
81,277,83704,1,0,1:0:0:0:
134,291,83794,1,0,0:0:0:0:
178,257,83885,1,0,0:0:0:0:
176,201,83975,1,0,0:0:0:0:
101,175,84065,5,0,1:0:0:0:
53,134,84156,1,0,0:0:0:0:
54,72,84246,1,0,0:0:0:0:
103,33,84337,1,0,0:0:0:0:
183,39,84427,22,0,P|162:116|111:296,1,230,6|0,1:2|0:0,0:0:0:0:
334,364,84788,2,0,P|360:314|403:314,1,86.25,10|0,1:2|0:0,0:0:0:0:
494,265,84969,5,0,0:0:0:0:
489,215,85059,21,0,0:0:0:0:
454,168,85150,5,2,1:2:0:0:
381,157,85240,21,0,0:0:0:0:
319,195,85331,5,0,0:0:0:0:
61,119,85511,22,0,P|72:176|73:219,1,86.25,10|0,1:2|0:0,0:0:0:0:
225,358,85692,2,0,L|276:362,2,28.75
44,279,85873,5,2,1:2:0:0:
89,299,85963,21,0,0:0:0:0:
148,292,86053,5,0,0:0:0:0:
194,235,86144,21,0,0:0:0:0:
192,162,86234,5,10,1:2:0:0:
137,112,86325,21,0,0:0:0:0:
61,119,86415,6,0,P|72:176|73:219,1,86.25
253,360,86596,22,0,B|261:239|287:121,1,230,2|0,1:2|0:0,0:0:0:0:
401,91,86867,1,0,0:0:0:0:
467,152,86957,2,0,P|474:201|436:233,1,86.25,10|0,1:2|0:0,0:0:0:0:
228,79,87138,2,0,P|266:48|313:65,1,86.25
438,315,87318,6,0,B|354:298|328:243|330:243|338:242|287:192|204:202,1,230,2|0,1:2|0:0,0:0:0:0:
54,320,87680,2,0,P|0:291|2:257,1,86.25,10|0,1:2|0:0,0:0:0:0:
81,213,87861,21,0,0:0:0:0:
117,179,87951,5,0,0:0:0:0:
177,173,88041,21,2,1:2:0:0:
240,216,88132,5,0,0:0:0:0:
251,289,88222,21,0,0:0:0:0:
462,54,88403,6,0,P|421:163|363:396,1,345,10|0,1:2|0:0,0:0:0:0:
443,358,88764,21,2,1:2:0:0:
410,312,88855,5,2,2:0:0:0:
355,305,88945,21,2,2:0:0:0:
298,259,89035,5,2,1:2:0:0:
265,304,89126,21,2,2:0:0:0:
210,311,89216,5,2,2:0:0:0:
152,363,89306,21,2,1:2:0:0:
