osu file format v14

[General]
AudioFilename: audio.ogg
AudioLeadIn: 0
PreviewTime: 55150
Countdown: 0
SampleSet: None
StackLeniency: 0.5
Mode: 0
LetterboxInBreaks: 0
WidescreenStoryboard: 1

[Editor]
Bookmarks: 15323,18215
DistanceSpacing: 1
BeatDivisor: 4
GridSize: 32
TimelineZoom: 1.8

[Metadata]
Title:Idol (TV Size)
TitleUnicode:アイドル (TV Size)
Artist:YOASOBI
ArtistUnicode:YOASOBI
Creator:achyoo
Version:Mocaotic's Normal
Source:【推しの子】
Tags:mocaotic iceluin shirahane suou rtyzen fairyaccel midorijeon ayucchi 幾田りら Ikuta Lilas ikura Ayase Japanese Pop J-pop Jpop anime opening op my star oshi no ko mom mum mother and children
BeatmapID:4097133
BeatmapSetID:1974204

[Difficulty]
HPDrainRate:3
CircleSize:3.6
OverallDifficulty:4
ApproachRate:5
SliderMultiplier:1.02
SliderTickRate:1

[Events]
//Background and Video events
0,0,"hoshinoai.jpg",0,0
//Break Periods
//Storyboard Layer 0 (Background)
//Storyboard Layer 1 (Fail)
//Storyboard Layer 2 (Pass)
//Storyboard Layer 3 (Foreground)
//Storyboard Layer 4 (Overlay)
//Storyboard Sound Samples

[TimingPoints]
572,361.44578313253,4,2,1,75,1,0
17921,-100,4,2,1,65,0,0
41053,-100,4,2,1,55,0,0
46837,-100,4,2,1,65,0,0
55150,-100,4,2,1,50,0,0
55511,-92.5925925925926,4,2,1,80,0,1
67078,-100,4,2,1,80,0,0
78644,-100,4,2,1,70,0,0

[Colours]
Combo1 : 189,147,247
Combo2 : 253,151,255

[HitObjects]
171,290,572,6,0,B|236:259|277:299|256:333|304:371|378:331,1,204,6|10,1:3|2:3,0:0:0:0:
448,384,1656,1,2,2:0:0:0:
448,384,2379,2,0,P|466:309|486:260,1,102,6|10,1:3|2:3,0:0:0:0:
507,246,2921,2,0,P|477:204|397:207,1,102,6|0,1:3|0:0,0:0:0:0:
387,221,3463,6,0,P|328:195|157:171,1,204,6|10,1:3|2:3,0:0:0:0:
95,205,4547,1,2,2:0:0:0:
95,205,5270,2,0,P|77:130|57:81,1,102,6|10,1:3|2:3,0:0:0:0:
36,67,5812,2,0,P|66:25|146:28,1,102,6|0,1:3|0:0,0:0:0:0:
147,52,6355,6,0,B|212:83|253:43|232:9|280:-29|354:11,1,204,6|10,1:3|2:3,0:0:0:0:
425,23,7439,1,2,2:0:0:0:
425,23,8162,2,0,P|404:86|393:149,1,102,6|10,1:3|2:3,0:0:0:0:
429,159,8704,2,0,P|389:202|334:193,1,102,6|0,1:3|0:0,0:0:0:0:
310,167,9246,6,0,P|241:180|86:201,1,204,6|8,1:3|2:3,0:0:0:0:
6,197,10331,1,2,2:0:0:0:
6,197,11053,2,0,P|27:260|38:323,1,102,6|10,1:3|2:3,0:0:0:0:
2,333,11596,2,0,P|42:376|97:367,1,102,6|0,1:3|0:0,0:0:0:0:
128,353,12138,6,0,P|215:324|320:405,1,204,6|6,1:3|1:3,0:0:0:0:
457,349,13403,2,0,P|478:286|505:238,1,102,2|2,1:2|1:2,0:0:0:0:
441,173,14126,1,2,1:2:0:0:
441,173,14306,1,2,1:2:0:0:
256,192,15029,12,2,17198,2:0:0:0:
488,123,17921,6,0,P|448:93|394:103,1,102,6|10,1:0|1:2,0:0:0:0:
361,133,18463,1,2,2:0:0:0:
361,133,18644,2,0,P|311:140|271:110,1,102,2|8,1:2|1:2,0:0:0:0:
190,48,19367,2,0,P|201:8|207:-8,2,51,2|2|10,1:2|2:0|1:2,0:0:0:0:
149,76,19909,1,2,2:0:0:0:
149,76,20090,2,0,P|126:159|119:194,1,102,2|8,1:2|1:2,0:0:0:0:
51,247,20812,6,0,P|26:238|2:232,2,51,2|2|10,1:2|2:0|1:2,0:0:0:0:
89,288,21355,1,0,0:0:0:0:
89,288,21535,1,2,1:2:0:0:
189,271,21897,1,10,1:2:0:0:
267,336,22258,2,0,P|256:369|251:392,2,51,2|2|10,1:2|2:0|1:2,0:0:0:0:
317,317,22800,1,2,2:0:0:0:
317,317,22981,2,0,P|331:265|347:218,1,102,2|8,1:2|1:2,0:0:0:0:
423,152,23704,6,0,P|457:161|491:177,1,51,6|2,1:3|2:0,0:0:0:0:
511,133,24065,2,0,P|521:102|533:76,1,51,10|2,1:2|2:0,0:0:0:0:
508,38,24427,2,0,P|465:1|390:21,1,102,2|8,1:2|1:2,0:0:0:0:
322,24,25150,2,0,P|311:60|297:92,1,51,2|2,1:2|2:0,0:0:0:0:
322,121,25511,2,0,P|353:131|378:141,1,51,10|2,1:2|2:0,0:0:0:0:
403,177,25873,2,0,P|403:227|368:265,1,102,2|8,1:2|1:2,0:0:0:0:
278,309,26596,6,0,P|271:335|265:360,2,51,2|2|10,1:2|2:0|1:2,0:0:0:0:
263,265,27138,1,0,0:0:0:0:
263,265,27318,1,2,1:2:0:0:
162,279,27680,1,10,1:2:0:0:
80,217,28041,2,0,P|87:191|93:166,2,51,2|2|10,1:2|2:0|1:2,0:0:0:0:
35,238,28584,1,2,2:0:0:0:
35,238,28764,2,0,P|15:298|4:355,1,102,2|10,1:2|1:2,0:0:0:0:
96,383,29487,6,0,P|133:363|181:373,1,76.5,6|2,1:2|2:0,0:0:0:0:
241,381,30029,2,0,P|289:364|338:352,1,102,2|2,2:0|2:0,0:0:0:0:
390,355,30571,1,10,1:2:0:0:
447,271,30933,2,0,P|410:251|362:261,1,76.5,2|2,1:2|2:0,0:0:0:0:
302,269,31475,2,0,P|253:252|204:240,1,102,2|2,2:0|2:0,0:0:0:0:
153,246,32017,1,10,1:2:0:0:
82,173,32379,6,0,P|52:181|20:185,2,51,2|2|10,1:2|2:0|1:2,0:0:0:0:
148,95,33102,2,0,P|156:65|168:35,2,51,2|2|10,1:2|2:0|1:2,0:0:0:0:
205,179,33825,2,0,P|196:208|184:238,2,51,2|2|10,1:2|2:0|1:2,0:0:0:0:
250,153,34367,1,2,2:0:0:0:
250,153,34547,2,0,P|274:159|298:168,1,51,2|10,1:2|2:0,0:0:0:0:
349,171,34909,1,10,1:2:0:0:
409,252,35270,6,0,P|450:249|478:205,1,76.5,6|2,1:2|2:0,0:0:0:0:
512,158,35812,2,0,P|501:95|498:52,1,102,2|2,2:0|2:0,0:0:0:0:
471,13,36355,1,10,1:2:0:0:
370,0,36716,2,0,P|329:3|301:47,1,76.5,2|2,1:2|2:0,0:0:0:0:
267,94,37258,2,0,P|278:157|281:200,1,102,2|2,2:0|2:0,0:0:0:0:
267,244,37800,1,10,1:2:0:0:
340,315,38162,6,0,P|378:307|400:307,2,51,2|2|10,1:2|2:0|1:2,0:0:0:0:
256,374,38885,2,0,P|218:382|196:382,1,51,2|2,1:2|2:0,0:0:0:0:
162,367,39246,1,10,1:2:0:0:
162,367,39427,2,0,P|137:322|152:262,1,102,2|2,2:0|2:0,0:0:0:0:
181,239,39969,1,10,1:2:0:0:
277,205,40331,2,0,P|302:207|327:213,1,51,10|0,1:2|3:0,0:0:0:0:
374,232,40692,1,2,3:2:0:0:
467,190,41053,6,0,P|472:107|384:73,1,153,6|2,1:2|1:2,0:0:0:0:
382,37,41776,1,0,1:0:0:0:
286,65,42138,1,8,2:0:0:0:
286,65,42318,2,0,P|228:47|165:37,2,102,2|2|2,1:2|1:2|1:2,0:0:0:0:
317,105,43222,1,2,1:2:0:0:
263,192,43584,1,10,2:0:0:0:
335,263,43945,6,0,P|310:312|216:319,1,153,2|2,1:2|1:2,0:0:0:0:
174,300,44668,1,2,1:2:0:0:
77,333,45029,1,10,2:0:0:0:
2,262,45391,2,0,P|19:195|39:153,1,102,2|2,1:2|1:2,0:0:0:0:
102,91,46114,2,0,P|92:58|82:35,2,51,2|0|10,1:2|1:0|2:0,0:0:0:0:
194,135,46837,6,0,P|262:129|292:81,1,102,6|10,1:2|1:2,0:0:0:0:
310,64,47379,2,0,P|349:32|398:35,1,102,2|2,2:0|2:0,0:0:0:0:
492,75,48102,2,0,P|472:143|460:202,1,102,2|2,2:0|2:0,0:0:0:0:
429,209,48644,2,0,P|441:244|448:282,1,51,10|2,1:2|2:0,0:0:0:0:
474,298,49005,1,2,1:2:0:0:
410,378,49367,1,10,1:2:0:0:
314,343,49728,6,0,P|279:284|295:235,1,102,6|10,1:2|1:2,0:0:0:0:
358,183,50451,2,0,P|351:145|337:105,1,76.5,2|2,1:2|2:0,0:0:0:0:
278,62,50993,2,0,P|240:68|170:95,1,102,2|2,2:0|2:0,0:0:0:0:
129,83,51535,2,0,P|121:59|110:33,2,51,10|2|2,1:2|2:0|1:2,0:0:0:0:
97,124,52078,1,2,2:0:0:0:
97,124,52258,1,10,1:2:0:0:
26,197,52620,6,0,P|48:276|58:326,1,102,10|8,1:2|2:1,0:0:0:0:
41,348,53162,1,10,1:2:0:0:
41,348,53343,1,10,1:2:0:0:
140,384,53704,1,2,3:2:0:0:
140,384,53885,1,10,1:2:0:0:
205,301,54246,1,10,1:2:0:0:
150,221,54608,1,10,1:2:0:0:
150,221,54788,1,10,1:2:0:0:
0,59,55511,6,0,P|25:41|60:36,1,55.08,6|0,1:0|0:0,0:0:0:0:
97,11,55873,2,0,P|125:23|146:51,1,55.08,10|0,1:2|0:0,0:0:0:0:
170,87,56234,2,0,P|145:176|135:241,1,110.16,2|10,1:2|1:2,0:0:0:0:
108,237,56776,1,2,2:0:0:0:
172,333,57138,1,2,2:0:0:0:
172,333,57318,2,0,P|219:342|261:362,1,55.08,10|2,1:2|2:0,0:0:0:0:
273,372,57680,2,0,P|337:374|367:297,1,110.16,2|10,1:2|1:2,0:0:0:0:
467,300,58403,6,0,P|472:265|483:226,1,55.08,2|0,1:2|0:0,0:0:0:0:
445,200,58764,2,0,P|417:196|390:190,1,55.08,10|0,1:2|0:0,0:0:0:0:
336,202,59126,2,0,P|284:168|224:187,1,110.160002689453,2|10,1:2|1:2,0:0:0:0:
189,200,59668,2,0,P|122:198|96:143,1,110.160002689453,2|2,2:0|2:0,0:0:0:0:
81,125,60210,1,10,1:2:0:0:
81,125,60391,1,10,0:2:0:0:
81,125,60571,1,2,1:2:0:0:
148,36,60933,1,10,1:2:0:0:
253,72,61294,6,0,P|244:102|239:133,1,55.0800013447266,6|0,1:2|0:0,0:0:0:0:
268,173,61656,2,0,P|299:178|330:189,1,55.0800013447266,10|0,1:2|0:0,0:0:0:0:
360,224,62017,2,0,P|418:192|473:201,1,110.160002689453,2|10,1:2|1:2,0:0:0:0:
506,166,62559,1,2,2:0:0:0:
481,63,62921,1,2,2:0:0:0:
481,63,63102,2,0,P|449:57|412:37,1,55.0800013447266,10|2,1:2|2:0,0:0:0:0:
379,22,63463,2,0,P|329:33|272:50,1,110.16,2|10,1:2|1:2,0:0:0:0:
232,86,64005,1,2,0:0:0:0:
232,86,64186,1,0,1:2:0:0:
279,185,64547,6,0,P|268:216|262:254,1,55.08,10|0,1:2|0:0,0:0:0:0:
234,284,64909,2,0,P|183:291|120:322,1,110.160002689453,2|10,1:2|1:2,0:0:0:0:
85,347,65451,1,2,2:0:0:0:
1,275,65812,2,0,P|8:248|15:221,1,55.0800013447266,2|8,0:0|0:2,0:0:0:0:
65,195,66174,1,2,2:0:0:0:
65,195,66355,2,0,P|71:162|90:119,1,55.0800013447266,10|8,1:2|2:0,0:0:0:0:
51,94,66716,2,0,P|62:58|69:21,1,55.0800013447266,10|10,1:2|2:0,0:0:0:0:
110,14,67078,6,0,P|161:9|207:51,1,102,6|8,1:2|1:2,0:0:0:0:
235,133,67800,2,0,P|221:182|211:232,1,102,2|10,1:2|1:2,0:0:0:0:
175,267,68343,1,2,2:0:0:0:
175,267,68523,2,0,P|141:254|105:248,2,51,2|0|8,1:2|0:0|1:2,0:0:0:0:
226,354,69246,2,0,P|250:360|274:369,1,51,2|2,1:2|2:0,0:0:0:0:
319,344,69608,1,10,1:2:0:0:
416,374,69969,6,0,P|463:369|491:317,1,102,2|10,1:2|1:2,0:0:0:0:
447,233,70692,2,0,P|456:196|471:160,2,76.5,2|2|2,1:2|2:0|2:0,0:0:0:0:
399,252,71415,1,2,1:2:0:0:
301,281,71776,2,0,P|274:271|249:266,1,51,10|2,1:2|2:0,0:0:0:0:
221,225,72138,2,0,P|230:198|235:173,1,51,2|0,1:2|0:0,0:0:0:0:
274,143,72499,2,0,P|300:147|325:154,1,51,10|2,1:2|2:0,0:0:0:0:
373,140,72861,6,0,P|407:94|386:37,1,102,6|8,1:2|1:2,0:0:0:0:
311,1,73584,2,0,P|253:12|195:29,1,102,2|10,1:2|1:2,0:0:0:0:
175,59,74126,1,2,2:0:0:0:
175,59,74306,2,0,P|193:111|206:162,1,102,2|8,1:2|1:2,0:0:0:0:
261,241,75029,2,0,P|246:284|241:312,1,51,2|2,1:2|2:0,0:0:0:0:
218,333,75391,1,10,1:2:0:0:
121,366,75752,6,0,P|68:341|56:284,1,102,10|10,1:0|1:0,0:0:0:0:
19,273,76294,1,2,2:0:0:0:
19,273,76475,2,0,P|37:198|52:157,1,102,10|10,1:0|2:0,0:0:0:0:
21,129,77017,1,6,1:2:0:0:
94,58,77379,1,2,2:0:0:0:
195,92,77740,1,2,2:0:0:0:
195,92,77921,2,0,P|230:77|264:65,2,51,2|8|8,1:2|2:0|1:2,0:0:0:0:
169,190,78644,6,0,P|116:198|61:140,2,102,6|2|2,1:0|1:2|1:2,0:0:0:0:
254,134,79728,1,2,1:2:0:0:
332,68,80090,2,0,P|375:42|424:51,2,102,2|2|2,1:2|1:2|1:2,0:0:0:0:
254,134,81174,1,2,1:2:0:0:
169,190,81535,6,0,P|116:198|61:140,1,102,2|2,1:2|1:2,0:0:0:0:
3,102,82258,1,2,1:2:0:0:
58,16,82620,1,2,1:2:0:0:
155,46,82981,2,0,P|213:59|275:74,1,102,0|0,1:0|1:0,0:0:0:0:
334,132,83704,1,0,1:0:0:0:
285,221,84065,1,0,1:0:0:0:
367,280,84427,6,0,P|422:289|465:248,1,102,6|10,1:2|1:2,0:0:0:0:
487,223,84969,1,0,0:0:0:0:
487,223,85150,2,0,P|498:172|526:86,1,102,2|10,1:2|1:2,0:0:0:0:
452,40,85873,2,0,P|395:33|356:86,1,102,2|10,1:2|1:2,0:0:0:0:
335,103,86415,1,0,0:0:0:0:
335,103,86596,2,0,P|274:104|241:66,1,102,2|10,1:2|1:2,0:0:0:0:
163,19,87318,6,0,P|97:44|42:54,1,102,2|10,1:2|1:2,0:0:0:0:
35,92,87861,1,0,0:0:0:0:
35,92,88041,2,0,P|52:137|70:204,1,102,2|10,1:2|1:2,0:0:0:0:
159,231,88764,2,0,P|201:226|241:259,2,76.5,2|2|2,1:2|1:2|1:2,0:0:0:0:
