osu file format v14

[General]
AudioFilename: audio.ogg
AudioLeadIn: 0
PreviewTime: 54908
Countdown: 0
SampleSet: Soft
StackLeniency: 0.7
Mode: 3
LetterboxInBreaks: 0
SpecialStyle: 1
WidescreenStoryboard: 1

[Editor]
Bookmarks: 11896,14787,17679,29245,40811,46595,49486,55269,66836,78402
DistanceSpacing: 0.9
BeatDivisor: 4
GridSize: 16
TimelineZoom: 1.9

[Metadata]
Title:Idol (TV Size)
TitleUnicode:アイドル (TV Size)
Artist:YOASOBI
ArtistUnicode:YOASOBI
Creator:Ryu Sei
Version:Special Advanced
Source:【推しの子】
Tags:5k+1 special s key riunosk midjourney Japanese Anime pop Jpop J-pop opening op Oshi no ko Her Fans Their Idol's Children 【Oshi No Ko】 My Favorite Idol Ayase Ikura Ikuta Lilas 幾田りら 星野 愛久愛海 瑠美衣 Hoshino Akuamarin Aquamarine Aqua アクア Ruby Rubii Ai アイ Aidoru my star Aka Akasaka 赤坂 アカ N+1 NK+1 5+1
BeatmapID:4123900
BeatmapSetID:1985404

[Difficulty]
HPDrainRate:7
CircleSize:6
OverallDifficulty:7
ApproachRate:5
SliderMultiplier:1.4
SliderTickRate:1

[Events]
//Background and Video events
0,0,"idol-bg.png",0,0
//Break Periods
//Storyboard Layer 0 (Background)
//Storyboard Layer 1 (Fail)
//Storyboard Layer 2 (Pass)
//Storyboard Layer 3 (Foreground)
//Storyboard Layer 4 (Overlay)
//Storyboard Sound Samples

[TimingPoints]
330,361.44578313253,4,2,1,40,1,0
46595,-100,4,2,1,40,0,0
55269,-100,4,2,1,40,0,1
78402,-100,4,2,1,40,0,0

[HitObjects]
298,192,330,5,2,0:0:0:0:
42,192,330,1,0,0:0:0:0:
384,192,330,1,0,0:0:0:0:
42,192,691,128,0,1052:0:0:0:0:
213,192,691,1,0,0:0:0:0:
384,192,811,1,0,0:0:0:0:
213,192,932,1,0,0:0:0:0:
384,192,1052,1,8,0:0:0:0:
469,192,1414,1,0,0:0:0:0:
298,192,1595,1,0,0:0:0:0:
213,192,1685,1,0,0:0:0:0:
128,192,1775,1,2,0:0:0:0:
213,192,1956,1,0,0:0:0:0:
42,192,2137,1,0,0:0:0:0:
384,192,2137,1,0,0:0:0:0:
469,192,2137,1,0,0:0:0:0:
213,192,2498,1,8,0:0:0:0:
42,192,2679,1,0,0:0:0:0:
298,192,2679,1,0,0:0:0:0:
384,192,2679,1,0,0:0:0:0:
128,192,2860,1,0,0:0:0:0:
469,192,3040,1,0,0:0:0:0:
298,192,3221,1,2,0:0:0:0:
213,192,3221,1,0,0:0:0:0:
42,192,3221,1,0,0:0:0:0:
42,192,3583,128,0,3944:0:0:0:0:
384,192,3583,1,0,0:0:0:0:
213,192,3703,1,0,0:0:0:0:
384,192,3823,1,0,0:0:0:0:
213,192,3944,1,8,0:0:0:0:
128,192,4305,1,0,0:0:0:0:
298,192,4486,1,0,0:0:0:0:
384,192,4576,1,0,0:0:0:0:
469,192,4667,1,2,0:0:0:0:
384,192,4848,1,0,0:0:0:0:
42,192,5028,1,0,0:0:0:0:
128,192,5028,1,0,0:0:0:0:
213,192,5028,1,0,0:0:0:0:
384,192,5390,1,8,0:0:0:0:
42,192,5570,1,0,0:0:0:0:
213,192,5570,1,0,0:0:0:0:
298,192,5570,1,0,0:0:0:0:
469,192,5751,1,0,0:0:0:0:
128,192,5932,1,0,0:0:0:0:
298,192,6113,1,2,0:0:0:0:
213,192,6113,1,0,0:0:0:0:
42,192,6113,1,0,0:0:0:0:
42,192,6474,128,0,6836:0:0:0:0:
384,192,6474,1,0,0:0:0:0:
213,192,6595,1,0,0:0:0:0:
384,192,6715,1,0,0:0:0:0:
213,192,6836,1,8,0:0:0:0:
469,192,7197,1,0,0:0:0:0:
298,192,7378,1,0,0:0:0:0:
213,192,7468,1,0,0:0:0:0:
128,192,7558,1,2,0:0:0:0:
384,192,7739,1,0,0:0:0:0:
42,192,7920,1,0,0:0:0:0:
213,192,7920,1,0,0:0:0:0:
469,192,7920,1,0,0:0:0:0:
384,192,8281,1,8,0:0:0:0:
42,192,8462,1,0,0:0:0:0:
213,192,8462,1,0,0:0:0:0:
298,192,8462,1,0,0:0:0:0:
128,192,8643,1,0,0:0:0:0:
469,192,8823,1,0,0:0:0:0:
298,192,9004,1,2,0:0:0:0:
42,192,9004,1,0,0:0:0:0:
384,192,9004,1,0,0:0:0:0:
42,192,9366,128,0,9727:0:0:0:0:
213,192,9366,1,0,0:0:0:0:
384,192,9486,1,0,0:0:0:0:
213,192,9607,1,0,0:0:0:0:
384,192,9727,1,8,0:0:0:0:
128,192,10089,1,0,0:0:0:0:
298,192,10269,1,0,0:0:0:0:
384,192,10360,1,0,0:0:0:0:
469,192,10450,1,2,0:0:0:0:
213,192,10631,1,0,0:0:0:0:
42,192,10811,1,0,0:0:0:0:
128,192,10811,1,0,0:0:0:0:
384,192,10811,1,0,0:0:0:0:
213,192,11173,1,8,0:0:0:0:
42,192,11354,1,0,0:0:0:0:
298,192,11354,1,0,0:0:0:0:
384,192,11354,1,0,0:0:0:0:
469,192,11534,1,0,0:0:0:0:
128,192,11715,1,0,0:0:0:0:
42,192,11896,1,2,0:0:0:0:
384,192,11896,1,0,0:0:0:0:
469,192,11896,1,0,0:0:0:0:
298,192,12257,1,0,0:0:0:0:
384,192,12257,1,0,0:0:0:0:
42,192,12619,1,2,0:0:0:0:
213,192,12619,1,0,0:0:0:0:
298,192,12619,1,0,0:0:0:0:
128,192,12980,1,0,0:0:0:0:
213,192,12980,1,0,0:0:0:0:
42,192,13161,1,6,0:0:0:0:
384,192,13161,1,0,0:0:0:0:
469,192,13161,1,0,0:0:0:0:
42,192,13522,1,2,0:0:0:0:
213,192,13522,1,0,0:0:0:0:
384,192,13522,1,0,0:0:0:0:
42,192,13884,1,2,0:0:0:0:
128,192,13884,1,0,0:0:0:0:
298,192,13884,1,0,0:0:0:0:
42,192,14064,1,2,0:0:0:0:
298,192,14064,1,0,0:0:0:0:
469,192,14064,1,0,0:0:0:0:
298,192,14426,1,8,0:0:0:0:
128,192,14787,1,2,0:0:0:0:
469,192,14787,128,4,15149:0:0:0:0:
128,192,15058,1,2,0:0:0:0:
213,192,15149,128,0,15510:0:0:0:0:
128,192,15329,1,2,0:0:0:0:
298,192,15510,128,0,15872:0:0:0:0:
128,192,15691,1,2,0:0:0:0:
384,192,15872,128,0,16233:0:0:0:0:
128,192,16052,1,2,0:0:0:0:
298,192,16233,128,0,16595:0:0:0:0:
469,192,16233,1,2,0:0:0:0:
469,192,16504,1,2,0:0:0:0:
213,192,16595,128,0,16956:0:0:0:0:
469,192,16775,1,2,0:0:0:0:
128,192,16956,128,0,17317:0:0:0:0:
469,192,17137,1,2,0:0:0:0:
298,192,17317,128,0,17679:0:0:0:0:
469,192,17498,1,2,0:0:0:0:
42,192,17679,1,4,0:0:0:0:
128,192,17679,1,2,0:0:0:0:
384,192,17679,1,0,0:0:0:0:
128,192,18040,1,2,0:0:0:0:
298,192,18040,1,8,0:0:0:0:
469,192,18221,1,0,0:0:0:0:
128,192,18402,1,2,0:0:0:0:
469,192,18583,1,0,0:0:0:0:
128,192,18763,1,2,0:0:0:0:
298,192,18763,1,8,0:0:0:0:
384,192,18944,1,0,0:0:0:0:
213,192,19125,1,2,0:0:0:0:
469,192,19125,1,0,0:0:0:0:
298,192,19486,1,2,0:0:0:0:
469,192,19486,1,8,0:0:0:0:
128,192,19667,1,0,0:0:0:0:
469,192,19848,1,2,0:0:0:0:
128,192,20028,1,0,0:0:0:0:
298,192,20209,1,8,0:0:0:0:
469,192,20209,1,2,0:0:0:0:
128,192,20390,1,0,0:0:0:0:
298,192,20570,1,2,0:0:0:0:
384,192,20570,1,0,0:0:0:0:
213,192,20932,1,8,0:0:0:0:
384,192,20932,1,2,0:0:0:0:
128,192,21113,1,0,0:0:0:0:
384,192,21293,1,2,0:0:0:0:
128,192,21474,1,0,0:0:0:0:
213,192,21655,1,8,0:0:0:0:
384,192,21655,1,2,0:0:0:0:
128,192,21836,1,0,0:0:0:0:
213,192,22016,1,2,0:0:0:0:
298,192,22016,1,0,0:0:0:0:
213,192,22378,1,2,0:0:0:0:
384,192,22378,1,8,0:0:0:0:
469,192,22558,1,0,0:0:0:0:
213,192,22739,1,2,0:0:0:0:
469,192,22920,1,0,0:0:0:0:
213,192,23101,1,8,0:0:0:0:
384,192,23101,1,2,0:0:0:0:
469,192,23281,1,0,0:0:0:0:
42,192,23462,1,0,0:0:0:0:
128,192,23462,1,2,0:0:0:0:
213,192,23462,1,0,0:0:0:0:
128,192,23823,1,2,0:0:0:0:
298,192,23823,1,8,0:0:0:0:
469,192,24004,1,0,0:0:0:0:
128,192,24185,1,2,0:0:0:0:
469,192,24366,1,0,0:0:0:0:
128,192,24546,1,2,0:0:0:0:
298,192,24546,1,8,0:0:0:0:
213,192,24727,1,0,0:0:0:0:
384,192,24908,1,2,0:0:0:0:
469,192,24908,1,0,0:0:0:0:
298,192,25269,1,8,0:0:0:0:
469,192,25269,1,2,0:0:0:0:
128,192,25450,1,0,0:0:0:0:
469,192,25631,1,2,0:0:0:0:
128,192,25811,1,0,0:0:0:0:
298,192,25992,1,2,0:0:0:0:
469,192,25992,1,8,0:0:0:0:
128,192,26173,1,0,0:0:0:0:
213,192,26354,1,2,0:0:0:0:
298,192,26354,1,0,0:0:0:0:
213,192,26715,1,8,0:0:0:0:
384,192,26715,1,2,0:0:0:0:
469,192,26896,1,0,0:0:0:0:
213,192,27076,1,2,0:0:0:0:
469,192,27257,1,0,0:0:0:0:
213,192,27438,1,2,0:0:0:0:
384,192,27438,1,8,0:0:0:0:
128,192,27619,1,0,0:0:0:0:
298,192,27799,1,2,0:0:0:0:
384,192,27799,1,0,0:0:0:0:
213,192,28161,1,8,0:0:0:0:
384,192,28161,1,2,0:0:0:0:
128,192,28342,1,0,0:0:0:0:
384,192,28522,1,2,0:0:0:0:
128,192,28703,1,0,0:0:0:0:
213,192,28884,1,8,0:0:0:0:
384,192,28884,1,2,0:0:0:0:
469,192,29064,1,0,0:0:0:0:
42,192,29245,1,4,0:0:0:0:
384,192,29245,1,2,0:0:0:0:
42,192,29516,1,0,0:0:0:0:
213,192,29607,1,2,0:0:0:0:
384,192,29607,1,8,0:0:0:0:
42,192,29787,1,0,0:0:0:0:
384,192,29968,1,2,0:0:0:0:
298,192,30149,1,0,0:0:0:0:
213,192,30329,1,2,0:0:0:0:
384,192,30329,1,8,0:0:0:0:
128,192,30510,1,0,0:0:0:0:
42,192,30691,1,0,0:0:0:0:
213,192,30691,1,2,0:0:0:0:
42,192,30962,1,0,0:0:0:0:
213,192,31052,1,2,0:0:0:0:
384,192,31052,1,8,0:0:0:0:
42,192,31233,1,0,0:0:0:0:
213,192,31414,1,2,0:0:0:0:
298,192,31595,1,0,0:0:0:0:
213,192,31775,1,2,0:0:0:0:
384,192,31775,1,8,0:0:0:0:
469,192,31956,1,0,0:0:0:0:
128,192,32137,1,2,0:0:0:0:
298,192,32137,1,0,0:0:0:0:
128,192,32498,1,8,0:0:0:0:
298,192,32498,1,2,0:0:0:0:
469,192,32498,1,0,0:0:0:0:
384,192,32860,1,2,0:0:0:0:
469,192,32860,1,0,0:0:0:0:
213,192,33040,1,0,0:0:0:0:
298,192,33221,1,2,0:0:0:0:
469,192,33221,1,8,0:0:0:0:
213,192,33402,1,0,0:0:0:0:
128,192,33583,1,2,0:0:0:0:
128,192,33944,1,2,0:0:0:0:
298,192,33944,1,8,0:0:0:0:
469,192,34305,1,2,0:0:0:0:
128,192,34486,1,8,0:0:0:0:
213,192,34486,1,0,0:0:0:0:
384,192,34576,1,8,0:0:0:0:
469,192,34576,1,0,0:0:0:0:
128,192,34667,1,2,0:0:0:0:
213,192,34667,1,0,0:0:0:0:
384,192,34848,1,2,0:0:0:0:
469,192,34848,1,0,0:0:0:0:
42,192,35028,1,4,0:0:0:0:
213,192,35028,1,2,0:0:0:0:
42,192,35299,1,0,0:0:0:0:
213,192,35390,1,2,0:0:0:0:
384,192,35390,1,8,0:0:0:0:
42,192,35570,1,0,0:0:0:0:
213,192,35751,1,2,0:0:0:0:
298,192,35932,1,0,0:0:0:0:
213,192,36113,1,2,0:0:0:0:
384,192,36113,1,8,0:0:0:0:
469,192,36293,1,0,0:0:0:0:
42,192,36474,1,0,0:0:0:0:
384,192,36474,1,2,0:0:0:0:
42,192,36745,1,0,0:0:0:0:
213,192,36836,1,2,0:0:0:0:
384,192,36836,1,8,0:0:0:0:
42,192,37016,1,0,0:0:0:0:
384,192,37197,1,2,0:0:0:0:
298,192,37378,1,0,0:0:0:0:
213,192,37558,1,2,0:0:0:0:
384,192,37558,1,8,0:0:0:0:
128,192,37739,1,0,0:0:0:0:
298,192,37920,1,2,0:0:0:0:
469,192,37920,1,0,0:0:0:0:
128,192,38281,1,8,0:0:0:0:
298,192,38281,1,2,0:0:0:0:
469,192,38281,1,0,0:0:0:0:
128,192,38643,1,2,0:0:0:0:
213,192,38643,1,0,0:0:0:0:
384,192,38823,1,0,0:0:0:0:
128,192,39004,1,2,0:0:0:0:
298,192,39004,1,8,0:0:0:0:
384,192,39185,1,0,0:0:0:0:
469,192,39366,1,2,0:0:0:0:
298,192,39727,1,8,0:0:0:0:
469,192,39727,1,2,0:0:0:0:
128,192,39908,1,8,0:0:0:0:
213,192,39908,1,0,0:0:0:0:
384,192,39998,1,8,0:0:0:0:
469,192,39998,1,0,0:0:0:0:
128,192,40089,1,8,0:0:0:0:
213,192,40089,1,0,0:0:0:0:
384,192,40269,1,2,0:0:0:0:
469,192,40269,1,0,0:0:0:0:
128,192,40450,1,2,0:0:0:0:
213,192,40450,1,0,0:0:0:0:
42,192,40811,1,4,0:0:0:0:
298,192,40811,1,2,0:0:0:0:
298,192,41354,1,2,0:0:0:0:
298,192,41534,1,2,0:0:0:0:
42,192,41896,1,8,0:0:0:0:
298,192,42076,1,2,0:0:0:0:
298,192,42438,1,2,0:0:0:0:
298,192,42799,1,2,0:0:0:0:
298,192,42980,1,2,0:0:0:0:
42,192,43342,1,8,0:0:0:0:
298,192,43703,1,2,0:0:0:0:
298,192,44245,1,2,0:0:0:0:
298,192,44426,1,2,0:0:0:0:
42,192,44787,1,8,0:0:0:0:
298,192,45149,1,2,0:0:0:0:
298,192,45510,1,2,0:0:0:0:
213,192,45872,1,2,0:0:0:0:
384,192,45962,1,2,0:0:0:0:
213,192,46052,1,2,0:0:0:0:
384,192,46143,1,2,0:0:0:0:
42,192,46233,1,8,0:0:0:0:
213,192,46233,1,0,0:0:0:0:
469,192,46595,1,2,0:0:0:0:
42,192,46595,1,4,0:0:0:0:
42,192,46956,1,8,0:0:0:0:
298,192,46956,1,2,0:0:0:0:
384,192,46956,1,0,0:0:0:0:
128,192,47317,1,2,0:0:0:0:
42,192,47679,1,8,0:0:0:0:
213,192,47679,1,2,0:0:0:0:
298,192,47679,1,0,0:0:0:0:
384,192,48040,1,2,0:0:0:0:
42,192,48402,1,8,0:0:0:0:
128,192,48402,1,2,0:0:0:0:
298,192,48402,1,0,0:0:0:0:
213,192,48763,1,2,0:0:0:0:
42,192,49125,1,8,0:0:0:0:
298,192,49125,1,2,0:0:0:0:
469,192,49125,1,0,0:0:0:0:
42,192,49486,1,4,0:0:0:0:
384,192,49486,1,2,0:0:0:0:
42,192,49848,1,0,0:0:0:0:
213,192,49848,1,0,0:0:0:0:
384,192,49848,1,2,0:0:0:0:
384,192,50209,1,2,0:0:0:0:
42,192,50570,1,0,0:0:0:0:
213,192,50570,1,0,0:0:0:0:
384,192,50570,1,2,0:0:0:0:
213,192,50932,1,2,0:0:0:0:
42,192,51293,1,0,0:0:0:0:
213,192,51293,1,2,0:0:0:0:
384,192,51293,1,0,0:0:0:0:
213,192,51655,1,2,0:0:0:0:
42,192,52016,1,0,0:0:0:0:
213,192,52016,1,2,0:0:0:0:
384,192,52016,1,0,0:0:0:0:
298,192,52378,1,6,0:0:0:0:
42,192,52558,1,8,0:0:0:0:
42,192,52739,1,8,0:0:0:0:
298,192,52920,1,2,0:0:0:0:
298,192,53101,1,2,0:0:0:0:
128,192,53281,128,8,53462:0:0:0:0:
298,192,53462,1,0,0:0:0:0:
128,192,53643,1,2,0:0:0:0:
384,192,53643,1,0,0:0:0:0:
213,192,54004,1,2,0:0:0:0:
469,192,54004,1,0,0:0:0:0:
298,192,54185,1,0,0:0:0:0:
384,192,54366,1,2,0:0:0:0:
469,192,54366,1,0,0:0:0:0:
128,192,54546,1,2,0:0:0:0:
213,192,54546,1,0,0:0:0:0:
42,192,55269,1,4,0:0:0:0:
298,192,55269,1,2,0:0:0:0:
384,192,55269,1,0,0:0:0:0:
213,192,55450,1,0,0:0:0:0:
128,192,55631,1,2,0:0:0:0:
469,192,55631,1,8,0:0:0:0:
213,192,55811,1,0,0:0:0:0:
298,192,55992,1,2,0:0:0:0:
384,192,55992,1,0,0:0:0:0:
213,192,56173,1,0,0:0:0:0:
128,192,56354,1,2,0:0:0:0:
469,192,56354,1,8,0:0:0:0:
384,192,56534,1,0,0:0:0:0:
213,192,56715,1,2,0:0:0:0:
298,192,56715,1,0,0:0:0:0:
128,192,56896,1,0,0:0:0:0:
298,192,57076,1,2,0:0:0:0:
384,192,57076,1,8,0:0:0:0:
213,192,57257,1,0,0:0:0:0:
298,192,57438,1,2,0:0:0:0:
469,192,57438,1,0,0:0:0:0:
128,192,57619,1,0,0:0:0:0:
213,192,57799,1,8,0:0:0:0:
384,192,57799,1,2,0:0:0:0:
298,192,57980,1,0,0:0:0:0:
128,192,58161,1,2,0:0:0:0:
213,192,58161,1,0,0:0:0:0:
384,192,58342,1,0,0:0:0:0:
213,192,58522,1,2,0:0:0:0:
469,192,58522,1,8,0:0:0:0:
298,192,58703,1,0,0:0:0:0:
128,192,58884,1,2,0:0:0:0:
384,192,58884,1,0,0:0:0:0:
213,192,59064,1,0,0:0:0:0:
298,192,59245,1,2,0:0:0:0:
469,192,59245,1,8,0:0:0:0:
384,192,59426,1,0,0:0:0:0:
213,192,59607,1,2,0:0:0:0:
298,192,59607,1,0,0:0:0:0:
128,192,59787,1,0,0:0:0:0:
384,192,59968,1,2,0:0:0:0:
469,192,59968,1,8,0:0:0:0:
128,192,60149,1,8,0:0:0:0:
213,192,60149,1,0,0:0:0:0:
384,192,60239,1,8,0:0:0:0:
469,192,60239,1,0,0:0:0:0:
213,192,60329,1,2,0:0:0:0:
384,192,60510,1,8,0:0:0:0:
469,192,60510,1,0,0:0:0:0:
128,192,60601,1,8,0:0:0:0:
213,192,60601,1,0,0:0:0:0:
384,192,60691,1,2,0:0:0:0:
128,192,60872,1,8,0:0:0:0:
213,192,60872,1,0,0:0:0:0:
384,192,60962,1,8,0:0:0:0:
469,192,60962,1,0,0:0:0:0:
42,192,61052,1,4,0:0:0:0:
213,192,61052,1,2,0:0:0:0:
298,192,61052,1,0,0:0:0:0:
384,192,61233,1,0,0:0:0:0:
128,192,61414,1,8,0:0:0:0:
469,192,61414,1,2,0:0:0:0:
384,192,61595,1,0,0:0:0:0:
213,192,61775,1,2,0:0:0:0:
298,192,61775,1,0,0:0:0:0:
384,192,61956,1,0,0:0:0:0:
128,192,62137,1,2,0:0:0:0:
469,192,62137,1,8,0:0:0:0:
213,192,62317,1,0,0:0:0:0:
298,192,62498,1,2,0:0:0:0:
384,192,62498,1,0,0:0:0:0:
469,192,62679,1,0,0:0:0:0:
213,192,62860,1,2,0:0:0:0:
298,192,62860,1,8,0:0:0:0:
384,192,63040,1,0,0:0:0:0:
128,192,63221,1,2,0:0:0:0:
298,192,63221,1,0,0:0:0:0:
469,192,63402,1,0,0:0:0:0:
213,192,63583,1,8,0:0:0:0:
384,192,63583,1,2,0:0:0:0:
298,192,63763,1,0,0:0:0:0:
384,192,63944,1,2,0:0:0:0:
469,192,63944,1,0,0:0:0:0:
213,192,64125,1,0,0:0:0:0:
128,192,64305,1,2,0:0:0:0:
384,192,64305,1,8,0:0:0:0:
298,192,64486,1,0,0:0:0:0:
213,192,64667,1,2,0:0:0:0:
469,192,64667,1,0,0:0:0:0:
384,192,64848,1,0,0:0:0:0:
128,192,65028,1,2,0:0:0:0:
298,192,65028,1,8,0:0:0:0:
213,192,65209,1,0,0:0:0:0:
298,192,65390,1,2,0:0:0:0:
384,192,65390,1,0,0:0:0:0:
469,192,65570,1,0,0:0:0:0:
128,192,65751,1,2,0:0:0:0:
213,192,65751,1,8,0:0:0:0:
298,192,65932,1,0,0:0:0:0:
384,192,66113,1,2,0:0:0:0:
469,192,66113,1,0,0:0:0:0:
128,192,66293,1,8,0:0:0:0:
213,192,66293,1,0,0:0:0:0:
384,192,66384,1,8,0:0:0:0:
469,192,66384,1,0,0:0:0:0:
213,192,66474,1,2,0:0:0:0:
384,192,66655,1,2,0:0:0:0:
469,192,66655,1,0,0:0:0:0:
128,192,66745,1,2,0:0:0:0:
213,192,66745,1,0,0:0:0:0:
42,192,66836,1,4,0:0:0:0:
298,192,66836,1,2,0:0:0:0:
384,192,66836,1,0,0:0:0:0:
42,192,67197,1,0,0:0:0:0:
213,192,67197,1,8,0:0:0:0:
298,192,67197,1,2,0:0:0:0:
42,192,67558,1,0,0:0:0:0:
128,192,67558,1,0,0:0:0:0:
298,192,67558,1,2,0:0:0:0:
42,192,67829,1,0,0:0:0:0:
213,192,67829,1,0,0:0:0:0:
384,192,67829,1,2,0:0:0:0:
42,192,68101,1,0,0:0:0:0:
298,192,68101,1,0,0:0:0:0:
469,192,68101,1,2,0:0:0:0:
128,192,68281,1,2,0:0:0:0:
384,192,68281,1,0,0:0:0:0:
213,192,68462,1,0,0:0:0:0:
298,192,68643,1,8,0:0:0:0:
469,192,68643,1,2,0:0:0:0:
384,192,68823,1,0,0:0:0:0:
213,192,69004,1,2,0:0:0:0:
298,192,69004,1,0,0:0:0:0:
384,192,69185,1,0,0:0:0:0:
213,192,69366,1,2,0:0:0:0:
469,192,69366,1,8,0:0:0:0:
128,192,69546,1,0,0:0:0:0:
42,192,69727,1,0,0:0:0:0:
213,192,69727,1,0,0:0:0:0:
298,192,69727,1,2,0:0:0:0:
42,192,70089,1,0,0:0:0:0:
298,192,70089,1,8,0:0:0:0:
384,192,70089,1,2,0:0:0:0:
42,192,70450,1,0,0:0:0:0:
298,192,70450,1,0,0:0:0:0:
469,192,70450,1,2,0:0:0:0:
42,192,70721,1,0,0:0:0:0:
213,192,70721,1,0,0:0:0:0:
384,192,70721,1,2,0:0:0:0:
42,192,70992,1,0,0:0:0:0:
128,192,70992,1,0,0:0:0:0:
298,192,70992,1,2,0:0:0:0:
213,192,71173,1,2,0:0:0:0:
469,192,71173,1,0,0:0:0:0:
384,192,71354,1,0,0:0:0:0:
128,192,71534,1,8,0:0:0:0:
298,192,71534,1,2,0:0:0:0:
213,192,71715,1,0,0:0:0:0:
298,192,71896,1,2,0:0:0:0:
384,192,71896,1,0,0:0:0:0:
213,192,72076,1,0,0:0:0:0:
128,192,72257,1,2,0:0:0:0:
384,192,72257,1,8,0:0:0:0:
469,192,72438,1,0,0:0:0:0:
42,192,72619,1,0,0:0:0:0:
213,192,72619,1,2,0:0:0:0:
298,192,72619,1,0,0:0:0:0:
42,192,72980,1,0,0:0:0:0:
298,192,72980,1,8,0:0:0:0:
384,192,72980,1,2,0:0:0:0:
42,192,73342,1,0,0:0:0:0:
128,192,73342,1,2,0:0:0:0:
298,192,73342,1,0,0:0:0:0:
42,192,73613,1,0,0:0:0:0:
213,192,73613,1,2,0:0:0:0:
384,192,73613,1,0,0:0:0:0:
42,192,73884,1,0,0:0:0:0:
298,192,73884,1,2,0:0:0:0:
469,192,73884,1,0,0:0:0:0:
128,192,74064,1,2,0:0:0:0:
213,192,74064,1,0,0:0:0:0:
384,192,74245,1,0,0:0:0:0:
298,192,74426,1,2,0:0:0:0:
469,192,74426,1,8,0:0:0:0:
213,192,74607,1,0,0:0:0:0:
298,192,74787,1,2,0:0:0:0:
384,192,74787,1,0,0:0:0:0:
213,192,74968,1,0,0:0:0:0:
384,192,75149,1,2,0:0:0:0:
469,192,75149,1,8,0:0:0:0:
128,192,75329,1,0,0:0:0:0:
42,192,75510,1,0,0:0:0:0:
298,192,75510,1,0,0:0:0:0:
384,192,75510,1,2,0:0:0:0:
42,192,75872,1,0,0:0:0:0:
213,192,75872,1,8,0:0:0:0:
298,192,75872,1,2,0:0:0:0:
42,192,76233,1,0,0:0:0:0:
298,192,76233,1,0,0:0:0:0:
469,192,76233,1,2,0:0:0:0:
42,192,76595,1,0,0:0:0:0:
213,192,76595,1,8,0:0:0:0:
384,192,76595,1,0,0:0:0:0:
42,192,76775,1,2,0:0:0:0:
298,192,76775,128,4,78040:0:0:0:0:
128,192,77137,1,0,0:0:0:0:
213,192,77498,1,0,0:0:0:0:
384,192,77679,1,2,0:0:0:0:
469,192,78040,1,2,0:0:0:0:
42,192,78402,1,4,0:0:0:0:
128,192,78402,1,2,0:0:0:0:
384,192,78402,128,0,78763:0:0:0:0:
128,192,78763,1,2,0:0:0:0:
213,192,78763,128,0,79125:0:0:0:0:
128,192,79125,1,2,0:0:0:0:
298,192,79125,128,0,79486:0:0:0:0:
128,192,79486,1,2,0:0:0:0:
469,192,79486,128,0,79848:0:0:0:0:
128,192,79848,1,2,0:0:0:0:
384,192,79848,128,0,80209:0:0:0:0:
128,192,80209,1,2,0:0:0:0:
298,192,80209,128,0,80570:0:0:0:0:
128,192,80570,1,2,0:0:0:0:
213,192,80570,128,0,80932:0:0:0:0:
128,192,80932,1,2,0:0:0:0:
469,192,80932,128,0,81293:0:0:0:0:
128,192,81293,1,2,0:0:0:0:
384,192,81293,128,0,81655:0:0:0:0:
128,192,81655,1,2,0:0:0:0:
298,192,81655,128,0,82016:0:0:0:0:
128,192,82016,1,2,0:0:0:0:
213,192,82016,128,0,82378:0:0:0:0:
128,192,82378,1,2,0:0:0:0:
298,192,82378,128,0,82739:0:0:0:0:
128,192,82739,1,2,0:0:0:0:
128,192,83101,1,2,0:0:0:0:
128,192,83462,1,2,0:0:0:0:
128,192,83823,1,2,0:0:0:0:
42,192,84185,1,4,0:0:0:0:
469,192,84185,1,2,0:0:0:0:
298,192,84185,128,0,84546:0:0:0:0:
128,192,84546,1,0,0:0:0:0:
384,192,84546,1,8,0:0:0:0:
469,192,84546,1,2,0:0:0:0:
469,192,84908,1,2,0:0:0:0:
213,192,84908,128,0,85269:0:0:0:0:
128,192,85269,1,0,0:0:0:0:
384,192,85269,1,8,0:0:0:0:
469,192,85269,1,2,0:0:0:0:
469,192,85631,1,2,0:0:0:0:
298,192,85631,128,0,85992:0:0:0:0:
213,192,85992,1,0,0:0:0:0:
384,192,85992,1,8,0:0:0:0:
469,192,85992,1,2,0:0:0:0:
469,192,86354,1,2,0:0:0:0:
128,192,86354,128,0,86715:0:0:0:0:
213,192,86715,1,0,0:0:0:0:
384,192,86715,1,8,0:0:0:0:
469,192,86715,1,2,0:0:0:0:
469,192,87076,1,2,0:0:0:0:
298,192,87076,128,0,87438:0:0:0:0:
128,192,87438,1,0,0:0:0:0:
213,192,87438,1,8,0:0:0:0:
469,192,87438,1,2,0:0:0:0:
469,192,87799,1,2,0:0:0:0:
128,192,87799,128,0,88161:0:0:0:0:
298,192,88161,1,0,0:0:0:0:
384,192,88161,1,8,0:0:0:0:
469,192,88161,1,2,0:0:0:0:
42,192,88522,1,2,0:0:0:0:
213,192,88522,1,0,0:0:0:0:
298,192,88613,1,0,0:0:0:0:
384,192,88703,1,0,0:0:0:0:
42,192,88793,1,2,0:0:0:0:
128,192,88793,1,0,0:0:0:0:
298,192,88884,1,0,0:0:0:0:
469,192,88974,1,0,0:0:0:0:
42,192,89064,1,2,0:0:0:0:
298,192,89064,1,0,0:0:0:0:
