osu file format v14

[General]
AudioFilename: audio.ogg
AudioLeadIn: 0
PreviewTime: 55059
Countdown: 0
SampleSet: Soft
StackLeniency: 0.7
Mode: 0
LetterboxInBreaks: 0
WidescreenStoryboard: 1

[Editor]
DistanceSpacing: 0.3
BeatDivisor: 4
GridSize: 32
TimelineZoom: 2.2

[Metadata]
Title:Idol (TV Size)
TitleUnicode:アイドル (TV Size)
Artist:YOASOBI
ArtistUnicode:YOASOBI
Creator:Nachmark
Version:Kyutei's Redemption
Source:【推しの子】
Tags:Asukow Midorijeon kxlman Kyutei Shingyouji Yuni Anya Melfissa Pepekcz jpop j-pop pop anime japanese opening op Oshi no ko Her Fans Their Idol's Children 【Oshi No Ko】 星野 愛久愛海 瑠美衣 Hoshino Akuamarin Aquamarine Aqua アクア Ruby Rubii Ai アイ Aidoru my star 幾田りら ikuta lilas ikura ayase
BeatmapID:4120341
BeatmapSetID:1983927

[Difficulty]
HPDrainRate:5.2
CircleSize:4
OverallDifficulty:8.8
ApproachRate:9.2
SliderMultiplier:1.8
SliderTickRate:1

[Events]
//Background and Video events
0,0,"IMG_20230428_191929.jpg",0,0
Video,-35,"video.mp4"
//Break Periods
//Storyboard Layer 0 (Background)
//Storyboard Layer 1 (Fail)
//Storyboard Layer 2 (Pass)
//Storyboard Layer 3 (Foreground)
//Storyboard Layer 4 (Overlay)
//Storyboard Sound Samples

[TimingPoints]
572,361.44578313253,4,2,1,75,1,0
572,-71.4285714285714,4,2,1,75,0,0
843,-71.4285714285714,4,2,1,5,0,0
933,-71.4285714285714,4,2,1,75,0,0
3463,-55.5555555555556,4,2,1,75,0,0
3734,-100,4,2,1,5,0,0
3825,-71.4285714285714,4,2,1,75,0,0
5361,-100,4,2,1,5,0,0
5451,-71.4285714285714,4,2,1,75,0,0
5722,-100,4,2,1,5,0,0
5812,-55.5555555555556,4,2,1,75,0,0
5903,-100,4,2,1,5,0,0
5993,-55.5555555555556,4,2,1,75,0,0
6264,-100,4,2,1,5,0,0
6355,-71.4285714285714,4,2,1,75,0,0
6626,-100,4,2,1,5,0,0
6716,-71.4285714285714,4,2,1,75,0,0
9246,-55.5555555555556,4,2,1,75,0,0
9517,-100,4,2,1,5,0,0
9608,-71.4285714285714,4,2,1,75,0,0
11144,-100,4,2,1,5,0,0
11234,-71.4285714285714,4,2,1,75,0,0
11505,-100,4,2,1,5,0,0
11596,-55.5555555555556,4,2,1,75,0,0
11686,-100,4,2,1,5,0,0
11776,-55.5555555555556,4,2,1,75,0,0
12047,-100,4,2,1,5,0,0
12138,-125,4,2,1,75,0,0
14668,-500,4,2,1,75,0,0
14939,-100,4,2,1,5,0,0
15029,-62.5,4,2,1,75,0,0
17921,-62.5,4,2,1,70,0,0
18644,-100,4,2,1,70,0,0
23704,-50,4,2,1,70,0,0
24427,-100,4,2,1,70,0,0
29035,-100,4,2,1,5,0,0
29126,-500,4,2,1,70,0,0
29397,-100,4,2,1,5,0,0
29487,-71.4285714285714,4,2,1,70,0,0
30933,-55.5555555555556,4,2,1,70,0,0
32379,-83.3333333333333,4,2,1,70,0,0
32740,-62.5,4,2,1,70,0,0
33463,-50,4,2,1,70,0,0
35270,-71.4285714285714,4,2,1,70,0,0
36716,-55.5555555555556,4,2,1,70,0,0
38162,-71.4285714285714,4,2,1,70,0,0
38523,-55.5555555555556,4,2,1,70,0,0
39065,-50,4,2,1,70,0,0
39246,-45.4545454545455,4,2,1,70,0,0
39969,-35.7142857142857,4,2,1,70,0,0
41053,-125,4,2,1,65,0,0
42228,-125,4,2,1,5,0,0
42318,-125,4,2,1,65,0,0
43855,-125,4,2,1,5,0,0
43945,-125,4,2,1,65,0,0
45029,-55.5555555555556,4,2,1,65,0,0
45120,-55.5555555555556,4,2,1,5,0,0
45210,-55.5555555555556,4,2,1,65,0,0
45391,-125,4,2,1,65,0,0
46837,-100,4,2,1,65,0,0
49005,-250,4,2,1,65,0,0
49367,-100,4,2,1,65,0,0
49728,-83.3333333333333,4,2,1,65,0,0
49999,-83.3333333333333,4,2,1,5,0,0
50090,-83.3333333333333,4,2,1,65,0,0
50541,-83.3333333333333,4,2,1,5,0,0
50722,-83.3333333333333,4,2,1,65,0,0
50812,-83.3333333333333,4,2,1,5,0,0
50993,-83.3333333333333,4,2,1,65,0,0
51084,-83.3333333333333,4,2,1,5,0,0
51174,-83.3333333333333,4,2,1,65,0,0
52710,-83.3333333333333,4,2,1,5,0,0
52800,-83.3333333333333,4,2,1,65,0,0
53252,-83.3333333333333,4,2,1,5,0,0
53343,-83.3333333333333,4,2,1,65,0,0
53433,-83.3333333333333,4,2,1,5,0,0
53523,-83.3333333333333,4,2,1,65,0,0
53975,-83.3333333333333,4,2,1,5,0,0
54246,-83.3333333333333,4,2,1,65,0,0
54337,-83.3333333333333,4,2,1,5,0,0
54427,-83.3333333333333,4,2,1,65,0,0
55150,-83.3333333333333,4,2,1,50,0,0
55511,-62.5,4,2,1,80,0,1
55692,-62.5,4,2,2,80,0,1
55782,-62.5,4,2,1,80,0,1
56053,-62.5,4,2,2,80,0,1
56143,-62.5,4,2,1,80,0,1
56234,-125,4,2,1,80,0,1
56415,-125,4,2,2,80,0,1
56505,-125,4,2,1,80,0,1
56596,-71.4285714285714,4,2,1,80,0,1
56776,-50,4,2,2,80,0,1
56866,-50,4,2,1,80,0,1
57138,-50,4,2,2,80,0,1
57228,-50,4,2,1,80,0,1
57318,-62.5,4,2,1,80,0,1
57499,-62.5,4,2,2,80,0,1
57589,-62.5,4,2,1,80,0,1
57861,-62.5,4,2,2,80,0,1
57951,-62.5,4,2,1,80,0,1
58222,-62.5,4,2,2,80,0,1
58312,-62.5,4,2,1,80,0,1
58403,-41.6666666666667,4,2,1,80,0,1
58584,-41.6666666666667,4,2,2,80,0,1
58674,-41.6666666666667,4,2,1,80,0,1
58764,-55.5555555555556,4,2,1,80,0,1
58945,-55.5555555555556,4,2,2,80,0,1
59035,-55.5555555555556,4,2,1,80,0,1
59306,-55.5555555555556,4,2,2,80,0,1
59396,-55.5555555555556,4,2,1,80,0,1
59668,-55.5555555555556,4,2,2,80,0,1
59758,-55.5555555555556,4,2,1,80,0,1
60029,-55.5555555555556,4,2,2,80,0,1
60119,-55.5555555555556,4,2,1,80,0,1
61475,-55.5555555555556,4,2,2,80,0,1
61565,-55.5555555555556,4,2,1,80,0,1
61837,-55.5555555555556,4,2,2,80,0,1
61927,-55.5555555555556,4,2,1,80,0,1
62017,-83.3333333333333,4,2,1,80,0,1
62198,-83.3333333333333,4,2,2,80,0,1
62288,-83.3333333333333,4,2,1,80,0,1
62379,-71.4285714285714,4,2,1,80,0,1
62559,-50,4,2,2,80,0,1
62649,-50,4,2,1,80,0,1
62921,-50,4,2,2,80,0,1
63011,-50,4,2,1,80,0,1
63102,-62.5,4,2,1,80,0,1
63282,-62.5,4,2,2,80,0,1
63372,-62.5,4,2,1,80,0,1
63644,-62.5,4,2,2,80,0,1
63734,-62.5,4,2,1,80,0,1
64005,-62.5,4,2,2,80,0,1
64095,-62.5,4,2,1,80,0,1
64186,-55.5555555555556,4,2,1,80,0,1
64367,-55.5555555555556,4,2,2,80,0,1
64457,-55.5555555555556,4,2,1,80,0,1
64728,-55.5555555555556,4,2,2,80,0,1
64818,-55.5555555555556,4,2,1,80,0,1
64909,-62.5,4,2,1,80,0,1
65090,-71.4285714285714,4,2,2,80,0,1
65180,-71.4285714285714,4,2,1,80,0,1
65451,-71.4285714285714,4,2,2,80,0,1
65541,-71.4285714285714,4,2,1,80,0,1
65812,-71.4285714285714,4,2,2,80,0,1
65902,-71.4285714285714,4,2,1,80,0,1
66174,-71.4285714285714,4,2,2,80,0,1
66264,-71.4285714285714,4,2,1,80,0,1
67078,-71.4285714285714,4,2,1,75,0,0
67439,-62.5,4,2,1,75,0,0
67800,-83.3333333333333,4,2,1,75,0,0
68162,-62.5,4,2,1,75,0,0
70331,-62.5,4,2,1,75,0,0
70692,-83.3333333333333,4,2,1,75,0,0
71053,-62.5,4,2,1,75,0,0
73222,-62.5,4,2,1,75,0,0
73584,-71.4285714285714,4,2,1,75,0,0
73945,-55.5555555555556,4,2,1,75,0,0
75843,-55.5555555555556,4,2,1,5,0,0
75933,-55.5555555555556,4,2,1,75,0,0
76204,-55.5555555555556,4,2,1,5,0,0
76294,-55.5555555555556,4,2,1,75,0,0
77017,-71.4285714285714,4,2,1,75,0,0
77288,-71.4285714285714,4,2,1,5,0,0
77379,-83.3333333333333,4,2,1,75,0,0
77921,-62.5,4,2,1,75,0,0
78192,-62.5,4,2,1,5,0,0
78282,-62.5,4,2,1,75,0,0
78644,-83.3333333333333,4,2,1,70,0,0
78915,-83.3333333333333,4,2,1,5,0,0
79005,-83.3333333333333,4,2,1,70,0,0
80361,-83.3333333333333,4,2,1,5,0,0
80451,-83.3333333333333,4,2,1,70,0,0
81806,-83.3333333333333,4,2,1,5,0,0
81896,-83.3333333333333,4,2,1,70,0,0
83343,-100,4,2,1,70,0,0
84337,-100,4,2,1,5,0,0
84427,-62.5,4,2,1,70,0,0
84698,-100,4,2,1,5,0,0
84788,-62.5,4,2,1,70,0,0
85782,-100,4,2,1,5,0,0
85873,-62.5,4,2,1,70,0,0
86867,-100,4,2,1,5,0,0
86957,-62.5,4,2,1,70,0,0
87228,-100,4,2,1,5,0,0
87318,-62.5,4,2,1,70,0,0
87590,-100,4,2,1,5,0,0
87680,-62.5,4,2,1,70,0,0
88403,-33.3333333333333,4,2,1,70,0,0
88674,-100,4,2,1,5,0,0
88764,-333.333333333333,4,2,1,70,0,0

[Colours]
Combo1 : 17,254,176
Combo2 : 173,255,95
Combo3 : 255,88,100
Combo4 : 255,94,55

[HitObjects]
36,367,572,6,1,B|62:376|88:354|88:354|118:325|158:345|158:345|186:362|221:338,1,188.999994232178,6|0,1:3|0:0,0:0:0:0:
235,268,933,2,1,L|244:200,5,41.9999987182618,2|0|0|2|0|0,2:2|0:0|0:0|2:2|0:0|0:0,0:0:0:0:
301,372,1294,5,10,2:3:0:0:
390,345,1475,1,0,0:0:0:0:
409,218,1656,5,2,2:2:0:0:
481,197,1837,1,2,2:2:0:0:
500,244,1927,1,0,0:0:0:0:
459,279,2017,1,2,2:2:0:0:
409,218,2198,1,0,0:0:0:0:
485,33,2379,6,1,P|450:101|284:83,1,251.999992309571,6|10,1:3|2:3,0:0:0:0:
45,199,2921,2,1,B|32:158|32:158|103:126|184:170|184:263,1,251.999992309571,6|0,1:3|0:0,0:0:0:0:
351,320,3463,6,1,P|422:342|351:318,1,242.999992584229,6|0,1:3|0:0,0:0:0:0:
283,285,3825,2,1,L|272:337,5,41.9999987182618,2|0|0|2|0|0,2:2|0:0|0:0|2:2|0:0|0:0,0:0:0:0:
336,207,4186,5,10,2:3:0:0:
450,171,4367,1,0,0:0:0:0:
243,33,4547,5,2,2:2:0:0:
315,12,4728,1,2,2:2:0:0:
334,59,4818,1,0,0:0:0:0:
293,94,4908,1,2,2:2:0:0:
243,33,5090,1,0,0:0:0:0:
60,181,5270,6,1,B|74:204|74:204|60:149,1,62.9999980773926,6|0,1:3|0:0,0:0:0:0:
101,96,5451,2,1,P|140:120|129:262,1,188.999994232178,2|0,2:2|0:0,0:0:0:0:
469,266,5812,6,1,B|452:293|452:293|469:227,1,80.9999975280763,6|0,1:3|0:0,0:0:0:0:
413,160,5993,2,1,P|366:188|379:359,1,242.999992584229,2|0,2:2|0:0,0:0:0:0:
252,352,6355,6,1,B|132:321|195:384|57:353,1,188.999994232178,6|0,1:3|0:0,0:0:0:0:
13,304,6716,2,1,L|21:263,5,41.9999987182618,2|0|0|0|0|0,2:2|0:0|0:0|0:0|0:0|0:0,0:0:0:0:
142,249,7078,5,10,2:3:0:0:
255,209,7258,1,2,2:2:0:0:
9,27,7439,5,2,2:2:0:0:
81,6,7620,1,0,0:0:0:0:
100,53,7710,1,0,0:0:0:0:
59,88,7800,1,2,2:2:0:0:
9,27,7982,1,2,2:2:0:0:
3,164,8162,6,1,P|79:177|187:59,1,251.999992309571,6|10,1:3|2:3,0:0:0:0:
441,213,8704,2,1,B|488:230|489:313|489:313|416:268|362:344,1,251.999992309571,6|0,1:3|0:0,0:0:0:0:
169,325,9246,6,1,P|92:341|168:322,1,242.999992584229,6|0,1:3|0:0,0:0:0:0:
239,290,9608,2,1,L|250:342,5,41.9999987182618,2|0|0|0|0|0,2:2|0:0|0:0|0:0|0:0|0:0,0:0:0:0:
226,191,9969,5,8,2:3:0:0:
357,253,10150,1,2,2:2:0:0:
482,24,10331,5,2,2:2:0:0:
410,3,10512,1,2,2:2:0:0:
391,50,10602,1,0,0:0:0:0:
432,85,10692,1,2,2:2:0:0:
482,24,10874,1,2,2:2:0:0:
210,85,11053,6,1,B|228:97|228:97|172:86,1,62.9999980773926,6|0,1:3|0:0,0:0:0:0:
135,5,11234,2,1,P|80:70|107:163,1,188.999994232178,0|0,0:0|0:0,0:0:0:0:
288,255,11596,6,1,B|264:270|264:270|336:256,1,80.9999975280763,6|0,1:3|0:0,0:0:0:0:
384,152,11777,2,1,P|454:235|419:354,1,242.999992584229,2|0,2:2|0:0,0:0:0:0:
208,377,12138,6,1,P|136:357|62:352,1,144,6|2,1:3|2:2,0:0:0:0:
304,7,12861,2,1,P|376:27|450:32,1,144,6|2,1:3|2:2,0:0:0:0:
494,142,13403,5,6,1:2:0:0:
18,242,13764,1,2,1:2:0:0:
236,287,14126,5,2,1:2:0:0:
276,97,14306,1,2,1:2:0:0:
253,178,14668,6,1,L|257:206,1,27,8|0,0:0|0:0,0:0:0:0:
407,256,15029,6,1,B|483:262|499:349|499:349|454:327|420:371,2,216,6|0|0,1:2|1:1|1:1,0:0:0:0:
87,123,15752,5,2,2:2:0:0:
161,95,15933,2,1,B|237:160|186:265|186:265|156:206|85:227,1,288,0|0,1:1|1:1,0:0:0:0:
4,297,16475,6,1,P|115:319|196:389,2,216,2|0|0,1:2|1:1|1:1,0:0:0:0:
243,45,17198,5,2,2:2:0:0:
271,116,17379,2,1,P|429:109|504:-2,1,288,0|0,1:1|1:1,0:0:0:0:
511,251,17921,5,6,1:1:0:0:
409,218,18102,1,2,2:2:0:0:
329,377,18282,5,10,1:2:0:0:
112,305,18463,1,2,2:2:0:0:
36,382,18644,6,1,P|3:332|52:224,1,180,2|8,1:2|1:2,0:0:0:0:
165,122,19186,1,2,2:2:0:0:
216,63,19367,1,2,1:2:0:0:
172,4,19547,1,2,2:2:0:0:
7,91,19728,6,1,P|25:118|88:125,1,90,10|2,1:2|2:2,0:0:0:0:
183,255,20090,2,1,P|226:226|350:224,1,180,2|8,1:2|1:2,0:0:0:0:
437,187,20632,5,2,2:2:0:0:
470,213,20812,1,2,1:2:0:0:
511,200,20993,1,2,2:2:0:0:
488,120,21174,5,10,1:2:0:0:
488,120,21355,1,0,0:0:0:0:
376,369,21535,5,2,1:2:0:0:
307,303,21716,1,2,2:2:0:0:
219,331,21897,1,10,1:2:0:0:
116,384,22078,5,0,0:0:0:0:
116,384,22168,1,0,0:0:0:0:
116,384,22258,2,1,P|99:341|117:293,1,90,2|2,1:2|2:2,0:0:0:0:
233,139,22620,1,10,1:2:0:0:
276,73,22800,1,2,2:2:0:0:
226,14,22981,2,1,P|179:23|125:26,1,90,2|0,1:2|0:0,0:0:0:0:
19,243,23343,2,1,P|43:238|71:236,1,45,8|0,1:2|0:0,0:0:0:0:
257,246,23523,5,2,2:2:0:0:
257,246,23613,1,0,0:0:0:0:
257,246,23704,2,1,B|252:279|252:279|264:300|264:300|257:338,1,90,6|0,1:3|0:0,0:0:0:0:
316,383,23885,1,2,2:2:0:0:
372,166,24065,5,10,1:2:0:0:
421,3,24246,1,2,2:2:0:0:
511,200,24427,6,1,P|464:262|352:239,1,180,2|8,1:2|1:2,0:0:0:0:
184,91,24969,1,2,2:2:0:0:
111,63,25150,1,2,1:2:0:0:
57,119,25331,1,2,2:2:0:0:
6,210,25511,6,1,P|23:248|75:250,1,90,10|2,1:2|2:2,0:0:0:0:
158,347,25873,2,1,P|233:341|269:253,1,180,2|8,1:2|1:2,0:0:0:0:
453,348,26415,5,2,2:2:0:0:
408,361,26596,1,2,1:2:0:0:
372,329,26776,1,2,2:2:0:0:
429,272,26957,5,10,1:2:0:0:
429,272,27138,1,0,0:0:0:0:
184,91,27318,5,2,1:2:0:0:
283,157,27499,1,2,2:2:0:0:
357,63,27680,1,10,1:2:0:0:
489,11,27861,5,0,0:0:0:0:
489,11,27951,1,0,0:0:0:0:
489,11,28041,1,2,1:2:0:0:
463,107,28222,1,2,2:2:0:0:
360,203,28403,5,10,1:2:0:0:
412,361,28584,1,2,2:2:0:0:
311,370,28764,6,1,B|225:350|266:385|173:366,1,135,2|0,1:2|0:0,0:0:0:0:
132,305,29126,2,1,L|137:273,1,27,10|0,1:2|0:0,0:0:0:0:
63,65,29487,6,1,B|22:77|15:125|15:125|37:135|47:162,1,125.999996154785,6|0,1:2|0:0,0:0:0:0:
146,82,29758,6,1,B|155:40|117:10|117:10|96:27|69:19,1,125.999996154785,2|0,2:2|0:0,0:0:0:0:
89,146,30029,6,1,B|120:174|165:157|165:157|160:129|181:110,1,125.999996154785,2|0,2:2|1:1,0:0:0:0:
369,199,30391,5,2,2:2:0:0:
360,194,30571,1,10,1:2:0:0:
360,203,30752,1,2,2:2:0:0:
428,148,30933,6,1,B|478:163|487:222|487:222|460:233|448:267,1,161.999995056153,2|0,1:2|0:0,0:0:0:0:
292,148,31204,6,1,B|281:97|327:60|327:60|354:81|386:71,1,161.999995056153,2|0,2:2|0:0,0:0:0:0:
353,274,31475,6,1,B|316:308|260:287|260:287|265:254|240:230,1,161.999995056153,2|0,2:2|1:1,0:0:0:0:
228,379,31837,5,2,2:2:0:0:
175,331,32017,1,10,1:2:0:0:
104,352,32198,1,2,2:2:0:0:
0,223,32379,6,1,P|18:259|84:262,1,107.999996704102,2|2,1:2|2:2,0:0:0:0:
175,125,32650,1,0,0:0:0:0:
171,116,32740,2,1,P|202:72|294:72,1,144,10|0,1:2|0:0,0:0:0:0:
351,138,33011,5,0,0:0:0:0:
357,148,33102,2,1,B|400:149|423:168|414:178|441:201|506:200,1,144,2|2,1:2|2:2,0:0:0:0:
80,264,33463,2,1,B|134:262|163:238|152:225|186:196|246:196,1,180,10|0,1:2|0:0,0:0:0:0:
80,14,33825,5,2,1:2:0:0:
15,85,34005,1,2,2:2:0:0:
83,159,34186,1,10,1:2:0:0:
1,370,34367,5,2,2:2:0:0:
260,289,34547,1,2,1:2:0:0:
474,358,34728,5,10,2:2:0:0:
474,358,34818,1,8,2:2:0:0:
474,358,34909,2,1,B|455:351|455:351|444:282,1,90,10|0,1:2|0:0,0:0:0:0:
361,375,35090,2,1,B|376:363|376:363|367:293,1,90,10|0,1:2|0:0,0:0:0:0:
380,17,35270,6,1,B|439:69|403:63|462:113,1,125.999996154785,6|0,1:2|0:0,0:0:0:0:
307,138,35541,6,1,B|322:60|335:94|349:17,1,125.999996154785,2|0,2:2|0:0,0:0:0:0:
454,138,35812,6,1,B|378:163|402:134|328:161,1,125.999996154785,2|0,2:2|1:1,0:0:0:0:
142,237,36174,5,2,2:2:0:0:
151,232,36354,1,10,1:2:0:0:
151,241,36535,1,2,2:2:0:0:
128,120,36716,6,1,B|52:185|98:178|23:241,1,161.999995056153,2|0,1:2|0:0,0:0:0:0:
260,289,36987,6,1,B|240:190|224:234|206:137,1,161.999995056153,2|0,2:2|0:0,0:0:0:0:
44,314,37258,6,1,B|138:346|108:310|201:343,1,161.999995056153,2|0,2:2|1:1,0:0:0:0:
414,384,37620,5,2,2:2:0:0:
448,342,37710,1,2,2:2:0:0:
416,296,37800,1,10,1:2:0:0:
349,338,37981,1,2,2:2:0:0:
492,254,38162,6,1,P|455:225|368:213,1,125.999996154785,2|2,1:2|2:2,0:0:0:0:
244,65,38523,2,1,P|199:99|96:113,1,161.999995056153,10|0,1:2|0:0,0:0:0:0:
18,148,38794,5,2,2:2:0:0:
15,156,38885,2,1,P|44:190|96:198,1,80.9999975280763,2|0,1:2|0:0,0:0:0:0:
173,276,39065,2,1,P|205:249|273:247,1,90,2|0,2:2|0:0,0:0:0:0:
319,85,39246,2,1,P|363:135|448:127,1,99.0000030212403,10|0,1:2|0:0,0:0:0:0:
471,49,39427,5,2,2:2:0:0:
471,49,39517,1,0,0:0:0:0:
471,49,39608,2,1,B|456:177|509:90|482:274,1,198.000006042481,0|0,1:1|0:0,0:0:0:0:
418,289,39879,5,0,0:0:0:0:
420,299,39969,2,1,P|374:299|332:236,1,125.999996154785,10|0,1:2|0:0,0:0:0:0:
190,101,40150,1,10,2:2:0:0:
200,76,40240,1,8,2:2:0:0:
187,58,40331,2,1,P|127:60|97:122,1,125.999996154785,10|0,1:2|0:0,0:0:0:0:
0,298,40511,5,0,3:3:0:0:
46,357,40692,1,2,3:2:0:0:
117,335,40873,1,2,2:2:0:0:
199,384,41053,6,1,P|256:370|348:357,1,144,6|2,1:2|2:2,0:0:0:0:
160,234,41596,1,2,1:2:0:0:
160,234,41776,2,1,P|194:244|236:248,1,72,0|2,1:1|2:2,0:0:0:0:
457,20,42138,6,1,B|463:39|463:39|449:55,1,36,8|0,2:2|0:0,0:0:0:0:
481,156,42318,6,1,P|432:136|373:131,1,108,2|0,1:2|0:0,0:0:0:0:
334,65,42680,2,1,P|300:75|260:76,1,72,2|2,1:2|2:2,0:0:0:0:
70,172,43041,1,2,1:2:0:0:
70,172,43222,2,1,P|57:133|72:100,1,72,2|0,1:2|0:0,0:0:0:0:
160,20,43584,6,1,B|155:61|155:61|168:80|168:80|162:127,1,108,10|0,2:2|0:0,0:0:0:0:
207,183,43945,1,2,1:2:0:0:
374,274,44306,5,2,2:2:0:0:
418,289,44487,1,2,1:2:0:0:
449,255,44668,1,2,1:2:0:0:
287,360,45029,6,1,B|318:372|318:372|240:355,1,80.9999975280763,10|0,2:2|0:0,0:0:0:0:
199,384,45210,1,2,2:2:0:0:
37,314,45391,6,1,P|46:348|53:384,1,72,2|2,1:2|2:2,0:0:0:0:
298,199,45752,2,1,P|288:233|281:269,1,72,2|2,1:2|2:2,0:0:0:0:
42,100,46114,5,2,1:2:0:0:
54,79,46204,1,0,1:1:0:0:
75,68,46294,1,0,1:1:0:0:
99,70,46385,1,0,1:1:0:0:
160,20,46475,2,1,P|179:49|227:49,1,72,10|2,2:2|2:2,0:0:0:0:
297,112,46837,6,1,P|351:117|427:27,1,180,6|10,1:2|1:2,0:0:0:0:
504,197,47379,2,1,P|454:189|406:176,1,90,2|0,2:2|1:1,0:0:0:0:
247,274,47740,2,1,P|297:282|345:295,1,90,2|8,2:2|1:2,0:0:0:0:
448,381,48102,6,1,P|465:337|441:285,1,90,2|0,2:2|1:1,0:0:0:0:
297,112,48463,1,2,2:2:0:0:
236,161,48644,1,10,1:2:0:0:
160,136,48825,1,2,2:2:0:0:
66,196,49005,6,1,P|46:193|21:189,1,36,2|0,1:2|0:0,0:0:0:0:
255,239,49367,6,1,P|210:246|166:254,1,90,10|2,1:2|2:2,0:0:0:0:
424,166,49728,6,1,P|461:108|421:25,1,161.999995056153,6|0,1:2|0:0,0:0:0:0:
355,46,50090,1,2,1:2:0:0:
415,384,50451,6,1,L|478:372,1,53.9999983520508,2|0,1:2|0:0,0:0:0:0:
352,252,50722,6,1,L|330:312,1,53.9999983520508,2|0,2:2|1:2,0:0:0:0:
512,266,50993,6,1,L|470:217,1,53.9999983520508,2|0,2:2|0:0,0:0:0:0:
425,302,51174,5,0,1:2:0:0:
220,371,51355,5,2,2:2:0:0:
116,338,51535,1,2,1:2:0:0:
13,252,51716,5,2,2:2:0:0:
87,180,51897,1,2,1:2:0:0:
180,220,52078,1,2,2:2:0:0:
275,40,52258,5,2,1:2:0:0:
486,103,52439,1,2,2:2:0:0:
389,41,52620,6,1,L|379:98,1,53.9999983520508,10|0,1:2|0:0,0:0:0:0:
228,296,52800,5,8,2:1:0:0:
228,296,52981,1,8,2:1:0:0:
106,284,53162,6,1,L|116:341,1,53.9999983520508,10|0,1:2|0:0,0:0:0:0:
335,246,53343,2,1,L|345:303,1,53.9999983520508,10|0,1:2|0:0,0:0:0:0:
453,371,53523,5,8,2:2:0:0:
488,346,53614,1,8,2:2:0:0:
474,296,53704,1,2,3:2:0:0:
509,212,53885,6,1,P|479:207|446:201,1,53.9999983520508,10|0,1:2|0:0,0:0:0:0:
244,14,54246,2,1,P|217:18|190:23,1,53.9999983520508,10|0,1:2|0:0,0:0:0:0:
0,73,54427,5,2,2:2:0:0:
78,210,54608,1,10,1:2:0:0:
232,140,54788,1,10,1:2:0:0:
386,331,55150,5,2,2:2:0:0:
386,331,55331,1,2,2:2:0:0:
452,371,55511,2,1,P|507:295|499:172,1,216,6|0,1:1|0:0,0:0:0:0:
306,339,55873,2,1,P|294:245|361:142,1,216,10|0,1:2|0:0,0:0:0:0:
433,140,56234,2,1,L|442:101,1,36,2|0,1:2|0:0,0:0:0:0:
295,1,56415,5,2,2:2:0:0:
327,5,56505,1,0,0:0:0:0:
337,37,56596,2,1,P|320:63|283:70,1,62.9999980773926,10|0,1:2|0:0,0:0:0:0:
232,140,56776,2,1,P|183:90|59:95,1,180,2|0,2:2|1:1,0:0:0:0:
0,131,57047,5,0,0:0:0:0:
20,177,57138,1,2,2:2:0:0:
68,171,57228,1,0,0:0:0:0:
134,235,57318,6,1,P|171:230|211:218,1,72,10|0,1:2|0:0,0:0:0:0:
106,321,57499,2,1,P|68:325|28:337,1,72,2|0,2:2|0:0,0:0:0:0:
246,384,57680,2,1,P|288:342|281:259,1,144,2|2,1:2|0:3,0:0:0:0:
393,49,57951,5,0,0:0:0:0:
392,39,58041,2,1,P|424:45|451:78,1,72,10|0,1:2|0:0,0:0:0:0:
475,77,58222,2,1,P|490:105|483:147,1,72,2|0,2:2|0:0,0:0:0:0:
506,230,58403,6,1,P|392:219|289:37,1,323.999990112305,2|0,1:2|0:0,0:0:0:0:
182,6,58764,6,1,P|125:16|-10:30,1,161.999995056153,10|2,1:2|0:3,0:0:0:0:
74,130,59035,1,0,0:0:0:0:
82,140,59126,2,1,P|111:134|179:127,1,80.9999975280763,2|0,1:2|0:0,0:0:0:0:
253,326,59306,5,2,0:3:0:0:
273,287,59397,1,0,0:0:0:0:
249,255,59487,2,1,B|198:261|225:277|159:284,1,80.9999975280763,10|0,1:2|0:0,0:0:0:0:
129,344,59668,2,1,P|61:342|17:243,1,161.999995056153,2|0,2:2|1:1,0:0:0:0:
322,120,60029,5,2,2:2:0:0:
304,156,60120,1,0,0:0:0:0:
329,196,60210,2,1,P|365:203|403:171,1,80.9999975280763,10|0,1:2|0:0,0:0:0:0:
426,176,60391,2,1,P|449:145|438:91,1,80.9999975280763,10|8,2:2|2:2,0:0:0:0:
329,7,60571,6,1,P|296:18|247:18,1,80.9999975280763,6|0,1:2|0:0,0:0:0:0:
82,140,60752,1,8,2:2:0:0:
58,183,60843,1,8,2:2:0:0:
90,215,60933,2,1,P|123:204|172:204,1,80.9999975280763,14|0,1:2|0:0,0:0:0:0:
421,269,61114,5,8,2:2:0:0:
443,314,61204,1,8,2:2:0:0:
419,353,61294,2,1,P|290:348|251:243,1,242.999992584229,6|0,1:2|0:0,0:0:0:0:
468,80,61656,2,1,B|512:142|460:192|460:192|406:168,1,161.999995056153,10|2,1:2|0:3,0:0:0:0:
394,111,61927,1,0,0:0:0:0:
384,107,62017,2,1,L|371:33,1,53.9999983520508,2|0,1:2|0:0,0:0:0:0:
262,110,62198,5,2,0:3:0:0:
274,136,62288,1,0,0:0:0:0:
262,160,62379,2,1,P|227:186|191:178,1,62.9999980773926,10|0,1:2|0:0,0:0:0:0:
205,64,62559,2,1,P|157:2|59:22,1,180,2|0,2:2|1:1,0:0:0:0:
0,66,62831,5,0,0:0:0:0:
24,105,62921,1,2,2:2:0:0:
69,98,63011,1,0,0:0:0:0:
136,156,63102,6,1,P|122:191|114:236,1,72,10|0,1:2|0:0,0:0:0:0:
18,279,63282,2,1,P|32:314|40:359,1,72,2|0,2:2|0:0,0:0:0:0:
118,373,63463,2,1,P|193:373|218:305,1,144,2|2,1:2|0:3,0:0:0:0:
496,192,63734,5,0,0:0:0:0:
483,206,63825,2,1,P|449:204|423:165,1,72,10|0,1:2|0:0,0:0:0:0:
401,177,64005,2,1,P|380:149|393:104,1,72,2|0,2:2|0:0,0:0:0:0:
330,8,64186,6,1,P|227:39|82:45,1,242.999992584229,2|0,1:2|0:0,0:0:0:0:
171,249,64547,2,1,P|239:228|336:224,1,161.999995056153,10|2,1:2|0:3,0:0:0:0:
467,346,64818,5,0,0:0:0:0:
472,356,64909,2,1,B|438:374|410:344|410:344|373:311|333:333|333:333|297:349|264:328,1,216,2|0,1:2|0:0,0:0:0:0:
153,170,65270,6,1,P|120:175|98:212,1,62.9999980773926,10|0,1:2|0:0,0:0:0:0:
28,214,65451,2,1,P|18:278|85:317,1,125.999996154785,2|0,2:2|1:1,0:0:0:0:
209,366,65812,5,2,2:2:0:0:
170,384,65903,1,0,0:0:0:0:
133,357,65993,2,1,P|143:321|150:278,1,62.9999980773926,8|0,1:2|0:0,0:0:0:0:
327,197,66174,2,1,P|317:161|310:118,1,62.9999980773926,2|0,2:2|0:0,0:0:0:0:
256,0,66355,5,10,1:2:0:0:
138,88,66535,5,8,2:2:0:0:
95,64,66626,1,8,2:2:0:0:
110,16,66716,1,10,1:2:0:0:
438,138,66897,5,10,2:2:0:0:
464,209,66987,1,8,2:2:0:0:
398,249,67078,1,6,1:2:0:0:
53,325,67439,6,1,B|4:342|4:342|104:321,1,144,8|2,1:2|2:2,0:0:0:0:
194,382,67800,2,1,B|219:380|219:380|233:320|233:320|209:306,1,107.999996704102,2|2,1:2|2:2,0:0:0:0:
10,201,68071,1,0,0:0:0:0:
0,216,68162,2,1,B|10:237|10:237|135:210,1,144,10|2,1:2|2:2,0:0:0:0:
292,44,68523,2,1,B|255:111|255:111|114:85|114:85|104:6,1,288,2|8,1:2|1:2,0:0:0:0:
378,0,69065,5,2,2:2:0:0:
487,73,69246,1,2,1:2:0:0:
410,182,69427,1,2,2:2:0:0:
323,261,69608,5,10,1:2:0:0:
288,330,69788,1,2,2:2:0:0:
348,380,69969,1,2,1:2:0:0:
447,274,70331,6,1,B|502:298|502:298|396:273,1,144,10|0,1:2|0:0,0:0:0:0:
194,372,70692,2,1,B|167:368|167:368|157:313|157:313|188:290,1,107.999996704102,2|0,1:2|0:0,0:0:0:0:
52,213,70963,5,2,2:2:0:0:
42,226,71053,2,1,B|14:219|14:219|2:137|2:137|35:120,1,144,8|2,1:2|2:2,0:0:0:0:
57,15,71415,5,2,1:2:0:0:
131,0,71596,1,2,2:2:0:0:
177,62,71776,1,10,1:2:0:0:
189,188,71957,5,2,2:2:0:0:
325,257,72138,1,2,1:2:0:0:
412,143,72318,1,2,2:2:0:0:
487,208,72499,6,1,B|515:224|515:224|496:303|496:303|455:302,1,144,10|2,1:2|2:2,0:0:0:0:
419,243,72861,1,6,1:2:0:0:
419,243,73041,1,0,0:0:0:0:
52,334,73222,6,1,B|-1:353|-1:353|107:330,1,144,8|2,1:2|2:2,0:0:0:0:
223,364,73584,2,1,B|241:358|241:358|225:273|225:273|201:269,1,125.999996154785,2|2,1:2|2:2,0:0:0:0:
31,170,73855,1,0,0:0:0:0:
22,174,73945,2,1,B|29:207|29:207|94:221|94:221|143:115,1,161.999995056153,10|2,1:2|2:2,0:0:0:0:
292,4,74306,2,1,B|298:131|298:131|233:147|233:147|174:26,1,323.999990112305,2|8,1:2|1:2,0:0:0:0:
20,50,74849,5,2,2:2:0:0:
50,88,74939,1,2,2:2:0:0:
90,80,75029,1,2,1:2:0:0:
83,3,75210,1,2,2:2:0:0:
289,222,75391,5,10,1:2:0:0:
416,174,75571,1,2,2:2:0:0:
492,261,75752,6,1,B|469:254|469:254|454:309,1,80.9999975280763,10|0,1:1|0:0,0:0:0:0:
495,375,75933,1,2,2:2:0:0:
311,114,76114,6,1,B|288:121|288:121|271:65,1,80.9999975280763,10|0,1:1|0:0,0:0:0:0:
314,0,76295,1,2,2:2:0:0:
130,216,76475,5,10,1:1:0:0:
70,172,76656,1,0,0:0:0:0:
0,194,76837,1,10,2:2:0:0:
173,362,77017,6,1,P|228:381|312:278,1,188.999994232178,6|0,1:2|0:0,0:0:0:0:
386,272,77379,2,1,P|392:227|343:178,1,107.999996704102,2|8,2:2|1:2,0:0:0:0:
224,93,77740,1,10,2:2:0:0:
224,93,77831,1,8,2:2:0:0:
224,93,77921,2,1,P|118:103|64:13,1,215.999993408203,2|8,1:2|2:2,0:0:0:0:
256,0,78282,5,8,1:2:0:0:
34,265,78644,6,1,B|5:282|-1:314|-1:314|45:284|101:316,1,161.999995056153,6|0,1:1|0:0,0:0:0:0:
133,376,79005,2,1,P|201:381|246:258,2,215.999993408203,2|2|2,1:2|1:2|1:2,0:0:0:0:
335,185,80090,6,1,P|353:237|455:242,1,161.999995056153,2|0,1:2|0:0,0:0:0:0:
512,200,80451,2,1,B|487:53|473:153|437:0,2,215.999993408203,2|2|2,1:2|1:2|1:2,0:0:0:0:
282,86,81535,6,1,P|249:140|144:129,1,161.999995056153,2|0,1:2|0:0,0:0:0:0:
89,179,81897,2,1,P|14:113|46:10,2,215.999993408203,2|2|2,1:2|1:2|1:2,0:0:0:0:
215,315,82981,6,1,P|189:363|122:371,1,107.999996704102,0|0,1:1|0:0,0:0:0:0:
62,382,83252,1,0,0:0:0:0:
42,374,83343,2,1,P|177:225|459:152,1,495,0|0,1:1|0:0,0:0:0:0:
263,91,84427,6,1,P|163:100|78:6,1,216,6|0,1:2|0:0,0:0:0:0:
178,12,84788,5,10,1:2:0:0:
186,24,84879,1,0,0:0:0:0:
200,19,84969,1,0,0:0:0:0:
200,5,85059,1,0,0:0:0:0:
186,0,85150,1,2,1:2:0:0:
435,223,85511,6,1,B|516:287|454:372|454:372|388:354,1,216,10|0,1:2|0:0,0:0:0:0:
382,286,85873,1,2,1:2:0:0:
208,357,86053,5,0,0:0:0:0:
193,361,86144,1,0,0:0:0:0:
193,375,86234,1,10,1:2:0:0:
206,380,86324,1,0,0:0:0:0:
215,369,86415,1,0,0:0:0:0:
305,367,86596,6,1,P|240:282|139:289,1,216,2|0,1:2|0:0,0:0:0:0:
13,384,86957,2,1,B|39:253|52:337|91:171,1,215.999993408203,10|0,1:2|0:0,0:0:0:0:
35,12,87318,6,1,P|77:86|229:72,1,216,2|0,1:2|0:0,0:0:0:0:
149,17,87680,5,10,1:2:0:0:
141,5,87771,1,0,0:0:0:0:
127,10,87861,1,0,0:0:0:0:
127,24,87951,1,0,0:0:0:0:
141,29,88042,1,2,1:2:0:0:
362,125,88403,6,1,P|486:163|363:121,1,405.000015449525,10|0,1:2|0:0,0:0:0:0:
252,168,88764,6,1,L|259:209,2,40.4999987640381,2|2|2,1:2|1:2|1:2,0:0:0:0:
