osu file format v14

[General]
AudioFilename: audio.ogg
AudioLeadIn: 0
PreviewTime: 55059
Countdown: 0
SampleSet: Soft
StackLeniency: 0.5
Mode: 0
LetterboxInBreaks: 0
WidescreenStoryboard: 1

[Editor]
DistanceSpacing: 1.3
BeatDivisor: 4
GridSize: 32
TimelineZoom: 2.3

[Metadata]
Title:Idol (TV Size)
TitleUnicode:アイドル (TV Size)
Artist:YOASOBI
ArtistUnicode:YOASOBI
Creator:Nachmark
Version:AsuKo's Hard
Source:【推しの子】
Tags:Asukow Midorijeon kxlman Kyutei Shingyouji Yuni Anya Melfissa Pepekcz jpop j-pop pop anime japanese opening op Oshi no ko Her Fans Their Idol's Children 【Oshi No Ko】 星野 愛久愛海 瑠美衣 Hoshino Akuamarin Aquamarine Aqua アクア Ruby Rubii Ai アイ Aidoru my star 幾田りら ikuta lilas ikura ayase
BeatmapID:4120338
BeatmapSetID:1983927

[Difficulty]
HPDrainRate:4.5
CircleSize:3.8
OverallDifficulty:6.5
ApproachRate:8
SliderMultiplier:1.4
SliderTickRate:1

[Events]
//Background and Video events
Video,-35,"video.mp4"
0,0,"IMG_20230428_191929.jpg",0,0
//Break Periods
2,41253,46087
//Storyboard Layer 0 (Background)
//Storyboard Layer 1 (Fail)
//Storyboard Layer 2 (Pass)
//Storyboard Layer 3 (Foreground)
//Storyboard Layer 4 (Overlay)
//Storyboard Sound Samples

[TimingPoints]
572,361.44578313253,4,2,1,75,1,0
843,-100,4,2,1,5,0,0
933,-100,4,2,1,75,0,0
3734,-100,4,2,1,5,0,0
3825,-100,4,2,1,75,0,0
9517,-100,4,2,1,5,0,0
9608,-100,4,2,1,75,0,0
12138,-111.111111111111,4,2,1,75,0,0
17921,-125,4,2,1,70,0,0
29035,-125,4,2,1,5,0,0
29126,-125,4,2,1,70,0,0
29397,-125,4,2,1,5,0,0
29487,-125,4,2,1,70,0,0
41053,-125,4,2,1,65,0,0
46837,-111.111111111111,4,2,1,65,0,0
47108,-111.111111111111,4,2,1,5,0,0
47198,-111.111111111111,4,2,1,65,0,0
53343,-100,4,2,1,65,0,0
55150,-250,4,2,1,50,0,0
55421,-250,4,2,1,5,0,0
55511,-90.9090909090909,4,2,1,80,0,0
55692,-90.9090909090909,4,2,2,80,0,0
55782,-90.9090909090909,4,2,1,80,0,0
56053,-90.9090909090909,4,2,2,80,0,0
56143,-90.9090909090909,4,2,1,80,0,0
56415,-90.9090909090909,4,2,2,80,0,0
56505,-90.9090909090909,4,2,1,80,0,0
56776,-90.9090909090909,4,2,2,80,0,0
56866,-90.9090909090909,4,2,1,80,0,0
57138,-90.9090909090909,4,2,2,80,0,0
57228,-90.9090909090909,4,2,1,80,0,0
57499,-90.9090909090909,4,2,2,80,0,0
57589,-90.9090909090909,4,2,1,80,0,0
57861,-90.9090909090909,4,2,2,80,0,0
57951,-90.9090909090909,4,2,1,80,0,0
58222,-90.9090909090909,4,2,2,80,0,0
58312,-90.9090909090909,4,2,1,80,0,0
58584,-90.9090909090909,4,2,2,80,0,0
58674,-90.9090909090909,4,2,1,80,0,0
58945,-90.9090909090909,4,2,2,80,0,0
59035,-90.9090909090909,4,2,1,80,0,0
59306,-90.9090909090909,4,2,2,80,0,0
59396,-90.9090909090909,4,2,1,80,0,0
59668,-90.9090909090909,4,2,2,80,0,0
59758,-90.9090909090909,4,2,1,80,0,0
60029,-90.9090909090909,4,2,2,80,0,0
60119,-90.9090909090909,4,2,1,80,0,0
61475,-90.9090909090909,4,2,2,80,0,0
61565,-90.9090909090909,4,2,1,80,0,0
61837,-90.9090909090909,4,2,2,80,0,0
61927,-90.9090909090909,4,2,1,80,0,0
62198,-90.9090909090909,4,2,2,80,0,0
62288,-90.9090909090909,4,2,1,80,0,0
62559,-90.9090909090909,4,2,2,80,0,0
62649,-90.9090909090909,4,2,1,80,0,0
62921,-90.9090909090909,4,2,2,80,0,0
63011,-90.9090909090909,4,2,1,80,0,0
63282,-90.9090909090909,4,2,2,80,0,0
63372,-90.9090909090909,4,2,1,80,0,0
63644,-90.9090909090909,4,2,2,80,0,0
63734,-90.9090909090909,4,2,1,80,0,0
64005,-90.9090909090909,4,2,2,80,0,0
64095,-90.9090909090909,4,2,1,80,0,0
64367,-90.9090909090909,4,2,2,80,0,0
64457,-90.9090909090909,4,2,1,80,0,0
64728,-90.9090909090909,4,2,2,80,0,0
64818,-90.9090909090909,4,2,1,80,0,0
65090,-90.9090909090909,4,2,2,80,0,0
65180,-90.9090909090909,4,2,1,80,0,0
65451,-90.9090909090909,4,2,2,80,0,0
65541,-90.9090909090909,4,2,1,80,0,0
65812,-90.9090909090909,4,2,2,80,0,0
65902,-90.9090909090909,4,2,1,80,0,0
66174,-90.9090909090909,4,2,2,80,0,0
66264,-90.9090909090909,4,2,1,80,0,0
67078,-90.9090909090909,4,2,1,75,0,0
78644,-125,4,2,1,70,0,0

[Colours]
Combo1 : 17,254,176
Combo2 : 173,255,95
Combo3 : 255,88,100
Combo4 : 255,94,55

[HitObjects]
101,40,572,6,1,P|61:7|10:13,1,105,6|0,1:3|0:0,0:0:0:0:
9,21,933,2,1,P|20:52|36:98,1,70,2|2,2:2|2:2,0:0:0:0:
2,180,1294,1,10,2:3:0:0:
6,184,1475,1,0,0:0:0:0:
74,254,1656,2,1,P|102:235|137:234,1,70,2|2,2:2|2:2,0:0:0:0:
208,166,2017,5,2,2:2:0:0:
208,166,2198,1,0,0:0:0:0:
296,208,2379,2,1,P|285:234|267:282,1,70,6|2,1:3|2:2,0:0:0:0:
204,345,2740,1,10,2:3:0:0:
204,345,2921,1,6,1:3:0:0:
294,382,3102,2,1,P|325:372|371:360,1,70,2|0,2:2|0:0,0:0:0:0:
457,379,3463,6,1,P|468:329|439:287,1,105,6|0,1:3|0:0,0:0:0:0:
430,282,3825,2,1,P|416:250|429:218,1,70,2|2,2:2|2:2,0:0:0:0:
505,156,4186,1,10,2:3:0:0:
505,156,4367,1,0,0:0:0:0:
428,93,4547,2,1,P|391:105|355:119,1,70,2|2,2:2|2:2,0:0:0:0:
295,189,4909,5,2,2:2:0:0:
295,189,5090,1,0,0:0:0:0:
227,118,5270,2,1,P|238:79|248:50,1,70,6|2,1:3|2:2,0:0:0:0:
332,0,5632,1,10,2:3:0:0:
332,0,5812,1,6,1:3:0:0:
423,36,5993,2,1,P|455:25|502:15,1,70,2|0,2:2|0:0,0:0:0:0:
386,134,6355,6,1,P|354:123|307:113,1,70,6|2,1:3|2:2,0:0:0:0:
232,161,6716,2,1,P|201:221|236:277,1,140,2|10,2:2|2:3,0:0:0:0:
314,337,7258,1,2,2:2:0:0:
225,379,7439,2,1,P|187:365|155:357,1,70,2|0,2:2|0:0,0:0:0:0:
67,320,7800,6,1,P|34:332|3:348,1,70,2|2,2:2|2:2,0:0:0:0:
84,234,8162,2,1,P|117:246|148:262,1,70,6|0,1:3|0:0,0:0:0:0:
244,232,8523,1,10,2:3:0:0:
244,232,8704,1,6,1:3:0:0:
295,147,8885,2,1,P|265:131|231:136,1,70,2|0,2:2|0:0,0:0:0:0:
137,167,9246,6,1,P|123:101|115:64,1,105,6|0,1:3|0:0,0:0:0:0:
111,55,9608,2,1,P|80:41|46:46,1,70,2|0,2:2|0:0,0:0:0:0:
2,134,9969,1,8,2:3:0:0:
2,134,10150,1,2,2:2:0:0:
70,201,10331,2,1,P|61:230|51:273,1,70,2|2,2:2|2:2,0:0:0:0:
19,356,10692,5,2,2:2:0:0:
19,356,10873,1,2,2:2:0:0:
112,380,11053,2,1,P|142:362|177:362,1,70,6|0,1:3|0:0,0:0:0:0:
236,282,11415,1,10,2:3:0:0:
236,282,11596,1,6,1:3:0:0:
329,311,11776,2,1,P|319:343|310:383,1,70,2|0,2:2|0:0,0:0:0:0:
404,272,12138,6,1,P|462:251|512:286,2,126,6|2|6,1:3|2:2|1:3,0:0:0:0:
332,222,13041,1,0,0:0:0:0:
332,222,13222,1,2,2:2:0:0:
399,164,13403,6,1,P|391:142|372:100,1,63.0000000000001,6|0,1:2|0:0,0:0:0:0:
294,39,13764,2,1,P|280:67|269:97,1,63.0000000000001,2|0,1:2|0:0,0:0:0:0:
209,174,14126,1,2,1:2:0:0:
89,116,14306,1,2,1:2:0:0:
89,116,15029,6,1,P|122:64|182:52,2,126,6|2|2,1:2|2:2|2:2,0:0:0:0:
193,259,16114,2,1,P|248:238|311:215,2,126,2|2|2,2:2|1:2|2:2,0:0:0:0:
24,312,17198,2,1,P|1:255|30:201,1,126,2|2,2:2|2:2,0:0:0:0:
102,61,17921,6,1,P|105:34|91:10,1,56,6|2,1:1|2:2,0:0:0:0:
19,69,18282,2,1,P|28:95|39:121,1,56,10|2,1:2|2:2,0:0:0:0:
101,168,18644,2,1,B|161:167|148:139|208:143,1,112,2|8,1:2|1:2,0:0:0:0:
269,192,19186,1,2,2:2:0:0:
214,252,19367,6,1,P|170:234|148:228,1,56,2|2,1:2|2:2,0:0:0:0:
101,168,19728,2,1,P|94:142|103:116,1,56,10|2,1:2|2:2,0:0:0:0:
150,52,20090,2,1,P|199:65|258:81,1,112,2|8,1:2|1:2,0:0:0:0:
315,28,20632,1,2,2:2:0:0:
373,79,20812,6,1,P|399:69|426:61,1,56,2|2,1:2|2:2,0:0:0:0:
494,111,21174,2,1,P|502:137|492:162,1,56,10|0,1:2|0:0,0:0:0:0:
435,216,21535,2,1,L|378:189,2,56,2|2|10,1:2|2:2|1:2,0:0:0:0:
490,272,22078,1,0,0:0:0:0:
447,337,22258,6,1,P|411:320|379:304,1,56,2|2,1:2|2:2,0:0:0:0:
333,265,22620,2,1,P|308:277|282:289,1,56,10|2,1:2|2:2,0:0:0:0:
277,367,22981,2,1,B|337:366|324:338|384:342,1,112,2|8,1:2|1:2,0:0:0:0:
455,375,23523,1,2,2:2:0:0:
505,315,23704,6,1,P|494:274|488:250,1,56,6|2,1:3|2:2,0:0:0:0:
459,188,24065,2,1,P|470:147|476:123,1,56,10|2,1:2|2:2,0:0:0:0:
479,129,24337,1,0,0:0:0:0:
483,123,24427,2,1,P|440:89|386:94,1,112,2|8,1:2|1:2,0:0:0:0:
312,120,24969,1,2,2:2:0:0:
253,67,25150,6,1,P|261:40|270:14,1,56,2|2,1:2|2:2,0:0:0:0:
152,22,25511,2,1,P|161:49|169:75,1,56,10|2,1:2|2:2,0:0:0:0:
217,137,25873,2,1,P|160:114|114:128,1,112,2|8,1:2|1:2,0:0:0:0:
48,83,26415,1,2,2:2:0:0:
5,149,26596,6,1,P|2:176|17:205,1,56,2|2,1:2|2:2,0:0:0:0:
78,246,26957,2,1,P|102:237|134:227,1,56,10|0,1:2|0:0,0:0:0:0:
193,275,27318,2,1,P|209:243|208:217,2,56,2|2|10,1:2|2:2|1:2,0:0:0:0:
247,331,27861,1,0,0:0:0:0:
183,376,28041,6,1,P|142:363|109:357,1,56,2|2,1:2|2:2,0:0:0:0:
52,380,28403,2,1,P|46:354|55:328,1,56,10|2,1:2|2:2,0:0:0:0:
108,270,28764,2,1,P|121:230|104:193,1,84,2|0,1:2|0:0,0:0:0:0:
98,190,29126,2,1,P|80:152|93:113,1,84,10|0,1:2|0:0,0:0:0:0:
98,109,29487,6,1,P|132:122|181:142,2,84,6|2|2,1:2|2:2|2:2,0:0:0:0:
31,66,30210,1,0,1:1:0:0:
91,16,30391,2,1,L|157:36,1,56,2|10,2:2|1:2,0:0:0:0:
227,47,30752,1,2,2:2:0:0:
227,47,30933,6,1,P|258:20|299:21,2,84,2|2|2,1:2|2:2|2:2,0:0:0:0:
218,125,31656,1,0,1:1:0:0:
267,186,31837,2,1,P|294:178|321:170,1,56,2|10,2:2|1:2,0:0:0:0:
403,192,32198,1,2,2:2:0:0:
403,192,32379,6,1,P|413:166|406:139,1,56,2|2,1:2|2:2,0:0:0:0:
436,65,32740,2,1,P|410:54|385:43,1,56,10|0,1:2|0:0,0:0:0:0:
310,60,33102,2,1,P|284:72|258:83,1,56,2|2,1:2|2:2,0:0:0:0:
183,57,33463,2,1,P|176:83|184:110,1,56,10|0,1:2|0:0,0:0:0:0:
243,166,33825,6,1,P|251:192|244:219,1,56,2|2,1:2|2:2,0:0:0:0:
201,287,34186,1,10,1:2:0:0:
201,287,34367,1,2,2:2:0:0:
271,323,34547,2,1,L|334:304,1,56,2|10,1:2|2:2,0:0:0:0:
331,308,34818,1,8,2:2:0:0:
337,310,34909,1,10,1:2:0:0:
390,367,35090,1,10,1:2:0:0:
468,364,35270,6,1,P|460:319|430:299,2,84,6|2|2,1:2|2:2|2:2,0:0:0:0:
372,239,36174,2,1,P|388:200|401:173,1,56,2|10,2:2|1:2,0:0:0:0:
441,127,36535,1,2,2:2:0:0:
380,77,36716,6,1,P|413:52|454:49,2,84,2|2|2,1:2|2:2|2:2,0:0:0:0:
269,188,37620,1,2,2:2:0:0:
269,188,37710,1,2,2:2:0:0:
269,188,37800,2,1,P|252:142|248:131,1,56,10|2,1:2|2:2,0:0:0:0:
201,73,38162,5,2,1:2:0:0:
201,73,38343,1,2,2:2:0:0:
132,110,38523,2,1,P|93:96|71:90,1,56,10|0,1:2|0:0,0:0:0:0:
73,95,38794,1,2,2:2:0:0:
68,99,38885,1,2,1:2:0:0:
11,45,39065,1,2,2:2:0:0:
11,45,39246,1,10,1:2:0:0:
83,15,39427,6,1,L|149:41,1,56,2|0,2:2|1:1,0:0:0:0:
202,75,39788,2,1,P|227:63|263:50,1,56,2|10,2:2|1:2,0:0:0:0:
329,21,40150,1,10,2:2:0:0:
329,21,40240,1,8,2:2:0:0:
329,21,40331,2,1,P|355:35|367:63,1,56,10|0,1:2|3:3,0:0:0:0:
399,134,40692,1,2,3:2:0:0:
399,134,40873,1,2,2:2:0:0:
318,202,41053,5,6,1:2:0:0:
0,273,46837,6,1,P|47:249|98:230,1,94.5000000000001,6|0,1:2|0:0,0:0:0:0:
94,235,47198,1,10,1:2:0:0:
170,279,47379,2,1,P|195:325|150:380,1,126,2|2,2:2|2:2,0:0:0:0:
89,319,47921,1,8,1:2:0:0:
170,279,48102,6,1,P|234:297|297:314,1,126,2|2,2:2|2:2,0:0:0:0:
366,265,48644,1,10,1:2:0:0:
366,265,48825,1,2,2:2:0:0:
446,300,49005,2,1,P|439:332|357:361,1,126,2|10,1:2|1:2,0:0:0:0:
291,312,49547,1,2,2:2:0:0:
291,206,49728,6,1,P|310:167|326:134,1,63.0000000000001,6|0,1:2|0:0,0:0:0:0:
343,63,50090,2,1,P|311:58|271:78,1,63.0000000000001,2|0,1:2|0:0,0:0:0:0:
202,104,50451,2,1,P|186:45|175:5,2,94.5000000000001,2|2|2,1:2|2:2|2:2,0:0:0:0:
0,241,51355,6,1,P|30:249|59:262,1,63.0000000000001,2|2,2:2|1:2,0:0:0:0:
129,315,51716,1,2,2:2:0:0:
203,266,51897,2,1,P|191:226|184:203,1,63.0000000000001,2|2,1:2|2:2,0:0:0:0:
123,141,52258,2,1,P|132:106|142:76,1,63.0000000000001,2|2,1:2|2:2,0:0:0:0:
222,24,52620,1,10,1:2:0:0:
512,226,53162,5,10,1:2:0:0:
412,291,53343,2,1,P|422:321|432:357,1,70,10|8,1:2|2:2,0:0:0:0:
437,363,53614,1,8,2:2:0:0:
441,368,53704,1,2,3:2:0:0:
512,302,53885,1,10,1:2:0:0:
413,133,54246,5,10,1:2:0:0:
338,69,54427,1,2,2:2:0:0:
404,1,54608,1,10,1:2:0:0:
484,52,54788,1,10,1:2:0:0:
294,313,55150,6,1,P|302:299|302:315,1,42,2|0,2:2|0:0,0:0:0:0:
245,370,55511,6,1,B|162:378|183:322|100:336,1,154,6|10,1:1|1:2,0:0:0:0:
24,259,56053,1,2,0:3:0:0:
24,259,56144,1,0,0:0:0:0:
24,259,56234,2,1,P|35:212|44:182,1,77,2|2,1:2|2:2,0:0:0:0:
117,105,56596,1,10,1:2:0:0:
204,166,56776,6,1,P|179:194|142:203,1,77,2|0,2:2|1:1,0:0:0:0:
43,184,57138,1,2,2:2:0:0:
5,83,57318,1,10,1:2:0:0:
90,16,57499,1,2,2:2:0:0:
184,67,57680,2,1,P|215:56|269:41,1,77,2|2,1:2|0:3,0:0:0:0:
361,14,58041,1,10,1:2:0:0:
361,14,58222,1,2,2:2:0:0:
444,69,58403,6,0,L|487:51,2,38.5000011749268,2|2|2,1:2|0:3|0:3,0:0:0:0:
392,165,58764,2,1,P|362:143|324:140,1,77,10|2,1:2|0:3,0:0:0:0:
249,218,59126,2,1,P|260:247|278:294,1,77,2|2,1:2|0:3,0:0:0:0:
339,377,59487,1,10,1:2:0:0:
446,382,59668,6,1,P|459:346|450:308,1,77,2|0,2:2|1:1,0:0:0:0:
370,238,60029,1,2,2:2:0:0:
449,164,60210,1,10,1:2:0:0:
371,108,60391,1,8,2:2:0:0:
371,108,60481,1,8,2:2:0:0:
371,108,60571,1,6,1:2:0:0:
414,13,60752,1,8,2:2:0:0:
414,13,60843,1,8,2:2:0:0:
414,13,60933,2,1,P|460:4|516:51,1,115.5,14|8,1:2|2:2,0:0:0:0:
512,55,61294,6,1,P|493:115|465:205,1,154,6|10,1:2|1:2,0:0:0:0:
407,277,61837,1,2,0:3:0:0:
476,341,62017,2,0,L|521:327,2,38.5000011749268,2|2|2,1:2|0:3|0:3,0:0:0:0:
393,380,62379,1,10,1:2:0:0:
325,306,62559,6,1,P|319:268|335:233,1,77,2|0,2:2|1:1,0:0:0:0:
298,139,62921,1,2,2:2:0:0:
223,207,63102,1,10,1:2:0:0:
143,147,63282,1,2,2:2:0:0:
67,212,63463,2,1,P|69:284|112:312,1,115.5,2|0,1:2|0:0,0:0:0:0:
108,313,63825,2,1,P|143:297|182:282,1,77,10|2,1:2|2:2,0:0:0:0:
283,294,64186,6,0,L|299:244,2,38.5000011749268,2|2|2,1:2|3:0|0:3,0:3:0:0:
242,384,64547,2,1,P|201:371|154:364,1,77,10|2,1:2|0:3,0:0:0:0:
52,308,64909,2,1,P|41:345|52:382,1,77,2|2,1:2|0:3,0:0:0:0:
145,275,65270,1,10,1:2:0:0:
74,206,65451,6,1,P|84:162|95:121,1,77,2|0,2:2|1:1,0:0:0:0:
81,28,65812,2,1,P|43:31|16:57,1,77,2|8,2:2|1:2,0:0:0:0:
92,131,66174,1,2,2:2:0:0:
177,78,66355,1,10,1:2:0:0:
177,78,66445,1,8,2:2:0:0:
177,78,66535,1,8,2:2:0:0:
249,138,66716,2,1,L|300:113,3,38.5,10|8|10|8,1:2|2:2|2:2|2:2,0:0:0:0:
292,119,67078,6,1,P|362:140|378:212,1,154,6|8,1:2|1:2,0:0:0:0:
462,266,67620,1,2,2:2:0:0:
502,175,67800,2,1,P|487:122|479:92,1,77,2|2,1:2|2:2,0:0:0:0:
479,95,68071,1,0,0:0:0:0:
474,91,68162,1,10,1:2:0:0:
424,10,68343,1,2,2:2:0:0:
347,90,68523,6,1,P|424:61|511:31,1,154,2|8,1:2|1:2,0:0:0:0:
429,189,69065,2,1,P|387:174|353:164,1,77,2|2,2:2|1:2,0:0:0:0:
269,216,69427,1,2,2:2:0:0:
188,155,69608,1,10,1:2:0:0:
188,155,69788,1,2,2:2:0:0:
258,83,69969,6,1,P|240:32|229:1,1,77,2|0,1:2|0:0,0:0:0:0:
372,83,70331,2,1,P|359:119|346:155,1,77,10|0,1:2|0:0,0:0:0:0:
268,235,70692,2,1,P|259:272|276:306,1,77,2|0,1:2|0:0,0:0:0:0:
282,308,70963,1,2,2:2:0:0:
289,310,71053,2,1,P|323:298|372:284,1,77,8|2,1:2|2:2,0:0:0:0:
235,384,71415,6,1,P|201:372|152:358,1,77,2|2,1:2|2:2,0:0:0:0:
63,378,71776,1,10,1:2:0:0:
63,378,71957,1,2,2:2:0:0:
5,295,72138,2,1,P|16:254|28:212,1,77,2|2,1:2|2:2,0:0:0:0:
92,147,72499,1,10,1:2:0:0:
92,147,72680,1,2,2:2:0:0:
169,242,72861,6,1,B|247:235|227:287|311:291,1,154,6|8,1:2|1:2,0:0:0:0:
402,236,73403,1,2,2:2:0:0:
347,153,73584,2,1,P|336:102|327:66,1,77,2|2,1:2|2:2,0:0:0:0:
329,71,73855,1,0,0:0:0:0:
327,65,73945,1,10,1:2:0:0:
239,16,74126,1,2,2:2:0:0:
155,70,74306,6,1,B|71:67|97:17|13:21,1,154,2|8,1:2|1:2,0:0:0:0:
11,117,74849,1,2,2:2:0:0:
11,117,74939,1,2,2:2:0:0:
11,117,75029,2,1,P|45:102|89:83,1,77,2|2,1:2|2:2,0:0:0:0:
157,20,75391,2,1,P|192:35|227:50,1,77,10|2,1:2|2:2,0:0:0:0:
314,100,75752,5,10,1:1:0:0:
314,100,75933,1,2,2:2:0:0:
247,174,76114,2,1,P|211:153|171:161,1,77,10|2,1:1|2:2,0:0:0:0:
255,266,76475,1,10,1:1:0:0:
341,215,76656,1,0,0:0:0:0:
427,283,76837,1,10,2:2:0:0:
512,195,77017,1,6,1:2:0:0:
363,47,77379,6,1,P|390:23|435:23,1,77,2|8,2:2|1:2,0:0:0:0:
512,86,77740,1,10,2:2:0:0:
512,86,77831,1,8,2:2:0:0:
512,86,77921,2,1,L|359:46,1,154,2|8,1:2|1:2,0:0:0:0:
252,192,78644,6,1,P|171:152|142:162,2,112,6|2|2,1:1|1:2|1:2,0:0:0:0:
388,243,79728,2,1,L|519:208,2,112,2|2|2,1:2|1:2|1:2,0:0:0:0:
282,343,80812,2,1,P|249:314|172:320,1,112,2|2,1:2|1:2,0:0:0:0:
48,257,81535,6,1,L|86:373,2,112,2|2|2,1:2|1:2|1:2,0:0:0:0:
0,118,82620,1,2,1:2:0:0:
106,19,82981,6,1,B|151:29|151:29|160:41|160:41|228:60,2,112,0|0|0,1:1|1:1|1:1,0:0:0:0:
191,136,84065,1,0,1:1:0:0:
336,122,84427,6,1,P|313:52|294:0,2,112,6|10|2,1:2|1:2|1:2,0:0:0:0:
430,233,85511,2,1,P|411:286|394:339,2,112,10|2|10,1:2|1:2|1:2,0:0:0:0:
501,105,86596,2,1,P|479:64|396:55,1,112,2|10,1:2|1:2,0:0:0:0:
275,23,87318,6,1,B|230:33|230:33|221:45|221:45|172:59,2,112,2|10|2,1:2|1:2|1:2,0:0:0:0:
354,146,88403,1,10,1:2:0:0:
261,238,88764,6,1,L|170:215,2,84,2|2|2,1:2|1:2|1:2,0:0:0:0:
