osu file format v14

[General]
AudioFilename: audio.ogg
AudioLeadIn: 0
PreviewTime: 54908
Countdown: 0
SampleSet: Soft
StackLeniency: 0.7
Mode: 3
LetterboxInBreaks: 0
SpecialStyle: 0
WidescreenStoryboard: 0

[Editor]
DistanceSpacing: 0.9
BeatDivisor: 2
GridSize: 16
TimelineZoom: 1.6

[Metadata]
Title:Idol (TV Size)
TitleUnicode:アイドル (TV Size)
Artist:YOASOBI
ArtistUnicode:YOASOBI
Creator:Mirsaaa
Version:Normal
Source:【推しの子】
Tags:Japanese Anime pop Jpop J-pop opening op Oshi no ko Her Fans Their Idol's Children 【Oshi No Ko】 My Favorite Idol Ayase Ikura Ikuta Lilas 幾田りら 星野 愛久愛海 瑠美衣 Hoshino Akuamarin Aquamarine Aqua アクア Ruby Rubii Ai アイ Aidoru my star Aka Akasaka 赤坂 アカ Mengo Yokoyari 横槍 メンゴ Ainer
BeatmapID:4097533
BeatmapSetID:1974438

[Difficulty]
HPDrainRate:7
CircleSize:4
OverallDifficulty:7
ApproachRate:5
SliderMultiplier:1.4
SliderTickRate:1

[Events]
//Background and Video events
0,0,"BEGEH.jpg",0,0
//Break Periods
//Storyboard Layer 0 (Background)
//Storyboard Layer 1 (Fail)
//Storyboard Layer 2 (Pass)
//Storyboard Layer 3 (Foreground)
//Storyboard Layer 4 (Overlay)
//Storyboard Sound Samples
Sample,40269,0,"Tom1.wav",40

[TimingPoints]
330,361.44578313253,4,2,1,40,1,0
55269,-100,4,2,1,40,0,1
78402,-100,4,2,1,40,0,0

[HitObjects]
320,192,330,5,2,0:0:0:0:
448,192,330,1,0,0:0:0:0:
192,192,691,1,0,0:0:0:0:
64,192,872,1,0,0:0:0:0:
320,192,1052,1,8,0:0:0:0:
192,192,1233,1,0,0:0:0:0:
448,192,1414,1,0,0:0:0:0:
320,192,1595,1,0,0:0:0:0:
64,192,1775,1,0,0:0:0:0:
320,192,1956,1,0,0:0:0:0:
64,192,2137,1,2,0:0:0:0:
192,192,2137,1,0,0:0:0:0:
448,192,2317,1,0,0:0:0:0:
192,192,2498,1,8,0:0:0:0:
320,192,2679,1,2,0:0:0:0:
448,192,2679,1,0,0:0:0:0:
64,192,2860,128,0,3221:0:0:0:0:
192,192,3221,1,2,0:0:0:0:
448,192,3221,1,0,0:0:0:0:
320,192,3583,1,0,0:0:0:0:
448,192,3763,1,0,0:0:0:0:
192,192,3944,1,8,0:0:0:0:
320,192,4125,1,0,0:0:0:0:
64,192,4305,1,0,0:0:0:0:
192,192,4486,1,0,0:0:0:0:
448,192,4667,1,0,0:0:0:0:
64,192,4848,1,0,0:0:0:0:
320,192,5028,1,2,0:0:0:0:
448,192,5028,1,0,0:0:0:0:
192,192,5209,1,0,0:0:0:0:
320,192,5390,1,8,0:0:0:0:
64,192,5570,1,2,0:0:0:0:
192,192,5570,1,0,0:0:0:0:
448,192,5751,128,0,6113:0:0:0:0:
64,192,6113,1,2,0:0:0:0:
320,192,6113,1,0,0:0:0:0:
192,192,6293,1,0,0:0:0:0:
320,192,6474,1,0,0:0:0:0:
192,192,6655,1,0,0:0:0:0:
448,192,6836,1,8,0:0:0:0:
320,192,7016,1,0,0:0:0:0:
64,192,7197,1,0,0:0:0:0:
192,192,7378,1,0,0:0:0:0:
320,192,7558,1,0,0:0:0:0:
448,192,7739,1,0,0:0:0:0:
64,192,7920,1,2,0:0:0:0:
192,192,7920,1,0,0:0:0:0:
320,192,8101,1,0,0:0:0:0:
64,192,8281,1,8,0:0:0:0:
320,192,8462,1,2,0:0:0:0:
448,192,8462,1,0,0:0:0:0:
192,192,8643,128,0,9004:0:0:0:0:
64,192,9004,1,2,0:0:0:0:
448,192,9004,1,0,0:0:0:0:
320,192,9366,128,0,9727:0:0:0:0:
448,192,9727,1,8,0:0:0:0:
192,192,9908,1,0,0:0:0:0:
320,192,10089,1,0,0:0:0:0:
64,192,10269,1,0,0:0:0:0:
192,192,10450,1,0,0:0:0:0:
320,192,10631,1,0,0:0:0:0:
64,192,10811,1,2,0:0:0:0:
448,192,10811,1,0,0:0:0:0:
192,192,10992,1,0,0:0:0:0:
320,192,11173,1,8,0:0:0:0:
64,192,11354,1,2,0:0:0:0:
192,192,11354,1,0,0:0:0:0:
448,192,11534,128,0,11896:0:0:0:0:
192,192,11896,128,2,12257:0:0:0:0:
320,192,11896,1,0,0:0:0:0:
64,192,12257,128,0,12619:0:0:0:0:
192,192,12619,1,2,0:0:0:0:
320,192,12619,128,0,12980:0:0:0:0:
448,192,12980,1,0,0:0:0:0:
64,192,13161,1,2,0:0:0:0:
192,192,13161,128,4,13522:0:0:0:0:
320,192,13522,128,2,13884:0:0:0:0:
448,192,13522,1,0,0:0:0:0:
64,192,13884,1,2,0:0:0:0:
448,192,13884,1,0,0:0:0:0:
192,192,14064,1,2,0:0:0:0:
320,192,14064,1,0,0:0:0:0:
192,192,14426,1,0,0:0:0:0:
320,192,14787,1,2,0:0:0:0:
448,192,14787,1,4,0:0:0:0:
64,192,15058,1,2,0:0:0:0:
320,192,15149,1,0,0:0:0:0:
192,192,15329,1,2,0:0:0:0:
448,192,15510,1,0,0:0:0:0:
320,192,15691,1,2,0:0:0:0:
64,192,15872,1,0,0:0:0:0:
192,192,16052,1,2,0:0:0:0:
448,192,16233,1,2,0:0:0:0:
320,192,16504,1,2,0:0:0:0:
64,192,16595,1,0,0:0:0:0:
448,192,16775,1,2,0:0:0:0:
192,192,16956,1,0,0:0:0:0:
320,192,17137,1,2,0:0:0:0:
64,192,17317,128,0,17679:0:0:0:0:
320,192,17679,1,2,0:0:0:0:
448,192,17679,1,4,0:0:0:0:
192,192,17860,1,0,0:0:0:0:
64,192,18040,1,2,0:0:0:0:
448,192,18040,1,8,0:0:0:0:
320,192,18221,1,0,0:0:0:0:
192,192,18402,128,2,18763:0:0:0:0:
64,192,18763,1,2,0:0:0:0:
448,192,18763,1,8,0:0:0:0:
320,192,18944,1,0,0:0:0:0:
64,192,19125,1,2,0:0:0:0:
192,192,19305,1,0,0:0:0:0:
320,192,19486,1,2,0:0:0:0:
448,192,19486,1,8,0:0:0:0:
192,192,19667,1,0,0:0:0:0:
448,192,19848,128,2,20209:0:0:0:0:
64,192,20209,1,2,0:0:0:0:
192,192,20209,1,8,0:0:0:0:
320,192,20390,1,0,0:0:0:0:
192,192,20570,1,2,0:0:0:0:
448,192,20751,1,0,0:0:0:0:
64,192,20932,1,2,0:0:0:0:
320,192,20932,1,8,0:0:0:0:
192,192,21113,1,0,0:0:0:0:
448,192,21293,1,2,0:0:0:0:
64,192,21474,1,0,0:0:0:0:
192,192,21655,1,2,0:0:0:0:
320,192,21655,1,8,0:0:0:0:
448,192,21836,1,0,0:0:0:0:
64,192,22016,1,2,0:0:0:0:
320,192,22197,1,0,0:0:0:0:
192,192,22378,1,2,0:0:0:0:
448,192,22378,1,8,0:0:0:0:
64,192,22558,1,0,0:0:0:0:
320,192,22739,128,2,23101:0:0:0:0:
64,192,23101,1,2,0:0:0:0:
192,192,23101,1,8,0:0:0:0:
448,192,23281,1,0,0:0:0:0:
192,192,23462,1,2,0:0:0:0:
320,192,23462,1,0,0:0:0:0:
64,192,23643,1,0,0:0:0:0:
320,192,23823,1,2,0:0:0:0:
448,192,23823,1,8,0:0:0:0:
192,192,24004,1,0,0:0:0:0:
64,192,24185,128,2,24546:0:0:0:0:
192,192,24546,1,2,0:0:0:0:
448,192,24546,1,8,0:0:0:0:
320,192,24727,1,0,0:0:0:0:
64,192,24908,1,2,0:0:0:0:
448,192,25089,1,0,0:0:0:0:
64,192,25269,1,2,0:0:0:0:
192,192,25269,1,8,0:0:0:0:
320,192,25450,1,0,0:0:0:0:
192,192,25631,128,2,25992:0:0:0:0:
64,192,25992,1,2,0:0:0:0:
448,192,25992,1,8,0:0:0:0:
320,192,26173,1,0,0:0:0:0:
64,192,26354,1,2,0:0:0:0:
192,192,26534,1,0,0:0:0:0:
320,192,26715,1,2,0:0:0:0:
448,192,26715,1,8,0:0:0:0:
64,192,26896,1,0,0:0:0:0:
448,192,27076,1,2,0:0:0:0:
192,192,27257,1,0,0:0:0:0:
64,192,27438,1,2,0:0:0:0:
320,192,27438,1,8,0:0:0:0:
448,192,27619,1,0,0:0:0:0:
192,192,27799,1,2,0:0:0:0:
320,192,27980,1,0,0:0:0:0:
64,192,28161,1,2,0:0:0:0:
192,192,28161,1,8,0:0:0:0:
448,192,28342,1,0,0:0:0:0:
320,192,28522,128,2,28884:0:0:0:0:
64,192,28884,128,2,29245:0:0:0:0:
192,192,28884,1,8,0:0:0:0:
320,192,29245,1,2,0:0:0:0:
448,192,29245,1,4,0:0:0:0:
448,192,29516,1,0,0:0:0:0:
192,192,29787,1,0,0:0:0:0:
320,192,29968,1,2,0:0:0:0:
64,192,30149,1,0,0:0:0:0:
192,192,30329,1,10,0:0:0:0:
320,192,30510,1,0,0:0:0:0:
64,192,30691,1,2,0:0:0:0:
448,192,30691,1,0,0:0:0:0:
64,192,30962,1,0,0:0:0:0:
320,192,31233,1,0,0:0:0:0:
192,192,31414,1,2,0:0:0:0:
448,192,31595,1,0,0:0:0:0:
320,192,31775,1,10,0:0:0:0:
192,192,31956,1,0,0:0:0:0:
64,192,32137,1,2,0:0:0:0:
448,192,32137,1,0,0:0:0:0:
320,192,32317,1,0,0:0:0:0:
192,192,32498,128,10,32860:0:0:0:0:
320,192,32860,1,2,0:0:0:0:
448,192,32860,1,0,0:0:0:0:
64,192,33040,1,0,0:0:0:0:
320,192,33221,128,10,33583:0:0:0:0:
64,192,33583,1,2,0:0:0:0:
192,192,33583,1,0,0:0:0:0:
448,192,33763,1,0,0:0:0:0:
320,192,33944,1,10,0:0:0:0:
192,192,34125,1,0,0:0:0:0:
64,192,34305,1,2,0:0:0:0:
320,192,34486,128,8,34667:0:0:0:0:
448,192,34667,128,10,34848:0:0:0:0:
192,192,34848,128,2,35028:0:0:0:0:
64,192,35028,1,2,0:0:0:0:
320,192,35028,1,4,0:0:0:0:
320,192,35299,1,0,0:0:0:0:
320,192,35570,1,0,0:0:0:30:Hat Open.wav
192,192,35751,1,2,0:0:0:0:
448,192,35932,1,0,0:0:0:30:Hat Open.wav
64,192,36113,1,10,0:0:0:0:
320,192,36293,1,0,0:0:0:30:Hat Open.wav
192,192,36474,1,2,0:0:0:0:
448,192,36474,1,0,0:0:0:0:
192,192,36745,1,0,0:0:0:0:
192,192,37016,1,0,0:0:0:30:Hat Open.wav
448,192,37197,1,2,0:0:0:0:
64,192,37378,1,0,0:0:0:30:Hat Open.wav
192,192,37468,1,0,0:0:0:0:
320,192,37558,1,10,0:0:0:0:
64,192,37739,1,0,0:0:0:30:Hat Open.wav
320,192,37920,1,2,0:0:0:0:
448,192,37920,1,0,0:0:0:0:
192,192,38101,1,0,0:0:0:30:Hat Open.wav
64,192,38281,128,10,38462:0:0:0:0:
320,192,38462,1,0,0:0:0:30:Hat Open.wav
192,192,38552,1,0,0:0:0:0:
448,192,38643,1,2,0:0:0:0:
64,192,38823,1,0,0:0:0:30:Hat Open.wav
192,192,39004,1,10,0:0:0:0:
320,192,39185,128,0,39366:0:0:0:30:Hat Open.wav
64,192,39366,1,2,0:0:0:0:
448,192,39546,1,0,0:0:0:30:Hat Open.wav
320,192,39727,1,10,0:0:0:0:
64,192,39908,1,8,0:0:0:0:
192,192,39998,1,8,0:0:0:0:
320,192,40089,1,10,0:0:0:0:
448,192,40269,1,2,0:0:0:0:
64,192,40450,1,10,0:0:0:0:
192,192,40450,1,0,0:0:0:40:Tom2.wav
320,192,40811,1,2,0:0:0:0:
448,192,40811,1,0,0:0:0:20:soft-hitfinish.wav
192,192,41354,1,2,0:0:0:0:
192,192,41534,1,2,0:0:0:0:
64,192,41896,1,8,0:0:0:0:
448,192,41896,1,0,0:0:0:0:
320,192,42076,1,2,0:0:0:0:
192,192,42438,1,2,0:0:0:0:
320,192,42799,1,2,0:0:0:0:
320,192,42980,1,2,0:0:0:0:
64,192,43342,1,8,0:0:0:0:
448,192,43342,1,0,0:0:0:0:
192,192,43703,1,2,0:0:0:0:
320,192,44245,1,2,0:0:0:0:
320,192,44426,1,2,0:0:0:0:
64,192,44787,1,8,0:0:0:0:
448,192,44787,1,0,0:0:0:0:
192,192,45149,1,2,0:0:0:0:
192,192,45510,1,2,0:0:0:0:
448,192,45872,1,2,0:0:0:0:
320,192,45962,1,2,0:0:0:0:
192,192,46052,1,2,0:0:0:0:
64,192,46143,1,2,0:0:0:0:
320,192,46233,1,8,0:0:0:0:
448,192,46233,1,0,0:0:0:0:
64,192,46595,1,2,0:0:0:0:
192,192,46595,1,0,0:0:0:20:soft-hitfinish.wav
64,192,46956,1,2,0:0:0:0:
448,192,46956,1,8,0:0:0:0:
192,192,47317,1,2,0:0:0:0:
320,192,47317,1,0,0:0:0:0:
64,192,47679,1,2,0:0:0:0:
448,192,47679,1,8,0:0:0:0:
320,192,48040,1,2,0:0:0:0:
448,192,48040,1,0,0:0:0:0:
64,192,48402,1,2,0:0:0:0:
448,192,48402,1,8,0:0:0:0:
192,192,48763,1,2,0:0:0:0:
320,192,48763,1,0,0:0:0:0:
64,192,49125,1,2,0:0:0:0:
448,192,49125,1,8,0:0:0:0:
64,192,49486,1,2,0:0:0:0:
192,192,49486,1,4,0:0:0:0:
64,192,49848,1,2,0:0:0:0:
448,192,49848,1,0,0:0:0:0:
320,192,50209,1,2,0:0:0:0:
64,192,50570,1,2,0:0:0:0:
448,192,50570,1,0,0:0:0:0:
192,192,50932,1,2,0:0:0:0:
64,192,51293,1,2,0:0:0:0:
448,192,51293,1,0,0:0:0:0:
320,192,51655,1,2,0:0:0:0:
64,192,52016,1,2,0:0:0:0:
448,192,52016,1,0,0:0:0:0:
192,192,52378,1,2,0:0:0:0:
320,192,52378,1,8,0:0:0:0:
64,192,52558,1,0,0:0:0:0:
64,192,52739,1,0,0:0:0:0:
320,192,52920,1,2,0:0:0:0:
448,192,52920,1,8,0:0:0:0:
64,192,53101,1,2,0:0:0:0:
192,192,53101,1,8,0:0:0:0:
448,192,53281,1,8,0:0:0:0:
320,192,53372,1,0,0:0:0:40:Tom1.wav
192,192,53462,1,0,0:0:0:40:Tom1.wav
64,192,53643,1,10,0:0:0:0:
448,192,53643,1,0,0:0:0:40:Tom3.wav
192,192,54004,1,2,0:0:0:0:
320,192,54004,1,8,0:0:0:0:
320,192,54366,1,2,0:0:0:0:
448,192,54366,1,8,0:0:0:0:
64,192,54546,1,2,0:0:0:0:
192,192,54546,1,0,0:0:0:0:
192,192,54908,1,0,0:0:0:0:
320,192,55089,1,0,0:0:0:0:
64,192,55269,1,2,0:0:0:0:
448,192,55269,128,4,55631:0:0:0:0:
64,192,55631,1,2,0:0:0:0:
192,192,55631,1,8,0:0:0:0:
320,192,55811,1,0,0:0:0:0:
192,192,55992,128,2,56354:0:0:0:0:
64,192,56354,1,2,0:0:0:0:
448,192,56354,1,8,0:0:0:0:
320,192,56534,128,0,56896:0:0:0:0:
192,192,56715,1,2,0:0:0:0:
448,192,56896,1,0,0:0:0:0:
64,192,57076,1,2,0:0:0:0:
192,192,57076,1,8,0:0:0:0:
320,192,57257,1,0,0:0:0:0:
64,192,57438,128,2,57799:0:0:0:0:
320,192,57799,1,2,0:0:0:0:
448,192,57799,1,8,0:0:0:0:
192,192,57980,1,0,0:0:0:0:
448,192,58161,128,2,58522:0:0:0:0:
64,192,58522,1,2,0:0:0:0:
320,192,58522,1,8,0:0:0:0:
192,192,58703,1,0,0:0:0:0:
320,192,58884,128,2,59245:0:0:0:0:
64,192,59245,1,2,0:0:0:0:
448,192,59245,1,8,0:0:0:0:
192,192,59426,128,0,59787:0:0:0:0:
320,192,59607,1,2,0:0:0:0:
64,192,59787,1,0,0:0:0:0:
320,192,59968,1,2,0:0:0:0:
448,192,59968,1,8,0:0:0:0:
192,192,60149,1,8,0:0:0:0:
64,192,60329,1,2,0:0:0:0:
448,192,60329,1,0,0:0:0:0:
192,192,60691,1,2,0:0:0:0:
320,192,60691,1,0,0:0:0:0:
64,192,61052,128,2,61414:0:0:0:0:
320,192,61052,1,4,0:0:0:0:
192,192,61414,1,2,0:0:0:0:
448,192,61414,1,8,0:0:0:0:
320,192,61595,1,0,0:0:0:0:
192,192,61775,128,2,62137:0:0:0:0:
64,192,62137,1,2,0:0:0:0:
320,192,62137,1,8,0:0:0:0:
448,192,62317,128,0,62679:0:0:0:0:
192,192,62498,1,2,0:0:0:0:
320,192,62679,1,0,0:0:0:0:
64,192,62860,1,2,0:0:0:0:
192,192,62860,1,8,0:0:0:0:
448,192,63040,1,0,0:0:0:0:
320,192,63221,128,2,63583:0:0:0:0:
192,192,63583,1,2,0:0:0:0:
448,192,63583,1,8,0:0:0:0:
64,192,63763,1,0,0:0:0:0:
448,192,63944,128,2,64305:0:0:0:0:
192,192,64305,1,2,0:0:0:0:
320,192,64305,1,8,0:0:0:0:
64,192,64486,1,0,0:0:0:0:
320,192,64667,128,2,65028:0:0:0:0:
64,192,65028,1,2,0:0:0:0:
448,192,65028,1,8,0:0:0:0:
192,192,65209,1,0,0:0:0:0:
320,192,65390,1,2,0:0:0:0:
192,192,65570,1,0,0:0:0:0:
64,192,65751,1,2,0:0:0:0:
448,192,65751,1,8,0:0:0:0:
320,192,65932,1,0,0:0:0:0:
192,192,66113,1,2,0:0:0:0:
448,192,66293,1,8,0:0:0:0:
320,192,66384,1,8,0:0:0:0:
192,192,66474,1,2,0:0:0:0:
64,192,66655,1,8,0:0:0:0:
192,192,66745,1,8,0:0:0:0:
320,192,66836,1,2,0:0:0:0:
448,192,66836,1,4,0:0:0:0:
64,192,67197,1,2,0:0:0:0:
192,192,67197,1,8,0:0:0:0:
320,192,67378,1,0,0:0:0:0:
192,192,67558,1,2,0:0:0:0:
448,192,67739,1,0,0:0:0:0:
64,192,67920,1,2,0:0:0:0:
320,192,67920,1,8,0:0:0:0:
192,192,68101,1,0,0:0:0:0:
320,192,68281,128,2,68643:0:0:0:0:
64,192,68643,1,2,0:0:0:0:
448,192,68643,1,8,0:0:0:0:
192,192,68823,1,0,0:0:0:0:
320,192,69004,1,2,0:0:0:0:
448,192,69185,1,0,0:0:0:0:
64,192,69366,1,2,0:0:0:0:
192,192,69366,1,8,0:0:0:0:
320,192,69546,1,0,0:0:0:0:
192,192,69727,128,2,70089:0:0:0:0:
64,192,70089,1,2,0:0:0:0:
448,192,70089,128,8,70450:0:0:0:0:
320,192,70450,1,2,0:0:0:0:
192,192,70631,1,0,0:0:0:0:
64,192,70811,1,2,0:0:0:0:
448,192,70811,1,8,0:0:0:0:
320,192,70992,1,0,0:0:0:0:
192,192,71173,1,2,0:0:0:0:
64,192,71354,1,0,0:0:0:0:
320,192,71534,1,2,0:0:0:0:
448,192,71534,1,8,0:0:0:0:
192,192,71715,1,0,0:0:0:0:
320,192,71896,1,2,0:0:0:0:
448,192,72076,1,0,0:0:0:0:
64,192,72257,1,2,0:0:0:0:
192,192,72257,1,8,0:0:0:0:
320,192,72438,1,0,0:0:0:0:
192,192,72619,128,2,72980:0:0:0:0:
320,192,72980,1,2,0:0:0:0:
448,192,72980,1,8,0:0:0:0:
64,192,73161,1,0,0:0:0:0:
448,192,73342,1,2,0:0:0:0:
320,192,73522,1,0,0:0:0:0:
64,192,73703,1,2,0:0:0:0:
192,192,73703,1,8,0:0:0:0:
320,192,73884,1,0,0:0:0:0:
64,192,74064,128,2,74426:0:0:0:0:
320,192,74426,1,2,0:0:0:0:
448,192,74426,1,8,0:0:0:0:
192,192,74607,1,0,0:0:0:0:
320,192,74697,1,0,0:0:0:0:
448,192,74787,1,2,0:0:0:0:
64,192,74968,1,0,0:0:0:0:
192,192,75149,1,2,0:0:0:0:
320,192,75149,1,8,0:0:0:0:
448,192,75329,1,0,0:0:0:0:
64,192,75510,128,2,75691:0:0:0:0:
320,192,75691,1,0,0:0:0:0:
192,192,75872,128,10,76052:0:0:0:0:
448,192,76052,1,0,0:0:0:0:
320,192,76233,128,2,76414:0:0:0:0:
64,192,76414,1,0,0:0:0:0:
192,192,76595,1,2,0:0:0:0:
448,192,76595,1,8,0:0:0:0:
64,192,76775,128,2,77137:0:0:0:0:
320,192,76775,1,4,0:0:0:0:
448,192,77137,1,0,0:0:0:0:
320,192,77317,1,2,0:0:0:0:
192,192,77498,1,0,0:0:0:0:
64,192,77679,1,2,0:0:0:0:
448,192,77860,1,0,0:0:0:0:
192,192,78040,1,2,0:0:0:0:
320,192,78221,1,0,0:0:0:0:
64,192,78402,128,2,78763:0:0:0:0:
448,192,78402,1,4,0:0:0:0:
320,192,78763,128,2,79125:0:0:0:0:
192,192,79125,128,2,79486:0:0:0:0:
448,192,79486,128,2,79848:0:0:0:0:
320,192,79848,128,2,80209:0:0:0:0:
64,192,80209,128,2,80570:0:0:0:0:
448,192,80570,128,2,80932:0:0:0:0:
192,192,80932,128,2,81293:0:0:0:0:
64,192,81293,128,2,81655:0:0:0:0:
320,192,81655,128,2,82016:0:0:0:0:
448,192,82016,128,2,82378:0:0:0:0:
192,192,82378,128,2,82739:0:0:0:0:
320,192,82739,128,2,84185:0:0:0:0:
64,192,83101,1,2,0:0:0:0:
192,192,83462,1,2,0:0:0:0:
448,192,83823,1,2,0:0:0:0:
64,192,84185,1,2,0:0:0:0:
192,192,84185,1,4,0:0:0:0:
320,192,84546,1,2,0:0:0:0:
448,192,84546,128,0,84908:0:0:0:30:Hat Open.wav
64,192,84908,1,2,0:0:0:0:
192,192,85269,1,2,0:0:0:0:
320,192,85269,128,0,85631:0:0:0:30:Hat Open.wav
448,192,85631,1,2,0:0:0:0:
64,192,85992,1,2,0:0:0:0:
192,192,85992,128,0,86354:0:0:0:30:Hat Open.wav
320,192,86354,1,2,0:0:0:0:
64,192,86715,128,2,87076:0:0:0:0:
448,192,86715,1,0,0:0:0:30:Hat Open.wav
320,192,87076,1,2,0:0:0:0:
64,192,87438,1,2,0:0:0:0:
192,192,87438,128,0,87799:0:0:0:30:Hat Open.wav
448,192,87799,1,2,0:0:0:0:
192,192,88161,1,2,0:0:0:0:
320,192,88161,128,0,88522:0:0:0:30:Hat Open.wav
64,192,88522,1,2,0:0:0:0:
448,192,88522,1,0,0:0:0:0:
192,192,88793,1,2,0:0:0:0:
320,192,88793,1,0,0:0:0:0:
64,192,89064,1,2,0:0:0:0:
448,192,89064,1,0,0:0:0:0:
