osu file format v14

[General]
AudioFilename: audio.ogg
AudioLeadIn: 0
PreviewTime: 54908
Countdown: 0
SampleSet: Soft
StackLeniency: 0.7
Mode: 3
LetterboxInBreaks: 0
SpecialStyle: 0
WidescreenStoryboard: 1

[Editor]
DistanceSpacing: 0.9
BeatDivisor: 4
GridSize: 16
TimelineZoom: 1.8

[Metadata]
Title:Idol (TV Size)
TitleUnicode:アイドル (TV Size)
Artist:YOASOBI
ArtistUnicode:YOASOBI
Creator:Mirsaaa
Version:Easy
Source:【推しの子】
Tags:Japanese Anime pop Jpop J-pop opening op Oshi no ko Her Fans Their Idol's Children 【Oshi No Ko】 My Favorite Idol Ayase Ikura Ikuta Lilas 幾田りら 星野 愛久愛海 瑠美衣 Hoshino Akuamarin Aquamarine Aqua アクア Ruby Rubii Ai アイ Aidoru my star Aka Akasaka 赤坂 アカ Mengo Yokoyari 横槍 メンゴ Ainer
BeatmapID:4097531
BeatmapSetID:1974438

[Difficulty]
HPDrainRate:6.5
CircleSize:4
OverallDifficulty:6.5
ApproachRate:5
SliderMultiplier:1.4
SliderTickRate:1

[Events]
//Background and Video events
0,0,"BEGEH.jpg",0,0
//Break Periods
//Storyboard Layer 0 (Background)
//Storyboard Layer 1 (Fail)
//Storyboard Layer 2 (Pass)
//Storyboard Layer 3 (Foreground)
//Storyboard Layer 4 (Overlay)
//Storyboard Sound Samples
Sample,84546,0,"Hat Open.wav",30
Sample,85269,0,"Hat Open.wav",30
Sample,85992,0,"Hat Open.wav",30
Sample,86715,0,"Hat Open.wav",30
Sample,87438,0,"Hat Open.wav",30
Sample,88161,0,"Hat Open.wav",30

[TimingPoints]
330,361.44578313253,4,2,1,40,1,0
55269,-100,4,2,1,40,0,1
78402,-100,4,2,1,40,0,0

[HitObjects]
320,192,330,5,2,0:0:0:0:
448,192,330,1,0,0:0:0:0:
64,192,691,1,0,0:0:0:0:
192,192,1052,1,8,0:0:0:0:
320,192,1414,1,0,0:0:0:0:
448,192,1775,1,0,0:0:0:0:
64,192,2137,1,2,0:0:0:0:
192,192,2137,1,0,0:0:0:0:
320,192,2679,1,2,0:0:0:0:
448,192,2679,1,0,0:0:0:0:
64,192,3221,1,2,0:0:0:0:
192,192,3221,1,0,0:0:0:0:
448,192,3583,1,0,0:0:0:0:
320,192,3944,1,8,0:0:0:0:
192,192,4305,1,0,0:0:0:0:
64,192,4667,1,0,0:0:0:0:
320,192,5028,1,2,0:0:0:0:
448,192,5028,1,0,0:0:0:0:
64,192,5570,1,2,0:0:0:0:
192,192,5570,1,0,0:0:0:0:
320,192,6113,1,2,0:0:0:0:
448,192,6113,1,0,0:0:0:0:
192,192,6474,1,0,0:0:0:0:
448,192,6836,1,8,0:0:0:0:
64,192,7197,1,0,0:0:0:0:
320,192,7558,1,0,0:0:0:0:
64,192,7920,1,2,0:0:0:0:
192,192,7920,1,0,0:0:0:0:
320,192,8462,1,2,0:0:0:0:
448,192,8462,1,0,0:0:0:0:
64,192,9004,1,2,0:0:0:0:
192,192,9004,1,0,0:0:0:0:
320,192,9366,128,0,9727:0:0:0:0:
64,192,9727,1,8,0:0:0:0:
448,192,10089,1,0,0:0:0:0:
192,192,10450,1,0,0:0:0:0:
320,192,10811,1,2,0:0:0:0:
448,192,10811,1,0,0:0:0:0:
64,192,11354,1,2,0:0:0:0:
192,192,11354,1,0,0:0:0:0:
320,192,11896,1,2,0:0:0:0:
448,192,11896,1,0,0:0:0:0:
192,192,12257,1,0,0:0:0:0:
64,192,12619,1,2,0:0:0:0:
448,192,12619,1,0,0:0:0:0:
320,192,12980,1,0,0:0:0:0:
64,192,13161,1,2,0:0:0:0:
192,192,13161,1,4,0:0:0:0:
320,192,13522,1,2,0:0:0:0:
448,192,13522,1,0,0:0:0:0:
64,192,13884,1,2,0:0:0:0:
192,192,14064,1,2,0:0:0:0:
320,192,14064,1,0,0:0:0:0:
448,192,14426,1,0,0:0:0:0:
64,192,14787,128,2,15149:0:0:0:0:
192,192,14787,1,4,0:0:0:0:
320,192,15149,128,0,15510:0:0:0:0:
192,192,15510,128,0,15872:0:0:0:0:
448,192,15872,128,0,16233:0:0:0:0:
320,192,16233,128,2,16595:0:0:0:0:
64,192,16595,128,0,16956:0:0:0:0:
448,192,16956,128,0,17317:0:0:0:0:
192,192,17317,128,0,17679:0:0:0:0:
320,192,17679,1,2,0:0:0:0:
448,192,17679,1,4,0:0:0:0:
64,192,18040,1,2,0:0:0:0:
192,192,18040,1,8,0:0:0:0:
320,192,18402,1,2,0:0:0:0:
64,192,18763,1,2,0:0:0:0:
448,192,18763,1,8,0:0:0:0:
192,192,19125,1,2,0:0:0:0:
320,192,19486,1,2,0:0:0:0:
448,192,19486,1,8,0:0:0:0:
192,192,19848,1,2,0:0:0:0:
64,192,20209,1,2,0:0:0:0:
448,192,20209,1,8,0:0:0:0:
320,192,20570,1,2,0:0:0:0:
64,192,20932,1,2,0:0:0:0:
192,192,20932,1,8,0:0:0:0:
448,192,21293,1,2,0:0:0:0:
192,192,21655,1,2,0:0:0:0:
320,192,21655,1,8,0:0:0:0:
64,192,22016,1,2,0:0:0:0:
320,192,22378,1,2,0:0:0:0:
448,192,22378,1,8,0:0:0:0:
192,192,22739,1,2,0:0:0:0:
64,192,23101,1,2,0:0:0:0:
448,192,23101,1,8,0:0:0:0:
192,192,23462,1,2,0:0:0:0:
320,192,23462,1,0,0:0:0:0:
64,192,23823,1,2,0:0:0:0:
448,192,23823,1,8,0:0:0:0:
192,192,24185,1,2,0:0:0:0:
320,192,24546,1,2,0:0:0:0:
448,192,24546,1,8,0:0:0:0:
64,192,24908,1,2,0:0:0:0:
192,192,25269,1,2,0:0:0:0:
320,192,25269,1,8,0:0:0:0:
448,192,25631,1,2,0:0:0:0:
64,192,25992,1,2,0:0:0:0:
192,192,25992,1,8,0:0:0:0:
320,192,26354,1,2,0:0:0:0:
64,192,26715,1,2,0:0:0:0:
448,192,26715,1,8,0:0:0:0:
192,192,27076,1,2,0:0:0:0:
320,192,27438,1,2,0:0:0:0:
448,192,27438,1,8,0:0:0:0:
64,192,27799,1,2,0:0:0:0:
192,192,28161,1,2,0:0:0:0:
320,192,28161,1,8,0:0:0:0:
448,192,28522,1,2,0:0:0:0:
64,192,28884,1,2,0:0:0:0:
192,192,28884,1,8,0:0:0:0:
320,192,29245,1,2,0:0:0:0:
448,192,29245,128,4,29607:0:0:0:0:
64,192,29607,1,2,0:0:0:0:
192,192,29607,1,8,0:0:0:0:
320,192,29968,1,2,0:0:0:0:
64,192,30329,1,2,0:0:0:0:
448,192,30329,1,8,0:0:0:0:
192,192,30691,128,2,31052:0:0:0:0:
320,192,31052,1,2,0:0:0:0:
448,192,31052,1,8,0:0:0:0:
64,192,31414,1,2,0:0:0:0:
192,192,31775,1,2,0:0:0:0:
320,192,31775,1,8,0:0:0:0:
448,192,32137,128,2,32498:0:0:0:0:
64,192,32498,1,2,0:0:0:0:
192,192,32498,1,8,0:0:0:0:
320,192,32860,128,2,33221:0:0:0:0:
64,192,33221,1,2,0:0:0:0:
448,192,33221,1,8,0:0:0:0:
192,192,33583,128,2,33944:0:0:0:0:
320,192,33944,1,2,0:0:0:0:
448,192,33944,128,8,34305:0:0:0:0:
64,192,34305,1,2,0:0:0:0:
320,192,34486,1,8,0:0:0:0:
192,192,34667,1,10,0:0:0:0:
448,192,34848,1,2,0:0:0:0:
64,192,35028,128,2,35390:0:0:0:0:
320,192,35028,1,4,0:0:0:0:
192,192,35390,1,2,0:0:0:0:
448,192,35390,1,8,0:0:0:0:
320,192,35751,1,2,0:0:0:0:
64,192,36113,1,2,0:0:0:0:
192,192,36113,1,8,0:0:0:0:
448,192,36474,128,2,36836:0:0:0:0:
64,192,36836,1,2,0:0:0:0:
320,192,36836,1,8,0:0:0:0:
192,192,37197,1,2,0:0:0:0:
320,192,37558,1,2,0:0:0:0:
448,192,37558,1,8,0:0:0:0:
64,192,37920,128,2,38281:0:0:0:0:
320,192,38281,1,2,0:0:0:0:
448,192,38281,1,8,0:0:0:0:
320,192,38643,1,2,0:0:0:0:
64,192,38823,1,0,0:0:0:30:Hat Open.wav
448,192,39004,1,10,0:0:0:0:
192,192,39185,128,0,39546:0:0:0:30:Hat Open.wav
64,192,39546,1,0,0:0:0:30:Hat Open.wav
448,192,39727,1,10,0:0:0:0:
320,192,39908,1,8,0:0:0:0:
64,192,40089,128,10,40450:0:0:0:0:
320,192,40450,1,10,0:0:0:0:
448,192,40450,1,0,0:0:0:40:Tom2.wav
64,192,40811,1,2,0:0:0:0:
192,192,40811,128,0,41534:0:0:0:20:soft-hitfinish.wav
448,192,41534,128,2,41896:0:0:0:0:
64,192,41896,1,8,0:0:0:0:
320,192,42076,128,2,42799:0:0:0:0:
192,192,42799,1,2,0:0:0:0:
64,192,42980,128,2,43342:0:0:0:0:
448,192,43342,128,8,43703:0:0:0:0:
192,192,43703,128,2,44245:0:0:0:0:
320,192,44245,1,2,0:0:0:0:
64,192,44426,128,2,44787:0:0:0:0:
448,192,44787,1,8,0:0:0:0:
192,192,45149,1,2,0:0:0:0:
192,192,45510,1,2,0:0:0:0:
320,192,45872,128,2,46233:0:0:0:0:
64,192,46233,1,8,0:0:0:0:
192,192,46233,1,0,0:0:0:0:
320,192,46595,1,2,0:0:0:0:
448,192,46595,1,0,0:0:0:20:soft-hitfinish.wav
64,192,46956,1,2,0:0:0:0:
192,192,46956,1,8,0:0:0:0:
448,192,47317,1,2,0:0:0:0:
192,192,47679,1,2,0:0:0:0:
320,192,47679,1,8,0:0:0:0:
64,192,48040,1,2,0:0:0:0:
320,192,48402,1,2,0:0:0:0:
448,192,48402,1,8,0:0:0:0:
192,192,48763,1,2,0:0:0:0:
64,192,49125,1,2,0:0:0:0:
448,192,49125,1,8,0:0:0:0:
192,192,49486,1,2,0:0:0:0:
320,192,49486,1,4,0:0:0:0:
448,192,49848,1,2,0:0:0:0:
192,192,50209,1,2,0:0:0:0:
448,192,50570,1,2,0:0:0:0:
320,192,50932,1,2,0:0:0:0:
64,192,51293,1,2,0:0:0:0:
320,192,51655,1,2,0:0:0:0:
64,192,52016,1,2,0:0:0:0:
320,192,52378,1,2,0:0:0:0:
448,192,52378,1,8,0:0:0:0:
64,192,52920,1,10,0:0:0:0:
320,192,53101,1,10,0:0:0:0:
192,192,53281,128,8,53643:0:0:0:0:
320,192,53643,1,10,0:0:0:0:
448,192,53643,1,0,0:0:0:40:Tom3.wav
64,192,54004,1,2,0:0:0:0:
192,192,54004,1,8,0:0:0:0:
448,192,54366,1,10,0:0:0:0:
192,192,54546,1,2,0:0:0:0:
320,192,54546,1,0,0:0:0:0:
64,192,54908,1,0,0:0:0:0:
192,192,55089,1,0,0:0:0:0:
320,192,55269,1,2,0:0:0:0:
448,192,55269,1,4,0:0:0:0:
64,192,55631,1,2,0:0:0:0:
192,192,55631,1,8,0:0:0:0:
320,192,55992,1,2,0:0:0:0:
64,192,56354,1,2,0:0:0:0:
448,192,56354,1,8,0:0:0:0:
192,192,56715,1,2,0:0:0:0:
320,192,57076,1,2,0:0:0:0:
448,192,57076,1,8,0:0:0:0:
192,192,57438,1,2,0:0:0:0:
320,192,57799,1,10,0:0:0:0:
192,192,57980,1,0,0:0:0:0:
64,192,58161,1,2,0:0:0:0:
320,192,58522,1,2,0:0:0:0:
448,192,58522,1,8,0:0:0:0:
192,192,58884,1,2,0:0:0:0:
64,192,59245,1,2,0:0:0:0:
448,192,59245,1,8,0:0:0:0:
320,192,59607,1,2,0:0:0:0:
64,192,59968,1,2,0:0:0:0:
192,192,59968,1,8,0:0:0:0:
448,192,60149,1,8,0:0:0:0:
192,192,60329,128,2,60691:0:0:0:0:
320,192,60691,128,2,61052:0:0:0:0:
64,192,61052,1,2,0:0:0:0:
448,192,61052,1,4,0:0:0:0:
192,192,61414,1,2,0:0:0:0:
320,192,61414,1,8,0:0:0:0:
448,192,61775,1,2,0:0:0:0:
64,192,62137,1,2,0:0:0:0:
192,192,62137,1,8,0:0:0:0:
320,192,62498,1,2,0:0:0:0:
64,192,62860,1,2,0:0:0:0:
448,192,62860,1,8,0:0:0:0:
192,192,63221,1,2,0:0:0:0:
320,192,63583,1,10,0:0:0:0:
64,192,63763,1,0,0:0:0:0:
448,192,63944,1,2,0:0:0:0:
64,192,64305,1,2,0:0:0:0:
192,192,64305,1,8,0:0:0:0:
448,192,64667,1,2,0:0:0:0:
192,192,65028,1,2,0:0:0:0:
320,192,65028,1,8,0:0:0:0:
64,192,65390,1,2,0:0:0:0:
320,192,65751,1,2,0:0:0:0:
448,192,65751,1,8,0:0:0:0:
192,192,66113,1,2,0:0:0:0:
320,192,66474,128,2,66836:0:0:0:0:
64,192,66836,1,2,0:0:0:0:
192,192,66836,1,4,0:0:0:0:
448,192,67197,1,10,0:0:0:0:
64,192,67378,1,0,0:0:0:0:
320,192,67558,128,2,67920:0:0:0:0:
192,192,67920,128,10,68281:0:0:0:0:
448,192,68281,1,2,0:0:0:0:
64,192,68643,1,10,0:0:0:0:
320,192,68823,1,0,0:0:0:0:
192,192,69004,128,2,69366:0:0:0:0:
448,192,69366,128,10,69727:0:0:0:0:
64,192,69727,1,2,0:0:0:0:
320,192,70089,128,10,70450:0:0:0:0:
192,192,70450,1,2,0:0:0:0:
448,192,70631,1,0,0:0:0:0:
64,192,70811,1,10,0:0:0:0:
320,192,70992,1,0,0:0:0:0:
192,192,71173,128,2,71534:0:0:0:0:
448,192,71534,128,10,71896:0:0:0:0:
320,192,71896,128,2,72257:0:0:0:0:
192,192,72257,128,10,72619:0:0:0:0:
64,192,72619,128,2,72980:0:0:0:0:
448,192,72980,1,10,0:0:0:0:
192,192,73161,1,0,0:0:0:0:
320,192,73342,128,2,73703:0:0:0:0:
64,192,73703,128,10,74064:0:0:0:0:
448,192,74064,1,2,0:0:0:0:
192,192,74426,1,10,0:0:0:0:
320,192,74607,1,0,0:0:0:0:
448,192,74787,128,2,75149:0:0:0:0:
192,192,75149,128,10,75510:0:0:0:0:
320,192,75510,128,2,75872:0:0:0:0:
64,192,75872,128,10,76233:0:0:0:0:
448,192,76233,128,2,76595:0:0:0:0:
64,192,76595,1,10,0:0:0:0:
192,192,76775,128,2,77137:0:0:0:0:
320,192,76775,1,4,0:0:0:0:
448,192,77137,128,0,77498:0:0:0:0:
64,192,77498,1,0,0:0:0:0:
320,192,77679,128,2,78040:0:0:0:0:
192,192,78040,1,2,0:0:0:0:
64,192,78402,1,2,0:0:0:0:
448,192,78402,1,4,0:0:0:0:
320,192,78763,1,2,0:0:0:0:
192,192,79125,1,2,0:0:0:0:
64,192,79486,1,2,0:0:0:0:
448,192,79848,1,2,0:0:0:0:
64,192,80209,1,2,0:0:0:0:
192,192,80570,1,2,0:0:0:0:
320,192,80932,1,2,0:0:0:0:
64,192,81293,1,2,0:0:0:0:
448,192,81655,1,2,0:0:0:0:
192,192,82016,1,2,0:0:0:0:
320,192,82378,1,2,0:0:0:0:
448,192,82739,1,2,0:0:0:0:
64,192,83101,1,2,0:0:0:0:
320,192,83462,1,2,0:0:0:0:
192,192,83823,1,2,0:0:0:0:
64,192,84185,128,2,84546:0:0:0:0:
448,192,84185,1,4,0:0:0:0:
320,192,84546,128,2,84908:0:0:0:0:
192,192,84908,128,2,85269:0:0:0:0:
448,192,85269,128,2,85631:0:0:0:0:
320,192,85631,128,2,85992:0:0:0:0:
64,192,85992,128,2,86354:0:0:0:0:
448,192,86354,128,2,86715:0:0:0:0:
192,192,86715,128,2,87076:0:0:0:0:
320,192,87076,128,2,87438:0:0:0:0:
64,192,87438,128,2,87799:0:0:0:0:
192,192,87799,128,2,88161:0:0:0:0:
448,192,88161,128,2,88522:0:0:0:0:
64,192,88522,1,2,0:0:0:0:
320,192,88793,1,2,0:0:0:0:
192,192,89064,1,2,0:0:0:0:
