osu file format v14

[General]
AudioFilename: audio.ogg
AudioLeadIn: 0
PreviewTime: 54908
Countdown: 0
SampleSet: Soft
StackLeniency: 0.7
Mode: 3
LetterboxInBreaks: 0
SpecialStyle: 0
WidescreenStoryboard: 1

[Editor]
DistanceSpacing: 0.9
BeatDivisor: 4
GridSize: 16
TimelineZoom: 2.5

[Metadata]
Title:Idol (TV Size)
TitleUnicode:アイドル (TV Size)
Artist:YOASOBI
ArtistUnicode:YOASOBI
Creator:Mirsaaa
Version:Ai no Uso
Source:【推しの子】
Tags:Japanese Anime pop Jpop J-pop opening op Oshi no ko Her Fans Their Idol's Children 【Oshi No Ko】 My Favorite Idol Ayase Ikura Ikuta Lilas 幾田りら 星野 愛久愛海 瑠美衣 Hoshino Akuamarin Aquamarine Aqua アクア Ruby Rubii Ai アイ Aidoru my star Aka Akasaka 赤坂 アカ Mengo Yokoyari 横槍 メンゴ Ainer
BeatmapID:4098209
BeatmapSetID:1974438

[Difficulty]
HPDrainRate:8.5
CircleSize:4
OverallDifficulty:8
ApproachRate:5
SliderMultiplier:1.4
SliderTickRate:1

[Events]
//Background and Video events
0,0,"BEGEH.jpg",0,0
//Break Periods
//Storyboard Layer 0 (Background)
//Storyboard Layer 1 (Fail)
//Storyboard Layer 2 (Pass)
//Storyboard Layer 3 (Foreground)
//Storyboard Layer 4 (Overlay)
//Storyboard Sound Samples

[TimingPoints]
330,361.44578313253,4,2,1,40,1,0
55269,-100,4,2,1,40,0,1
78402,-100,4,2,1,40,0,0

[HitObjects]
64,192,330,5,2,0:0:0:0:
320,192,330,1,0,0:0:0:0:
448,192,330,1,0,0:0:0:0:
192,192,510,1,0,0:0:0:0:
320,192,691,1,0,0:0:0:0:
448,192,736,1,0,0:0:0:0:
192,192,781,1,0,0:0:0:0:
320,192,826,1,0,0:0:0:0:
64,192,872,1,0,0:0:0:0:
192,192,917,1,0,0:0:0:0:
448,192,962,1,0,0:0:0:0:
320,192,1007,1,0,0:0:0:0:
64,192,1052,1,8,0:0:0:0:
192,192,1052,1,0,0:0:0:0:
64,192,1233,1,0,0:0:0:0:
320,192,1414,1,0,0:0:0:0:
320,192,1595,1,0,0:0:0:0:
192,192,1775,1,0,0:0:0:0:
192,192,1956,1,0,0:0:0:0:
64,192,2137,1,2,0:0:0:0:
320,192,2137,1,0,0:0:0:0:
448,192,2137,1,0,0:0:0:0:
448,192,2317,1,0,0:0:0:0:
192,192,2498,1,8,0:0:0:0:
320,192,2498,1,0,0:0:0:0:
64,192,2679,1,2,0:0:0:0:
192,192,2679,1,0,0:0:0:0:
448,192,2679,1,0,0:0:0:0:
320,192,2860,128,0,3040:0:0:0:0:
448,192,3040,1,0,0:0:0:0:
64,192,3221,1,2,0:0:0:0:
192,192,3221,1,0,0:0:0:0:
320,192,3221,1,0,0:0:0:0:
448,192,3402,1,0,0:0:0:0:
192,192,3583,1,0,0:0:0:0:
64,192,3628,1,0,0:0:0:0:
320,192,3673,1,0,0:0:0:0:
192,192,3718,1,0,0:0:0:0:
448,192,3763,1,0,0:0:0:0:
320,192,3808,1,0,0:0:0:0:
64,192,3854,1,0,0:0:0:0:
192,192,3899,1,0,0:0:0:0:
320,192,3944,1,8,0:0:0:0:
448,192,3944,1,0,0:0:0:0:
448,192,4125,1,0,0:0:0:0:
64,192,4305,1,0,0:0:0:0:
64,192,4486,1,0,0:0:0:0:
320,192,4667,1,0,0:0:0:0:
320,192,4848,1,0,0:0:0:0:
64,192,5028,1,2,0:0:0:0:
192,192,5028,1,0,0:0:0:0:
448,192,5028,1,0,0:0:0:0:
192,192,5209,1,0,0:0:0:0:
64,192,5390,1,8,0:0:0:0:
320,192,5390,1,0,0:0:0:0:
192,192,5570,1,2,0:0:0:0:
320,192,5570,1,0,0:0:0:0:
448,192,5570,1,0,0:0:0:0:
64,192,5751,128,0,5932:0:0:0:0:
192,192,5932,1,0,0:0:0:0:
64,192,6113,1,2,0:0:0:0:
320,192,6113,1,0,0:0:0:0:
448,192,6113,1,0,0:0:0:0:
448,192,6293,1,0,0:0:0:0:
64,192,6474,1,0,0:0:0:0:
320,192,6519,1,0,0:0:0:0:
192,192,6564,1,0,0:0:0:0:
448,192,6610,1,0,0:0:0:0:
64,192,6655,1,0,0:0:0:0:
320,192,6700,1,0,0:0:0:0:
192,192,6745,1,0,0:0:0:0:
64,192,6790,1,0,0:0:0:0:
320,192,6836,1,8,0:0:0:0:
448,192,6836,1,0,0:0:0:0:
448,192,7016,1,0,0:0:0:0:
192,192,7197,1,0,0:0:0:0:
192,192,7378,1,0,0:0:0:0:
320,192,7558,1,0,0:0:0:0:
320,192,7739,1,0,0:0:0:0:
64,192,7920,1,2,0:0:0:0:
192,192,7920,1,0,0:0:0:0:
448,192,7920,1,0,0:0:0:0:
64,192,8101,1,0,0:0:0:0:
192,192,8281,1,8,0:0:0:0:
320,192,8281,1,0,0:0:0:0:
64,192,8462,1,2,0:0:0:0:
320,192,8462,1,0,0:0:0:0:
448,192,8462,1,0,0:0:0:0:
192,192,8643,128,0,8823:0:0:0:0:
64,192,8823,1,0,0:0:0:0:
192,192,9004,1,2,0:0:0:0:
320,192,9004,1,0,0:0:0:0:
448,192,9004,1,0,0:0:0:0:
64,192,9185,1,0,0:0:0:0:
448,192,9366,1,0,0:0:0:0:
192,192,9411,1,0,0:0:0:0:
320,192,9456,1,0,0:0:0:0:
64,192,9501,1,0,0:0:0:0:
448,192,9546,1,0,0:0:0:0:
192,192,9592,1,0,0:0:0:0:
320,192,9637,1,0,0:0:0:0:
448,192,9682,1,0,0:0:0:0:
64,192,9727,1,8,0:0:0:0:
192,192,9727,1,0,0:0:0:0:
64,192,9908,1,0,0:0:0:0:
448,192,10089,1,0,0:0:0:0:
448,192,10269,1,0,0:0:0:0:
192,192,10450,1,0,0:0:0:0:
192,192,10631,1,0,0:0:0:0:
64,192,10811,1,2,0:0:0:0:
320,192,10811,1,0,0:0:0:0:
448,192,10811,1,0,0:0:0:0:
320,192,10992,1,0,0:0:0:0:
192,192,11173,1,8,0:0:0:0:
448,192,11173,1,0,0:0:0:0:
64,192,11354,1,2,0:0:0:0:
192,192,11354,1,0,0:0:0:0:
320,192,11354,1,0,0:0:0:0:
448,192,11534,128,0,11715:0:0:0:0:
320,192,11715,1,0,0:0:0:0:
192,192,11805,1,0,0:0:0:0:
64,192,11896,128,2,12076:0:0:0:0:
320,192,11896,1,0,0:0:0:0:
448,192,11896,128,0,12438:0:0:0:0:
192,192,12257,128,0,12619:0:0:0:0:
320,192,12257,128,0,12438:0:0:0:0:
64,192,12619,128,2,12980:0:0:0:0:
320,192,12619,128,0,12845:0:0:0:0:
448,192,12619,1,0,0:0:0:0:
192,192,12845,128,0,12980:0:0:0:0:
448,192,12980,128,0,13161:0:0:0:0:
64,192,13161,128,2,13522:0:0:0:0:
192,192,13161,128,4,13342:0:0:0:0:
320,192,13161,1,0,0:0:0:0:
192,192,13522,1,2,0:0:0:0:
320,192,13522,128,0,13703:0:0:0:0:
448,192,13522,128,0,13703:0:0:0:0:
192,192,13703,128,0,13884:0:0:0:0:
64,192,13884,1,2,0:0:0:0:
320,192,13884,128,0,14064:0:0:0:0:
448,192,13884,1,0,0:0:0:0:
64,192,14064,128,2,14245:0:0:0:0:
192,192,14064,128,0,14426:0:0:0:0:
448,192,14064,1,0,0:0:0:0:
320,192,14426,1,0,0:0:0:0:
448,192,14426,1,0,0:0:0:0:
64,192,14787,128,2,16233:0:0:0:0:
192,192,14787,128,4,14968:0:0:0:0:
448,192,14787,1,0,0:0:0:0:
320,192,14968,1,0,0:0:0:0:
192,192,15058,1,2,0:0:0:0:
448,192,15058,1,0,0:0:0:0:
320,192,15149,128,0,15329:0:0:0:0:
192,192,15329,1,2,0:0:0:0:
448,192,15329,1,0,0:0:0:0:
448,192,15510,128,0,15691:0:0:0:0:
192,192,15691,1,2,0:0:0:0:
320,192,15691,1,0,0:0:0:0:
192,192,15872,128,0,16052:0:0:0:0:
320,192,16052,1,2,0:0:0:0:
448,192,16052,1,0,0:0:0:0:
320,192,16233,128,2,16414:0:0:0:0:
448,192,16233,128,0,17679:0:0:0:0:
192,192,16414,1,0,0:0:0:0:
64,192,16504,1,2,0:0:0:0:
320,192,16504,1,0,0:0:0:0:
192,192,16595,128,0,16775:0:0:0:0:
64,192,16775,1,2,0:0:0:0:
320,192,16775,1,0,0:0:0:0:
64,192,16956,128,0,17137:0:0:0:0:
192,192,17137,1,2,0:0:0:0:
320,192,17137,1,0,0:0:0:0:
320,192,17317,128,0,17679:0:0:0:0:
64,192,17498,1,2,0:0:0:0:
192,192,17498,1,0,0:0:0:0:
64,192,17679,1,2,0:0:0:0:
192,192,17679,1,4,0:0:0:0:
192,192,17860,1,0,0:0:0:0:
448,192,17860,1,0,0:0:0:0:
64,192,18040,1,2,0:0:0:0:
320,192,18040,1,8,0:0:0:0:
448,192,18040,1,0,0:0:0:0:
192,192,18221,1,0,0:0:0:0:
320,192,18221,1,0,0:0:0:0:
64,192,18311,1,0,0:0:0:0:
192,192,18402,128,2,18583:0:0:0:0:
448,192,18402,1,0,0:0:0:0:
320,192,18492,1,0,0:0:0:0:
448,192,18583,1,0,0:0:0:0:
64,192,18763,1,2,0:0:0:0:
192,192,18763,1,8,0:0:0:0:
320,192,18763,1,0,0:0:0:0:
192,192,18944,1,0,0:0:0:0:
320,192,19125,1,2,0:0:0:0:
448,192,19125,1,0,0:0:0:0:
64,192,19305,1,0,0:0:0:0:
320,192,19305,1,0,0:0:0:0:
192,192,19396,1,0,0:0:0:0:
64,192,19486,128,2,19667:0:0:0:0:
448,192,19486,1,8,0:0:0:0:
320,192,19576,1,0,0:0:0:0:
448,192,19667,1,0,0:0:0:0:
64,192,19848,1,2,0:0:0:0:
320,192,19848,128,0,20028:0:0:0:0:
64,192,20028,1,0,0:0:0:0:
192,192,20209,1,2,0:0:0:0:
320,192,20209,1,8,0:0:0:0:
448,192,20209,1,0,0:0:0:0:
448,192,20390,1,0,0:0:0:0:
64,192,20570,1,2,0:0:0:0:
192,192,20570,1,0,0:0:0:0:
192,192,20751,1,0,0:0:0:0:
448,192,20751,1,0,0:0:0:0:
64,192,20932,1,2,0:0:0:0:
320,192,20932,1,8,0:0:0:0:
448,192,20932,1,0,0:0:0:0:
192,192,21022,1,0,0:0:0:0:
64,192,21113,1,0,0:0:0:0:
320,192,21113,1,0,0:0:0:0:
448,192,21203,1,0,0:0:0:0:
192,192,21293,1,2,0:0:0:0:
320,192,21293,1,0,0:0:0:0:
64,192,21384,1,0,0:0:0:0:
192,192,21474,1,0,0:0:0:0:
448,192,21474,1,0,0:0:0:0:
64,192,21655,1,2,0:0:0:0:
192,192,21655,1,8,0:0:0:0:
448,192,21655,1,0,0:0:0:0:
64,192,21836,1,0,0:0:0:0:
320,192,22016,1,2,0:0:0:0:
448,192,22016,1,0,0:0:0:0:
64,192,22197,1,0,0:0:0:0:
448,192,22197,1,0,0:0:0:0:
192,192,22287,1,0,0:0:0:0:
64,192,22378,1,2,0:0:0:0:
320,192,22378,1,8,0:0:0:0:
448,192,22468,1,0,0:0:0:0:
192,192,22558,1,0,0:0:0:0:
320,192,22558,1,0,0:0:0:0:
64,192,22649,1,0,0:0:0:0:
192,192,22739,128,2,22920:0:0:0:0:
448,192,22739,1,0,0:0:0:0:
448,192,22920,1,0,0:0:0:0:
64,192,23101,1,2,0:0:0:0:
192,192,23101,1,8,0:0:0:0:
320,192,23101,1,0,0:0:0:0:
192,192,23281,1,0,0:0:0:0:
64,192,23372,1,0,0:0:0:0:
320,192,23462,1,2,0:0:0:0:
448,192,23462,1,0,0:0:0:0:
64,192,23643,1,0,0:0:0:0:
320,192,23643,1,0,0:0:0:0:
64,192,23823,1,2,0:0:0:0:
192,192,23823,1,8,0:0:0:0:
448,192,23823,1,0,0:0:0:0:
192,192,24004,1,0,0:0:0:0:
320,192,24004,1,0,0:0:0:0:
448,192,24095,1,0,0:0:0:0:
64,192,24185,1,2,0:0:0:0:
320,192,24185,128,0,24366:0:0:0:0:
192,192,24275,1,0,0:0:0:0:
64,192,24366,1,0,0:0:0:0:
192,192,24546,1,2,0:0:0:0:
320,192,24546,1,8,0:0:0:0:
448,192,24546,1,0,0:0:0:0:
320,192,24727,1,0,0:0:0:0:
64,192,24908,1,2,0:0:0:0:
192,192,24908,1,0,0:0:0:0:
192,192,25089,1,0,0:0:0:0:
448,192,25089,1,0,0:0:0:0:
320,192,25179,1,0,0:0:0:0:
64,192,25269,1,2,0:0:0:0:
448,192,25269,1,8,0:0:0:0:
192,192,25360,1,0,0:0:0:0:
64,192,25450,1,0,0:0:0:0:
320,192,25450,1,0,0:0:0:0:
192,192,25631,128,2,25811:0:0:0:0:
448,192,25631,1,0,0:0:0:0:
448,192,25811,1,0,0:0:0:0:
64,192,25992,1,2,0:0:0:0:
192,192,25992,1,8,0:0:0:0:
320,192,25992,1,0,0:0:0:0:
64,192,26173,1,0,0:0:0:0:
320,192,26354,1,2,0:0:0:0:
448,192,26354,1,0,0:0:0:0:
192,192,26534,1,0,0:0:0:0:
320,192,26534,1,0,0:0:0:0:
64,192,26715,1,2,0:0:0:0:
192,192,26715,1,8,0:0:0:0:
448,192,26715,1,0,0:0:0:0:
320,192,26805,1,0,0:0:0:0:
64,192,26896,1,0,0:0:0:0:
448,192,26896,1,0,0:0:0:0:
192,192,26986,1,0,0:0:0:0:
64,192,27076,1,2,0:0:0:0:
320,192,27076,1,0,0:0:0:0:
448,192,27167,1,0,0:0:0:0:
192,192,27257,1,0,0:0:0:0:
320,192,27257,1,0,0:0:0:0:
192,192,27438,1,2,0:0:0:0:
320,192,27438,1,8,0:0:0:0:
448,192,27438,1,0,0:0:0:0:
448,192,27619,1,0,0:0:0:0:
64,192,27799,1,2,0:0:0:0:
192,192,27799,1,0,0:0:0:0:
192,192,27980,1,0,0:0:0:0:
448,192,27980,1,0,0:0:0:0:
320,192,28070,1,0,0:0:0:0:
64,192,28161,1,2,0:0:0:0:
448,192,28161,1,8,0:0:0:0:
192,192,28251,1,0,0:0:0:0:
64,192,28342,1,0,0:0:0:0:
320,192,28342,1,0,0:0:0:0:
448,192,28432,1,0,0:0:0:0:
192,192,28522,128,2,29064:0:0:0:0:
320,192,28522,128,0,28703:0:0:0:0:
64,192,28703,1,0,0:0:0:0:
64,192,28884,128,2,29245:0:0:0:0:
320,192,28884,1,8,0:0:0:0:
448,192,28884,1,0,0:0:0:0:
448,192,29064,1,0,0:0:0:0:
192,192,29245,1,2,0:0:0:0:
320,192,29245,128,4,29336:0:0:0:0:
448,192,29245,128,0,29336:0:0:0:0:
64,192,29426,1,0,0:0:0:0:
320,192,29516,128,0,29607:0:0:0:0:
448,192,29516,128,0,29607:0:0:0:0:
64,192,29607,1,2,0:0:0:0:
192,192,29607,1,8,0:0:0:0:
192,192,29787,128,0,29878:0:0:0:0:
448,192,29787,128,0,29878:0:0:0:0:
320,192,29968,1,2,0:0:0:0:
448,192,29968,1,0,0:0:0:0:
64,192,30149,1,0,0:0:0:0:
320,192,30149,1,0,0:0:0:0:
64,192,30329,1,2,0:0:0:0:
192,192,30329,1,8,0:0:0:0:
448,192,30329,1,0,0:0:0:0:
320,192,30510,1,0,0:0:0:0:
448,192,30510,1,0,0:0:0:0:
64,192,30691,128,2,30781:0:0:0:0:
192,192,30691,128,0,30781:0:0:0:0:
448,192,30872,1,0,0:0:0:0:
64,192,30962,128,0,31052:0:0:0:0:
192,192,30962,128,0,31052:0:0:0:0:
320,192,31052,1,2,0:0:0:0:
448,192,31052,1,8,0:0:0:0:
64,192,31233,128,0,31323:0:0:0:0:
320,192,31233,128,0,31323:0:0:0:0:
64,192,31414,1,2,0:0:0:0:
192,192,31414,1,0,0:0:0:0:
192,192,31595,1,0,0:0:0:0:
448,192,31595,1,0,0:0:0:0:
64,192,31775,1,2,0:0:0:0:
320,192,31775,1,8,0:0:0:0:
448,192,31775,1,0,0:0:0:0:
64,192,31956,1,0,0:0:0:0:
192,192,31956,1,0,0:0:0:0:
320,192,32137,128,2,32317:0:0:0:0:
448,192,32137,128,0,32317:0:0:0:0:
64,192,32317,128,0,32679:0:0:0:0:
192,192,32317,1,0,0:0:0:0:
192,192,32498,128,2,32679:0:0:0:0:
320,192,32498,1,8,0:0:0:0:
448,192,32498,1,0,0:0:0:0:
320,192,32679,1,0,0:0:0:0:
448,192,32769,128,0,32860:0:0:0:0:
64,192,32860,128,2,33040:0:0:0:0:
192,192,32860,128,0,33040:0:0:0:0:
320,192,33040,1,0,0:0:0:0:
448,192,33040,128,0,33402:0:0:0:0:
64,192,33221,1,2,0:0:0:0:
192,192,33221,1,8,0:0:0:0:
320,192,33221,128,0,33402:0:0:0:0:
192,192,33402,1,0,0:0:0:0:
64,192,33583,128,2,33763:0:0:0:0:
448,192,33583,128,0,33763:0:0:0:0:
192,192,33763,128,0,33944:0:0:0:0:
320,192,33763,1,0,0:0:0:0:
64,192,33944,128,2,34125:0:0:0:0:
320,192,33944,128,8,34305:0:0:0:0:
448,192,33944,1,0,0:0:0:0:
192,192,34125,1,0,0:0:0:0:
448,192,34125,128,0,34305:0:0:0:0:
64,192,34305,1,2,0:0:0:0:
192,192,34305,1,0,0:0:0:0:
320,192,34486,1,8,0:0:0:0:
448,192,34486,1,0,0:0:0:0:
64,192,34576,1,8,0:0:0:0:
192,192,34576,1,0,0:0:0:0:
320,192,34667,1,2,0:0:0:0:
448,192,34667,1,8,0:0:0:0:
192,192,34757,1,0,0:0:0:0:
64,192,34848,1,2,0:0:0:0:
448,192,34848,1,0,0:0:0:0:
320,192,34938,1,0,0:0:0:0:
64,192,35028,128,2,35119:0:0:0:0:
192,192,35028,128,4,35119:0:0:0:0:
448,192,35028,1,0,0:0:0:0:
320,192,35209,1,0,0:0:0:30:Hat Open.wav
64,192,35299,128,0,35390:0:0:0:0:
192,192,35299,128,0,35390:0:0:0:0:
320,192,35390,1,2,0:0:0:0:
448,192,35390,1,8,0:0:0:0:
192,192,35570,128,0,35661:0:0:0:30:Hat Open.wav
448,192,35570,128,0,35661:0:0:0:0:
64,192,35751,1,2,0:0:0:0:
192,192,35751,1,0,0:0:0:0:
64,192,35932,1,0,0:0:0:30:Hat Open.wav
320,192,35932,1,0,0:0:0:0:
192,192,36113,1,2,0:0:0:0:
320,192,36113,1,8,0:0:0:0:
448,192,36113,1,0,0:0:0:0:
64,192,36293,1,0,0:0:0:30:Hat Open.wav
192,192,36293,1,0,0:0:0:0:
320,192,36474,128,2,36564:0:0:0:0:
448,192,36474,128,0,36564:0:0:0:0:
192,192,36655,1,0,0:0:0:30:Hat Open.wav
320,192,36745,128,0,36836:0:0:0:0:
448,192,36745,128,0,36836:0:0:0:0:
64,192,36836,1,2,0:0:0:0:
192,192,36836,1,8,0:0:0:0:
64,192,37016,128,0,37107:0:0:0:30:Hat Open.wav
320,192,37016,128,0,37107:0:0:0:0:
320,192,37197,1,2,0:0:0:0:
448,192,37197,1,0,0:0:0:0:
192,192,37378,1,0,0:0:0:30:Hat Open.wav
448,192,37378,1,0,0:0:0:0:
320,192,37468,1,0,0:0:0:0:
64,192,37558,1,2,0:0:0:0:
192,192,37558,1,8,0:0:0:0:
448,192,37558,1,0,0:0:0:0:
64,192,37739,1,0,0:0:0:30:Hat Open.wav
320,192,37739,1,0,0:0:0:0:
64,192,37920,128,2,38101:0:0:0:0:
192,192,37920,128,0,38101:0:0:0:0:
320,192,38101,128,0,38462:0:0:0:30:Hat Open.wav
448,192,38101,1,0,0:0:0:0:
64,192,38281,1,2,0:0:0:0:
192,192,38281,1,8,0:0:0:0:
448,192,38281,128,0,38462:0:0:0:0:
64,192,38462,1,0,0:0:0:30:Hat Open.wav
192,192,38552,128,0,38643:0:0:0:0:
320,192,38643,128,2,38823:0:0:0:0:
448,192,38643,128,0,38823:0:0:0:0:
64,192,38823,1,0,0:0:0:30:Hat Open.wav
192,192,38823,128,0,39185:0:0:0:0:
64,192,39004,128,2,39185:0:0:0:0:
320,192,39004,1,8,0:0:0:0:
448,192,39004,1,0,0:0:0:0:
320,192,39185,128,0,39366:0:0:0:30:Hat Open.wav
448,192,39185,128,0,39366:0:0:0:0:
64,192,39366,1,2,0:0:0:0:
192,192,39366,1,0,0:0:0:0:
192,192,39546,128,0,39727:0:0:0:30:Hat Open.wav
320,192,39546,1,0,0:0:0:0:
64,192,39727,128,2,39908:0:0:0:0:
320,192,39727,1,8,0:0:0:0:
448,192,39727,1,0,0:0:0:0:
192,192,39908,1,8,0:0:0:0:
448,192,39908,1,0,0:0:0:0:
64,192,39998,1,8,0:0:0:0:
320,192,39998,1,0,0:0:0:0:
192,192,40089,1,2,0:0:0:0:
448,192,40089,128,8,40269:0:0:0:0:
64,192,40269,1,2,0:0:0:0:
192,192,40269,1,0,0:0:0:40:Tom1.wav
320,192,40450,1,10,0:0:0:0:
448,192,40450,1,0,0:0:0:40:Tom2.wav
192,192,40631,1,0,0:0:0:0:
320,192,40721,1,0,0:0:0:0:
64,192,40811,1,2,0:0:0:0:
192,192,40811,1,0,0:0:0:20:soft-hitfinish.wav
448,192,40811,1,0,0:0:0:0:
320,192,41173,1,0,0:0:0:0:
192,192,41354,1,2,0:0:0:0:
448,192,41354,1,0,0:0:0:0:
64,192,41534,1,2,0:0:0:0:
320,192,41534,1,0,0:0:0:0:
64,192,41896,1,8,0:0:0:0:
192,192,41896,1,0,0:0:0:0:
320,192,41896,1,0,0:0:0:0:
448,192,41896,1,0,0:0:0:0:
64,192,42076,1,2,0:0:0:0:
192,192,42076,1,0,0:0:0:0:
64,192,42438,1,2,0:0:0:0:
448,192,42438,1,0,0:0:0:0:
192,192,42619,1,0,0:0:0:0:
320,192,42799,1,2,0:0:0:0:
448,192,42799,1,0,0:0:0:0:
64,192,42980,1,2,0:0:0:0:
192,192,42980,1,0,0:0:0:0:
64,192,43342,1,8,0:0:0:0:
192,192,43342,1,0,0:0:0:0:
320,192,43342,1,0,0:0:0:0:
448,192,43342,1,0,0:0:0:0:
320,192,43703,1,2,0:0:0:0:
448,192,43703,1,0,0:0:0:0:
64,192,43884,1,0,0:0:0:0:
192,192,44064,1,0,0:0:0:0:
64,192,44245,1,2,0:0:0:0:
448,192,44245,1,0,0:0:0:0:
192,192,44426,1,2,0:0:0:0:
320,192,44426,1,0,0:0:0:0:
64,192,44787,1,8,0:0:0:0:
192,192,44787,1,0,0:0:0:0:
320,192,44787,1,0,0:0:0:0:
448,192,44787,1,0,0:0:0:0:
320,192,45149,1,2,0:0:0:0:
448,192,45149,1,0,0:0:0:0:
448,192,45329,1,0,0:0:0:0:
64,192,45510,1,2,0:0:0:0:
192,192,45510,1,0,0:0:0:0:
64,192,45691,1,0,0:0:0:0:
320,192,45872,1,2,0:0:0:0:
448,192,45872,1,0,0:0:0:0:
64,192,45962,1,2,0:0:0:0:
192,192,45962,1,0,0:0:0:0:
320,192,46052,1,2,0:0:0:0:
448,192,46052,1,0,0:0:0:0:
192,192,46143,1,2,0:0:0:0:
64,192,46233,1,8,0:0:0:0:
320,192,46233,128,0,46414:0:0:0:0:
448,192,46233,1,0,0:0:0:0:
192,192,46414,128,0,46595:0:0:0:0:
64,192,46595,128,2,46775:0:0:0:0:
320,192,46595,1,0,0:0:0:20:soft-hitfinish.wav
448,192,46595,1,0,0:0:0:0:
448,192,46775,1,0,0:0:0:30:Hat Open.wav
64,192,46956,1,2,0:0:0:0:
192,192,46956,1,8,0:0:0:0:
320,192,46956,128,0,47137:0:0:0:0:
64,192,47137,128,0,47317:0:0:0:30:Hat Open.wav
320,192,47317,1,2,0:0:0:0:
448,192,47317,1,0,0:0:0:0:
192,192,47498,128,0,47679:0:0:0:30:Hat Open.wav
64,192,47679,1,2,0:0:0:0:
320,192,47679,1,8,0:0:0:0:
448,192,47679,1,0,0:0:0:0:
448,192,47860,128,0,48040:0:0:0:30:Hat Open.wav
192,192,48040,1,2,0:0:0:0:
320,192,48040,1,0,0:0:0:0:
64,192,48221,128,0,48402:0:0:0:30:Hat Open.wav
192,192,48402,128,2,48583:0:0:0:0:
320,192,48402,1,8,0:0:0:0:
448,192,48402,1,0,0:0:0:0:
320,192,48583,128,0,48763:0:0:0:30:Hat Open.wav
64,192,48763,128,2,48944:0:0:0:0:
192,192,48763,1,0,0:0:0:0:
320,192,48944,1,0,0:0:0:30:Hat Open.wav
64,192,49125,1,2,0:0:0:0:
192,192,49125,1,8,0:0:0:0:
448,192,49125,128,0,49305:0:0:0:0:
192,192,49305,128,0,49486:0:0:0:30:Hat Open.wav
64,192,49486,1,2,0:0:0:0:
320,192,49486,1,4,0:0:0:0:
448,192,49486,1,0,0:0:0:0:
320,192,49667,1,0,0:0:0:30:Hat Open.wav
64,192,49848,1,2,0:0:0:0:
192,192,49848,1,0,0:0:0:0:
448,192,49848,1,0,0:0:0:0:
64,192,50028,1,0,0:0:0:30:Hat Open.wav
320,192,50209,1,2,0:0:0:0:
448,192,50209,1,0,0:0:0:0:
192,192,50390,1,0,0:0:0:30:Hat Open.wav
64,192,50480,1,0,0:0:0:0:
192,192,50570,1,2,0:0:0:0:
320,192,50570,1,0,0:0:0:0:
448,192,50570,1,0,0:0:0:0:
448,192,50751,1,0,0:0:0:30:Hat Open.wav
64,192,50932,1,2,0:0:0:0:
192,192,50932,1,0,0:0:0:0:
320,192,51113,1,0,0:0:0:30:Hat Open.wav
64,192,51293,1,2,0:0:0:0:
192,192,51293,1,0,0:0:0:0:
320,192,51293,1,0,0:0:0:0:
64,192,51474,1,0,0:0:0:30:Hat Open.wav
320,192,51655,1,2,0:0:0:0:
448,192,51655,1,0,0:0:0:0:
320,192,51836,1,0,0:0:0:30:Hat Open.wav
64,192,52016,1,2,0:0:0:0:
192,192,52016,1,0,0:0:0:0:
448,192,52016,1,0,0:0:0:0:
192,192,52197,1,0,0:0:0:30:Hat Open.wav
64,192,52378,1,2,0:0:0:0:
320,192,52378,1,8,0:0:0:0:
448,192,52378,1,0,0:0:0:0:
192,192,52558,1,0,0:0:0:0:
448,192,52558,1,0,0:0:0:0:
192,192,52739,1,0,0:0:0:0:
448,192,52739,1,0,0:0:0:0:
64,192,52920,1,2,0:0:0:0:
192,192,52920,1,8,0:0:0:0:
320,192,52920,1,0,0:0:0:0:
64,192,53101,1,2,0:0:0:0:
320,192,53101,1,8,0:0:0:0:
448,192,53101,1,0,0:0:0:0:
192,192,53281,1,8,0:0:0:0:
448,192,53281,1,0,0:0:0:0:
320,192,53372,1,0,0:0:0:40:Tom1.wav
64,192,53462,1,0,0:0:0:40:Tom1.wav
192,192,53552,1,0,0:0:0:40:Tom2.wav
64,192,53643,128,2,54908:0:0:0:0:
320,192,53643,1,8,0:0:0:0:
448,192,53643,1,0,0:0:0:40:Tom3.wav
192,192,54004,1,2,0:0:0:0:
320,192,54004,1,8,0:0:0:0:
448,192,54004,1,0,0:0:0:0:
448,192,54185,1,0,0:0:0:0:
192,192,54366,1,2,0:0:0:0:
320,192,54366,1,8,0:0:0:0:
448,192,54366,1,0,0:0:0:0:
192,192,54546,1,2,0:0:0:0:
320,192,54546,1,0,0:0:0:0:
448,192,54546,128,0,54908:0:0:0:0:
192,192,54908,128,0,55089:0:0:0:0:
320,192,55089,128,0,55269:0:0:0:0:
64,192,55269,128,2,55540:0:0:0:0:
192,192,55269,1,4,0:0:0:0:
448,192,55269,128,0,55450:0:0:0:0:
320,192,55450,1,0,0:0:0:0:
448,192,55540,1,0,0:0:0:0:
64,192,55631,128,2,55811:0:0:0:0:
192,192,55631,128,8,55811:0:0:0:0:
320,192,55631,1,0,0:0:0:0:
448,192,55811,1,0,0:0:0:0:
192,192,55902,1,0,0:0:0:0:
320,192,55992,128,2,56173:0:0:0:0:
448,192,55992,128,0,56354:0:0:0:0:
64,192,56173,128,0,56534:0:0:0:0:
192,192,56173,1,0,0:0:0:0:
192,192,56354,128,2,56534:0:0:0:0:
320,192,56354,1,8,0:0:0:0:
320,192,56534,128,0,56715:0:0:0:0:
448,192,56534,128,0,56715:0:0:0:0:
64,192,56715,1,2,0:0:0:0:
192,192,56715,1,0,0:0:0:0:
192,192,56896,128,0,57257:0:0:0:0:
448,192,56896,128,0,57076:0:0:0:0:
64,192,57076,128,2,57257:0:0:0:0:
320,192,57076,1,8,0:0:0:0:
320,192,57257,128,0,57438:0:0:0:0:
448,192,57257,128,0,57438:0:0:0:0:
64,192,57438,128,2,57619:0:0:0:0:
192,192,57438,128,0,57619:0:0:0:0:
448,192,57619,1,0,0:0:0:0:
192,192,57709,1,0,0:0:0:0:
64,192,57799,128,2,58161:0:0:0:0:
320,192,57799,1,8,0:0:0:0:
448,192,57799,128,0,57980:0:0:0:0:
192,192,57980,1,0,0:0:0:0:
320,192,57980,128,0,58161:0:0:0:0:
192,192,58161,128,2,58342:0:0:0:0:
448,192,58161,128,0,58432:0:0:0:0:
64,192,58342,1,0,0:0:0:0:
320,192,58432,1,0,0:0:0:0:
64,192,58522,128,2,58703:0:0:0:0:
192,192,58522,128,8,58884:0:0:0:0:
448,192,58522,1,0,0:0:0:0:
320,192,58703,1,0,0:0:0:0:
448,192,58793,1,0,0:0:0:0:
64,192,58884,128,2,59155:0:0:0:0:
320,192,58884,128,0,59064:0:0:0:0:
448,192,59064,1,0,0:0:0:0:
192,192,59155,128,0,59245:0:0:0:0:
64,192,59245,1,2,0:0:0:0:
320,192,59245,128,8,59426:0:0:0:0:
448,192,59245,128,0,59426:0:0:0:0:
64,192,59426,128,0,59607:0:0:0:0:
192,192,59426,128,0,59787:0:0:0:0:
320,192,59607,1,2,0:0:0:0:
448,192,59607,1,0,0:0:0:0:
64,192,59787,128,0,60149:0:0:0:0:
448,192,59787,128,0,59968:0:0:0:0:
192,192,59968,128,2,60149:0:0:0:0:
320,192,59968,1,8,0:0:0:0:
320,192,60149,1,8,0:0:0:0:
448,192,60149,1,0,0:0:0:0:
64,192,60239,1,8,0:0:0:0:
192,192,60329,128,2,60420:0:0:0:0:
320,192,60329,128,0,60510:0:0:0:0:
448,192,60329,128,0,60510:0:0:0:0:
64,192,60510,1,8,0:0:0:0:
192,192,60510,1,0,0:0:0:0:
448,192,60601,1,8,0:0:0:0:
64,192,60691,128,2,60872:0:0:0:0:
192,192,60691,128,0,60872:0:0:0:0:
320,192,60691,128,0,60781:0:0:0:0:
320,192,60872,1,8,0:0:0:0:
448,192,60872,1,0,0:0:0:0:
192,192,60962,1,8,0:0:0:0:
64,192,61052,128,2,61233:0:0:0:0:
320,192,61052,1,4,0:0:0:0:
448,192,61052,128,0,61323:0:0:0:0:
192,192,61233,1,0,0:0:0:0:
64,192,61323,1,0,0:0:0:0:
192,192,61414,1,2,0:0:0:0:
320,192,61414,128,8,61595:0:0:0:0:
448,192,61414,128,0,61595:0:0:0:0:
64,192,61595,1,0,0:0:0:0:
320,192,61685,1,0,0:0:0:0:
64,192,61775,128,2,62046:0:0:0:0:
192,192,61775,128,0,61956:0:0:0:0:
448,192,61956,1,0,0:0:0:0:
320,192,62046,1,0,0:0:0:0:
64,192,62137,128,2,62317:0:0:0:0:
192,192,62137,1,8,0:0:0:0:
448,192,62137,128,0,62498:0:0:0:0:
192,192,62317,128,0,62498:0:0:0:0:
320,192,62317,1,0,0:0:0:0:
64,192,62498,1,2,0:0:0:0:
320,192,62498,1,0,0:0:0:0:
64,192,62679,128,0,62860:0:0:0:0:
448,192,62679,128,0,63040:0:0:0:0:
192,192,62860,1,2,0:0:0:0:
320,192,62860,128,8,63040:0:0:0:0:
64,192,63040,128,0,63221:0:0:0:0:
192,192,63040,128,0,63221:0:0:0:0:
320,192,63221,128,2,63402:0:0:0:0:
448,192,63221,128,0,63402:0:0:0:0:
64,192,63402,1,0,0:0:0:0:
320,192,63492,1,0,0:0:0:0:
64,192,63583,128,2,63763:0:0:0:0:
192,192,63583,1,8,0:0:0:0:
448,192,63583,128,0,63944:0:0:0:0:
192,192,63763,128,0,63944:0:0:0:0:
320,192,63763,1,0,0:0:0:0:
64,192,63944,128,2,64215:0:0:0:0:
320,192,63944,128,0,64125:0:0:0:0:
448,192,64125,1,0,0:0:0:0:
192,192,64215,1,0,0:0:0:0:
64,192,64305,1,2,0:0:0:0:
320,192,64305,128,8,64667:0:0:0:0:
448,192,64305,128,0,64486:0:0:0:0:
192,192,64486,1,0,0:0:0:0:
64,192,64576,1,0,0:0:0:0:
192,192,64667,128,2,64848:0:0:0:0:
448,192,64667,128,0,64938:0:0:0:0:
64,192,64848,1,0,0:0:0:0:
320,192,64938,1,0,0:0:0:0:
64,192,65028,128,2,65209:0:0:0:0:
192,192,65028,128,8,65209:0:0:0:0:
448,192,65028,1,0,0:0:0:0:
320,192,65209,128,0,65390:0:0:0:0:
448,192,65209,128,0,65390:0:0:0:0:
64,192,65390,1,2,0:0:0:0:
192,192,65390,1,0,0:0:0:0:
192,192,65570,128,0,65932:0:0:0:0:
320,192,65570,128,0,65751:0:0:0:0:
64,192,65751,1,2,0:0:0:0:
448,192,65751,1,8,0:0:0:0:
320,192,65932,128,0,66113:0:0:0:0:
448,192,65932,128,0,66113:0:0:0:0:
64,192,66113,128,2,66293:0:0:0:0:
192,192,66113,128,0,66293:0:0:0:0:
320,192,66293,1,8,0:0:0:0:
448,192,66293,1,0,0:0:0:0:
64,192,66384,1,8,0:0:0:0:
192,192,66384,1,0,0:0:0:0:
320,192,66474,128,2,66655:0:0:0:0:
448,192,66474,128,0,66655:0:0:0:0:
64,192,66655,1,8,0:0:0:0:
192,192,66655,1,0,0:0:0:0:
320,192,66745,1,8,0:0:0:0:
64,192,66836,1,2,0:0:0:0:
192,192,66836,1,4,0:0:0:0:
448,192,66836,1,0,0:0:0:0:
320,192,67016,1,0,0:0:0:0:
64,192,67197,1,2,0:0:0:0:
192,192,67197,1,8,0:0:0:0:
448,192,67197,1,0,0:0:0:0:
64,192,67378,128,0,67468:0:0:0:0:
320,192,67378,128,0,67468:0:0:0:0:
320,192,67558,128,2,67829:0:0:0:0:
448,192,67558,128,0,67649:0:0:0:0:
64,192,67739,128,0,67829:0:0:0:0:
192,192,67739,128,0,67829:0:0:0:0:
448,192,67829,1,0,0:0:0:0:
64,192,67920,128,2,68191:0:0:0:0:
192,192,67920,1,8,0:0:0:0:
320,192,67920,128,0,68010:0:0:0:0:
192,192,68101,128,0,68191:0:0:0:0:
448,192,68101,128,0,68552:0:0:0:0:
64,192,68281,128,2,68372:0:0:0:0:
320,192,68281,128,0,68552:0:0:0:0:
192,192,68462,1,0,0:0:0:0:
64,192,68552,1,0,0:0:0:0:
192,192,68643,1,2,0:0:0:0:
320,192,68643,1,8,0:0:0:0:
448,192,68643,1,0,0:0:0:0:
64,192,68823,128,0,68914:0:0:0:0:
448,192,68823,128,0,69095:0:0:0:0:
320,192,68914,1,0,0:0:0:0:
64,192,69004,128,2,69095:0:0:0:0:
192,192,69004,128,0,69095:0:0:0:0:
192,192,69185,128,0,69456:0:0:0:0:
320,192,69185,128,0,69275:0:0:0:0:
64,192,69366,128,2,69456:0:0:0:0:
320,192,69366,128,8,69817:0:0:0:0:
448,192,69366,1,0,0:0:0:0:
192,192,69546,128,0,69637:0:0:0:0:
448,192,69546,128,0,69817:0:0:0:0:
64,192,69727,128,2,69817:0:0:0:0:
192,192,69727,128,0,69817:0:0:0:0:
320,192,69908,1,0,0:0:0:0:
64,192,70089,1,2,0:0:0:0:
192,192,70089,128,8,70540:0:0:0:0:
320,192,70089,128,0,70360:0:0:0:0:
448,192,70269,1,0,0:0:0:0:
64,192,70450,128,2,70721:0:0:0:0:
320,192,70450,128,0,70540:0:0:0:0:
192,192,70631,128,0,70721:0:0:0:0:
448,192,70631,128,0,70721:0:0:0:0:
320,192,70721,1,0,0:0:0:0:
64,192,70811,1,2,0:0:0:0:
192,192,70811,128,8,70902:0:0:0:0:
448,192,70811,128,0,71263:0:0:0:0:
64,192,70992,128,0,71083:0:0:0:0:
320,192,70992,128,0,71263:0:0:0:0:
64,192,71173,128,2,71263:0:0:0:0:
192,192,71173,128,0,71263:0:0:0:0:
192,192,71354,128,0,71625:0:0:0:0:
320,192,71354,128,0,71444:0:0:0:0:
64,192,71534,1,2,0:0:0:0:
320,192,71534,128,8,71625:0:0:0:0:
448,192,71534,128,0,71625:0:0:0:0:
64,192,71715,128,0,71805:0:0:0:0:
192,192,71715,128,0,71805:0:0:0:0:
192,192,71896,128,2,71986:0:0:0:0:
448,192,71896,128,0,72167:0:0:0:0:
64,192,72076,128,0,72167:0:0:0:0:
320,192,72076,128,0,72167:0:0:0:0:
64,192,72257,128,2,72528:0:0:0:0:
192,192,72257,128,8,72348:0:0:0:0:
448,192,72257,1,0,0:0:0:0:
320,192,72438,128,0,72528:0:0:0:0:
448,192,72438,128,0,72528:0:0:0:0:
64,192,72619,128,2,72709:0:0:0:0:
192,192,72619,128,0,72709:0:0:0:0:
448,192,72799,1,0,0:0:0:0:
64,192,72980,1,2,0:0:0:0:
192,192,72980,1,8,0:0:0:0:
320,192,72980,1,0,0:0:0:0:
192,192,73161,128,0,73251:0:0:0:0:
448,192,73161,128,0,73251:0:0:0:0:
64,192,73342,128,2,73432:0:0:0:0:
192,192,73342,128,0,73613:0:0:0:0:
320,192,73522,128,0,73613:0:0:0:0:
448,192,73522,128,0,73613:0:0:0:0:
64,192,73613,1,0,0:0:0:0:
192,192,73703,128,2,73793:0:0:0:0:
320,192,73703,1,8,0:0:0:0:
448,192,73703,128,0,73974:0:0:0:0:
64,192,73884,128,0,74336:0:0:0:0:
320,192,73884,128,0,73974:0:0:0:0:
192,192,74064,128,2,74336:0:0:0:0:
448,192,74064,128,0,74155:0:0:0:0:
320,192,74245,1,0,0:0:0:0:
448,192,74336,1,0,0:0:0:0:
64,192,74426,1,2,0:0:0:0:
192,192,74426,1,8,0:0:0:0:
320,192,74426,1,0,0:0:0:0:
64,192,74607,128,0,74787:0:0:0:0:
448,192,74607,128,0,74697:0:0:0:0:
192,192,74697,128,0,74787:0:0:0:0:
320,192,74787,128,2,74878:0:0:0:0:
448,192,74787,128,0,74878:0:0:0:0:
192,192,74968,128,0,75058:0:0:0:0:
320,192,74968,128,0,75239:0:0:0:0:
64,192,75149,1,2,0:0:0:0:
192,192,75149,128,8,75601:0:0:0:0:
448,192,75149,128,0,75239:0:0:0:0:
64,192,75329,128,0,75601:0:0:0:0:
320,192,75329,128,0,75420:0:0:0:0:
320,192,75510,128,2,75781:0:0:0:0:
448,192,75510,128,0,75601:0:0:0:0:
64,192,75691,128,0,75962:0:0:0:0:
192,192,75691,128,0,75781:0:0:0:0:
192,192,75872,128,2,75962:0:0:0:0:
320,192,75872,128,8,75962:0:0:0:0:
448,192,75872,128,0,76143:0:0:0:0:
64,192,76052,128,0,76143:0:0:0:0:
320,192,76052,128,0,76143:0:0:0:0:
64,192,76233,128,2,76685:0:0:0:0:
448,192,76233,128,0,76323:0:0:0:0:
192,192,76414,128,0,76685:0:0:0:0:
320,192,76414,128,0,76504:0:0:0:0:
320,192,76595,128,2,76685:0:0:0:0:
448,192,76595,128,8,76685:0:0:0:0:
64,192,76775,128,2,77137:0:0:0:0:
192,192,76775,128,4,77046:0:0:0:0:
320,192,76775,128,0,76956:0:0:0:0:
448,192,76775,128,0,76866:0:0:0:0:
320,192,77137,128,0,77498:0:0:0:0:
448,192,77137,128,0,77317:0:0:0:0:
64,192,77317,1,2,0:0:0:0:
192,192,77317,1,0,0:0:0:0:
192,192,77498,128,0,78040:0:0:0:0:
448,192,77589,1,0,0:0:0:0:
64,192,77679,1,2,0:0:0:0:
320,192,77679,128,0,78040:0:0:0:0:
448,192,77860,1,0,0:0:0:0:
64,192,78040,1,2,0:0:0:0:
448,192,78040,1,0,0:0:0:0:
192,192,78221,1,0,0:0:0:0:
64,192,78402,1,2,0:0:0:0:
320,192,78402,128,4,78492:0:0:0:0:
448,192,78402,128,0,78492:0:0:0:0:
192,192,78583,1,0,0:0:0:0:
64,192,78763,128,2,78854:0:0:0:0:
320,192,78763,128,0,78854:0:0:0:0:
448,192,78944,1,0,0:0:0:0:
64,192,79034,1,0,0:0:0:0:
192,192,79125,128,2,79215:0:0:0:0:
320,192,79125,128,0,79215:0:0:0:0:
448,192,79215,1,0,0:0:0:0:
64,192,79305,1,0,0:0:0:0:
192,192,79486,128,2,79576:0:0:0:0:
448,192,79486,128,0,79576:0:0:0:0:
320,192,79667,1,0,0:0:0:0:
64,192,79848,128,2,79938:0:0:0:0:
192,192,79848,128,0,79938:0:0:0:0:
448,192,80028,1,0,0:0:0:0:
192,192,80119,1,0,0:0:0:0:
64,192,80209,128,2,80299:0:0:0:0:
320,192,80209,128,0,80299:0:0:0:0:
192,192,80299,1,0,0:0:0:0:
448,192,80390,1,0,0:0:0:0:
192,192,80570,128,2,80661:0:0:0:0:
320,192,80570,128,0,80661:0:0:0:0:
64,192,80751,1,0,0:0:0:0:
192,192,80932,128,2,81022:0:0:0:0:
448,192,80932,128,0,81022:0:0:0:0:
64,192,81113,1,0,0:0:0:0:
320,192,81293,128,2,81384:0:0:0:0:
448,192,81293,128,0,81384:0:0:0:0:
192,192,81474,1,0,0:0:0:0:
64,192,81655,128,2,81745:0:0:0:0:
320,192,81655,128,0,81745:0:0:0:0:
192,192,81745,1,0,0:0:0:0:
448,192,81836,1,0,0:0:0:0:
320,192,81926,1,0,0:0:0:0:
64,192,82016,128,2,82107:0:0:0:0:
192,192,82016,128,0,82107:0:0:0:0:
320,192,82107,1,0,0:0:0:0:
448,192,82197,1,0,0:0:0:0:
192,192,82378,128,2,82468:0:0:0:0:
320,192,82378,128,0,82468:0:0:0:0:
64,192,82558,1,0,0:0:0:0:
320,192,82739,1,2,0:0:0:0:
448,192,82739,1,0,0:0:0:0:
192,192,82920,1,0,0:0:0:0:
320,192,83101,1,2,0:0:0:0:
448,192,83101,1,0,0:0:0:0:
64,192,83281,1,0,0:0:0:0:
192,192,83462,1,2,0:0:0:0:
320,192,83462,1,0,0:0:0:0:
448,192,83643,1,0,0:0:0:0:
64,192,83823,1,2,0:0:0:0:
192,192,83823,1,0,0:0:0:0:
320,192,84004,1,0,0:0:0:0:
64,192,84185,128,2,84275:0:0:0:0:
192,192,84185,128,4,84275:0:0:0:0:
448,192,84185,1,0,0:0:0:0:
320,192,84366,1,0,0:0:0:0:
64,192,84546,1,2,0:0:0:0:
192,192,84546,128,0,84637:0:0:0:30:Hat Open.wav
448,192,84546,128,0,84637:0:0:0:0:
320,192,84727,1,0,0:0:0:0:
192,192,84817,1,0,0:0:0:0:
64,192,84908,128,2,84998:0:0:0:0:
448,192,84908,128,0,84998:0:0:0:0:
320,192,84998,1,0,0:0:0:0:
192,192,85089,1,0,0:0:0:0:
64,192,85269,128,2,85360:0:0:0:0:
320,192,85269,128,0,85360:0:0:0:30:Hat Open.wav
448,192,85269,1,0,0:0:0:0:
192,192,85450,1,0,0:0:0:0:
320,192,85631,128,2,85721:0:0:0:0:
448,192,85631,128,0,85721:0:0:0:0:
64,192,85811,1,0,0:0:0:0:
320,192,85902,1,0,0:0:0:0:
64,192,85992,1,2,0:0:0:0:
192,192,85992,128,0,86083:0:0:0:30:Hat Open.wav
448,192,85992,128,0,86083:0:0:0:0:
320,192,86083,1,0,0:0:0:0:
192,192,86173,1,0,0:0:0:0:
64,192,86354,128,2,86444:0:0:0:0:
320,192,86354,128,0,86444:0:0:0:0:
448,192,86534,1,0,0:0:0:0:
64,192,86715,128,2,86805:0:0:0:0:
192,192,86715,128,0,86805:0:0:0:30:Hat Open.wav
320,192,86715,1,0,0:0:0:0:
448,192,86896,1,0,0:0:0:0:
64,192,87076,128,2,87167:0:0:0:0:
192,192,87076,128,0,87167:0:0:0:0:
320,192,87257,1,0,0:0:0:0:
64,192,87438,1,2,0:0:0:0:
192,192,87438,128,0,87528:0:0:0:30:Hat Open.wav
448,192,87438,128,0,87528:0:0:0:0:
320,192,87528,1,0,0:0:0:0:
192,192,87619,1,0,0:0:0:0:
448,192,87709,1,0,0:0:0:0:
64,192,87799,128,2,87890:0:0:0:0:
320,192,87799,128,0,87890:0:0:0:0:
192,192,87890,1,0,0:0:0:0:
448,192,87980,1,0,0:0:0:0:
192,192,88161,1,2,0:0:0:0:
320,192,88161,128,0,88251:0:0:0:30:Hat Open.wav
448,192,88161,128,0,88251:0:0:0:0:
64,192,88342,1,0,0:0:0:0:
320,192,88522,1,2,0:0:0:0:
448,192,88522,1,0,0:0:0:0:
192,192,88613,1,0,0:0:0:0:
320,192,88703,1,0,0:0:0:0:
64,192,88793,1,2,0:0:0:0:
448,192,88793,1,0,0:0:0:0:
192,192,88884,1,0,0:0:0:0:
320,192,88974,1,0,0:0:0:0:
64,192,89064,1,2,0:0:0:0:
192,192,89064,1,0,0:0:0:0:
