osu file format v14

[General]
AudioFilename: audio.ogg
AudioLeadIn: 0
PreviewTime: 54892
Countdown: 0
SampleSet: Soft
StackLeniency: 0.5
Mode: 0
LetterboxInBreaks: 0
WidescreenStoryboard: 1

[Editor]
Bookmarks: 330,11896,14787,17679,29245,40811,46595,55269,61052,66836,78402
DistanceSpacing: 0.9
BeatDivisor: 4
GridSize: 32
TimelineZoom: 2.25

[Metadata]
Title:Idol (TV Size)
TitleUnicode:アイドル (TV Size)
Artist:YOASOBI
ArtistUnicode:YOASOBI
Creator:Len
Version:eringiRa's Insane
Source:【推しの子】
Tags:【Oshi no Ko】 My Star opening op japanese pop jpop j-pop anime 幾田りら ikuta lilas ayase fast eringira l1ght_u light_u -hitomi
BeatmapID:4097137
BeatmapSetID:1974205

[Difficulty]
HPDrainRate:5
CircleSize:4
OverallDifficulty:8
ApproachRate:9
SliderMultiplier:1.74
SliderTickRate:1

[Events]
//Background and Video events
0,0,"d.jpg",0,0
Video,-275,"video.mp4"
//Break Periods
2,14987,17079
//Storyboard Layer 0 (Background)
//Storyboard Layer 1 (Fail)
//Storyboard Layer 2 (Pass)
//Storyboard Layer 3 (Foreground)
//Storyboard Layer 4 (Overlay)
//Storyboard Sound Samples

[TimingPoints]
330,361.44578313253,4,2,1,50,1,0
330,-76.9230769230769,4,2,1,50,0,0
1052,-133.333333333333,4,2,1,50,0,0
2860,-111.111111111111,4,2,1,50,0,0
3221,-76.9230769230769,4,2,1,50,0,0
3944,-133.333333333333,4,2,1,50,0,0
5570,-111.111111111111,4,2,1,50,0,0
6113,-76.9230769230769,4,2,1,50,0,0
6836,-133.333333333333,4,2,1,50,0,0
8643,-111.111111111111,4,2,1,50,0,0
9004,-76.9230769230769,4,2,1,50,0,0
9727,-133.333333333333,4,2,1,50,0,0
11534,-111.111111111111,4,2,1,50,0,0
13161,-100,4,2,1,60,0,0
14787,-100,4,2,1,40,0,0
17679,-100,4,2,1,50,0,0
29245,-100,4,2,1,60,0,0
40811,-133.333333333333,4,2,2,40,0,0
40992,-133.333333333333,4,2,1,40,0,0
46595,-111.111111111111,4,2,1,60,0,0
53643,-100,4,2,1,65,0,0
54546,-100,4,2,4,50,0,0
55269,-90.9090909090909,4,2,4,70,0,0
55450,-90.9090909090909,4,2,1,70,0,0
60691,-76.9230769230769,4,2,1,70,0,0
61052,-90.9090909090909,4,2,3,70,0,0
61233,-90.9090909090909,4,2,1,70,0,0
66836,-111.111111111111,4,2,3,70,0,0
67016,-111.111111111111,4,2,1,70,0,0
76775,-100,4,2,1,70,0,0
78402,-133.333333333333,4,2,1,40,0,0
84185,-111.111111111111,4,2,1,50,0,0

[Colours]
Combo1 : 157,201,255
Combo2 : 183,183,219

[HitObjects]
119,103,330,6,0,B|71:101|42:138|42:138|72:70|156:98,1,169.65,4|0,1:0|2:0,2:0:0:0:
181,38,691,2,0,L|192:0,6,28.275,2|0|0|0|2|0|0,3:2|3:0|3:0|3:0|3:2|3:0|3:0,2:0:0:0:
169,37,1052,2,0,P|184:64|205:124,2,65.2500000000002,8|2|0,2:0|2:0|3:0,2:0:0:0:
285,136,1595,1,2,2:0:0:0:
285,136,1775,2,0,P|300:86|314:53,1,65.2500000000002,0|2,3:0|2:0,2:0:0:0:
407,37,2137,2,0,P|395:67|387:99,1,65.2500000000002,4|2,1:0|2:0,2:0:0:0:
488,256,2498,5,8,2:0:0:0:
402,173,2679,1,6,1:2:0:0:
338,306,2860,2,0,P|292:286|235:269,1,78.3000000000001,2|0,2:0|2:0,2:0:0:0:
96,300,3221,6,0,B|48:291|28:248|28:248|42:321|130:313,1,169.65,4|0,1:0|2:0,2:0:0:0:
150,351,3583,2,0,L|159:389,6,28.275,2|0|0|0|2|0|0,3:2|3:0|3:0|3:0|3:2|3:0|3:0,2:0:0:0:
161,338,3944,2,0,P|174:301|178:249,2,65.2500000000002,8|2|0,2:0|2:0|3:0,2:0:0:0:
72,158,4486,1,2,2:0:0:0:
31,251,4667,2,0,P|66:240|107:225,1,65.2500000000002,0|2,3:0|2:0,2:0:0:0:
163,134,5028,2,0,P|198:123|239:108,1,65.2500000000002,4|2,1:0|2:0,2:0:0:0:
408,0,5390,5,8,2:0:0:0:
309,55,5570,1,6,1:2:0:0:
436,135,5751,2,0,P|423:184|415:228,1,78.2999976104737
400,308,6113,6,0,B|448:306|477:343|477:343|447:275|363:303,1,169.65,4|0,1:0|2:0,2:0:0:0:
337,241,6474,2,0,L|326:203,6,28.275,2|0|0|0|2|0|0,3:2|3:0|3:0|3:0|3:2|3:0|3:0,2:0:0:0:
349,240,6836,2,0,P|334:267|313:327,2,65.2500000000002,8|2|0,2:0|2:0|3:0,2:0:0:0:
247,151,7378,1,2,2:0:0:0:
247,151,7558,2,0,P|206:139|171:121,1,65.2500000000002,0|2,3:0|2:0,2:0:0:0:
97,22,7920,2,0,P|112:63|124:100,1,65.2500000000002,4|2,1:0|2:0,2:0:0:0:
40,281,8281,5,8,2:0:0:0:
182,210,8462,1,6,1:2:0:0:
37,119,8643,2,0,P|22:167|9:213,1,78.3000000000001,2|0,2:0|2:0,2:0:0:0:
160,347,9004,6,0,B|208:345|237:382|237:382|207:314|123:342,1,169.65,4|0,1:0|2:0,2:0:0:0:
122,277,9366,2,0,L|111:239,6,28.275,2|0|0|0|2|0|0,3:2|3:0|3:0|3:0|3:2|3:0|3:0,2:0:0:0:
115,288,9727,2,0,P|71:306|43:327,2,65.2500000000002,8|2|0,2:0|2:0|3:0,2:0:0:0:
273,297,10269,1,2,2:0:0:0:
169,145,10450,2,0,P|180:185|196:228,2,65.2500000000002,0|2|4,3:0|2:0|1:0,2:0:0:0:
104,100,10992,1,2,2:0:0:0:
291,49,11173,5,8,2:0:0:0:
191,2,11354,1,6,1:2:0:0:
268,163,11534,2,0,P|317:177|367:202,1,78.3000000000001,2|0,2:0|2:0,2:0:0:0:
488,134,11896,6,0,B|473:70|442:104|430:15,1,117.45,4|0,1:0|2:0,2:0:0:0:
505,21,12257,2,0,P|445:42|406:57,1,78.3000000000001,2|0,2:0|2:0,2:0:0:0:
268,163,12619,6,0,P|253:120|226:76,2,78.3000000000001,4|2|2,1:0|2:0|2:0,2:0:0:0:
466,259,13161,6,0,P|418:268|319:306,1,130.5,10|0,2:0|2:0,2:0:0:0:
332,303,13522,1,10,2:0:0:0:
164,205,13703,1,0,2:0:0:0:
220,370,13884,1,8,2:0:0:0:
283,242,14064,1,8,2:0:0:0:
70,363,14245,5,0,3:0:0:0:
64,333,14336,1,0,3:0:0:0:
53,304,14426,1,0,3:2:0:0:
241,176,14787,5,4,1:0:0:0:
379,113,17679,6,0,B|432:88|408:88|475:64,2,87,4|2|8,1:0|2:0|2:0,2:0:0:0:
248,30,18221,1,2,2:0:0:0:
313,188,18402,1,2,1:2:0:0:
166,78,18583,1,2,2:0:0:0:
166,78,18673,1,2,2:0:0:0:
166,78,18763,2,0,B|148:30|148:30|178:-22,1,87,8|2,2:0|2:0,2:0:0:0:
136,168,19125,5,0,1:0:0:0:
48,116,19305,1,2,2:0:0:0:
7,216,19486,2,0,B|19:257|46:237|56:294,1,87,10|2,2:0|2:0,2:0:0:0:
54,286,19757,1,0,2:0:0:0:
54,286,19848,1,2,1:2:0:0:
237,224,20028,1,0,2:0:0:0:
138,374,20209,2,0,P|150:320|163:271,1,87,8|2,2:0|2:0,2:0:0:0:
329,175,20570,6,0,B|274:151|310:144|233:124,2,87,0|2|8,1:0|2:0|2:0,2:0:0:0:
384,248,21113,1,2,2:0:0:0:
501,107,21293,6,0,P|487:152|474:208,1,87,2|2,1:2|2:0,2:0:0:0:
316,14,21655,2,0,P|333:64|350:120,1,87,8|2,2:0|2:0,2:0:0:0:
231,209,22016,5,0,1:0:0:0:
137,42,22197,1,2,2:0:0:0:
34,199,22378,2,0,P|78:176|141:149,1,87,8|2,2:0|2:0,2:0:0:0:
224,288,22739,6,0,B|176:284|159:240|159:240|175:292|139:330,1,174,2|8,1:2|2:0,2:0:0:0:
294,376,23281,1,2,2:0:0:0:
294,376,23372,1,2,2:0:0:0:
294,376,23462,6,0,B|296:323|324:350|330:286,2,87,4|2|8,1:0|2:0|2:0,2:0:0:0:
231,207,24004,1,2,2:0:0:0:
388,240,24185,2,0,B|440:225|409:206|479:197,1,87,2|2,1:2|2:0,2:0:0:0:
292,84,24546,2,0,P|316:131|328:175,1,87,8|2,2:0|2:0,2:0:0:0:
463,12,24908,5,0,1:0:0:0:
403,165,25089,1,2,2:0:0:0:
507,91,25269,1,8,2:0:0:0:
331,15,25450,1,2,2:0:0:0:
331,15,25540,1,0,2:0:0:0:
331,15,25631,2,0,P|275:1|211:85,1,174,2|8,1:2|2:0,2:0:0:0:
131,63,26173,1,2,2:0:0:0:
266,167,26354,6,0,P|282:113|297:70,1,87,0|2,1:0|2:0,2:0:0:0:
78,7,26715,1,8,2:0:0:0:
167,139,26896,1,2,2:0:0:0:
26,192,27076,2,0,B|5:170|5:170|29:102,1,87,2|2,1:2|2:0,2:0:0:0:
23,116,27348,1,0,2:0:0:0:
23,116,27438,1,8,2:0:0:0:
173,237,27619,5,2,2:0:0:0:
173,237,27709,1,2,2:0:0:0:
173,237,27799,2,0,B|166:279|135:267|128:323,2,87,0|2|8,1:0|2:0|2:0,2:0:0:0:
24,371,28342,6,0,P|48:357|64:343,1,43.5,2|2,2:0|2:0,2:0:0:0:
131,310,28522,2,0,P|171:335|215:366,1,87,2|2,1:2|2:0,2:0:0:0:
203,357,28793,1,2,2:0:0:0:
203,357,28884,1,8,2:0:0:0:
376,279,29064,1,2,2:0:0:0:
250,202,29245,6,0,P|267:250|302:348,2,130.5,4|2|2,1:0|2:0|2:0,2:0:0:0:
419,105,29968,2,0,P|404:148|390:197,1,87,0|2,1:0|2:0,2:0:0:0:
493,57,30330,1,8,2:0:0:0:
314,121,30510,5,2,2:0:0:0:
314,121,30601,1,0,2:0:0:0:
314,121,30691,2,0,B|238:110|278:83|174:57,2,130.5,4|2|2,1:0|2:0|2:0,2:0:0:0:
148,4,31414,2,0,B|134:51|110:33|102:98,1,87,0|2,1:0|2:0,2:0:0:0:
105,78,31685,1,0,2:0:0:0:
105,78,31775,1,8,2:0:0:0:
42,24,31956,1,2,2:0:0:0:
192,132,32137,6,0,P|125:172|89:196,1,87,4|2,1:0|2:0,2:0:0:0:
32,338,32498,2,0,B|53:290|109:289|109:289|129:334|184:336,1,174,8|0,2:0|1:0,2:0:0:0:
331,238,33040,1,2,2:0:0:0:
259,372,33221,2,0,P|245:307|224:259,1,87,8|0,2:0|2:0,2:0:0:0:
431,220,33583,5,2,1:2:0:0:
399,326,33763,1,2,2:0:0:0:
436,226,33944,5,10,2:0:0:0:
404,332,34125,1,2,2:0:0:0:
320,227,34305,2,0,P|340:167|360:127,1,87,0|8,1:0|2:0,2:0:0:0:
350,145,34576,1,8,2:0:0:0:
350,145,34667,1,0,1:0:0:0:
432,112,34848,1,0,1:0:0:0:
247,44,35028,6,0,P|268:99|286:175,2,130.5,4|2|2,1:0|2:0|2:0,2:0:0:0:
129,215,35751,2,0,P|156:147|173:114,1,87,0|2,1:0|2:0,2:0:0:0:
47,170,36113,1,8,2:0:0:0:
188,287,36293,5,2,2:0:0:0:
188,287,36384,1,0,2:0:0:0:
188,287,36474,2,0,B|117:309|168:321|49:367,2,130.5,4|2|2,1:0|2:0|2:0,2:0:0:0:
320,373,37197,2,0,P|368:345|423:324,1,87,0|2,1:0|2:0,2:0:0:0:
396,332,37468,1,2,2:0:0:0:
396,332,37558,1,8,2:0:0:0:
504,258,37739,1,2,2:0:0:0:
405,203,37920,5,4,1:0:0:0:
495,366,38101,1,2,2:0:0:0:
317,267,38281,2,0,P|301:218|282:179,1,87,8|2,2:0|2:0,2:0:0:0:
285,186,38552,1,2,2:0:0:0:
285,186,38643,1,0,1:0:0:0:
421,118,38823,1,2,2:0:0:0:
329,15,39004,1,8,2:0:0:0:
196,126,39185,6,0,B|89:99|169:63|41:38,1,174,2|2,2:0|2:0,2:0:0:0:
213,22,39727,1,10,2:0:0:0:
54,133,39908,1,10,2:0:0:0:
54,133,39998,1,8,2:0:0:0:
54,133,40089,2,0,P|72:177|86:223,1,87,2|8,1:2|2:0,2:0:0:0:
111,357,40450,5,0,1:0:0:0:
62,299,40631,1,0,1:0:0:0:
20,369,40811,6,0,P|65:340|144:313,1,130.5,4|2,1:2|2:0,2:0:0:0:
214,239,41354,1,2,1:2:0:0:
214,239,41534,1,0,1:0:0:0:
306,371,41896,1,8,2:0:0:0:
360,319,42076,6,0,P|374:278|417:194,2,130.5,2|2|2,1:2|1:2|1:2,2:0:0:0:
294,245,42980,2,0,P|280:191|267:162,1,65.2500000000002,2|0,1:2|2:0,2:0:0:0:
382,78,43342,1,8,2:0:0:0:
382,78,43703,6,0,P|344:63|258:28,1,130.5,2|2,1:2|2:0,2:0:0:0:
114,136,44245,1,2,1:2:0:0:
52,88,44426,2,0,P|39:56|113:7,1,130.5,2|8,1:2|2:0,2:0:0:0:
194,99,44968,1,2,2:0:0:0:
194,99,45149,2,0,B|180:163|144:129|134:215,1,130.5,2|2,1:2|1:2,2:0:0:0:
97,305,45691,1,2,2:0:0:0:
215,214,45872,5,0,1:0:0:0:
239,212,45962,1,0,1:0:0:0:
261,222,46052,1,0,1:0:0:0:
275,241,46143,1,0,1:0:0:0:
279,265,46233,1,10,2:0:0:0:
398,375,46595,6,0,B|403:278|456:330|475:206,1,156.6,4|8,1:0|2:0,2:0:0:0:
341,152,47137,2,0,P|355:194|366:244,1,78.3000000000001,2|0,2:0|1:0,2:0:0:0:
493,79,47498,2,0,P|479:121|468:171,1,78.3000000000001,2|8,2:0|2:0,2:0:0:0:
345,14,47860,6,0,P|310:66|217:57,1,156.6,2|0,2:0|2:0,2:0:0:0:
78,6,48402,2,0,P|100:58|111:99,1,78.3000000000001,10|2,2:0|2:0,2:0:0:0:
234,147,48763,2,0,P|218:191|210:232,1,78.3000000000001,2|0,1:2|2:0,2:0:0:0:
28,286,49125,5,8,2:0:0:0:
122,182,49305,1,2,2:0:0:0:
198,334,49486,2,0,P|249:308|295:292,1,78.3000000000001,4|0,1:0|2:0,2:0:0:0:
402,373,49848,2,0,P|388:325|381:287,1,78.3000000000001,8|0,2:0|2:0,2:0:0:0:
506,157,50209,6,0,P|485:213|467:288,2,117.45,2|2|2,1:2|2:0|2:0,2:0:0:0:
426,50,50932,2,0,P|392:76|344:77,1,78.3000000000001,2|2,1:2|2:0,2:0:0:0:
295,189,51293,2,0,P|247:163|209:154,1,78.3000000000001,10|2,2:0|2:0,2:0:0:0:
51,24,51655,5,2,1:2:0:0:
179,87,51836,1,2,2:0:0:0:
19,196,52016,2,0,P|34:148|53:101,1,78.3000000000001,10|0,2:0|3:0,2:0:0:0:
196,255,52378,5,0,1:0:0:0:
196,255,52920,5,2,1:2:0:0:
79,359,53101,2,0,P|63:310|47:261,1,78.3000000000001,8|2,2:0|1:2,2:0:0:0:
78,255,53372,1,2,1:2:0:0:
85,247,53462,2,0,L|102:201,1,39.15,2|2,1:2|1:2,2:0:0:0:
37,145,53643,6,0,P|93:129|145:107,1,87,8|0,2:0|2:0,2:0:0:0:
191,12,54004,2,0,P|222:52|269:67,1,87,8|2,2:0|2:0,2:0:0:0:
421,19,54366,5,10,2:0:0:0:
357,182,54546,1,10,2:0:0:0:
357,182,55269,6,0,B|365:171|386:159|386:159|326:169|354:204|293:218,1,143.55,4|0,1:0|2:0,2:0:0:0:
233,255,55631,2,0,P|181:233|123:217,1,95.7,10|0,2:0|2:0,2:0:0:0:
19,117,55992,5,2,1:2:0:0:
155,29,56173,1,0,2:0:0:0:
155,29,56263,1,0,2:0:0:0:
155,29,56354,2,0,P|139:72|130:95,1,47.85,10|0,2:0|2:0,2:0:0:0:
89,142,56534,6,0,P|157:110|249:90,1,143.55,2|0,2:0|2:0,2:0:0:0:
238,103,56896,1,2,2:0:0:0:
428,39,57076,1,10,2:0:0:0:
308,191,57257,1,2,2:0:0:0:
333,6,57438,2,0,P|350:61|367:116,1,95.7,2|0,1:2|2:0,2:0:0:0:
361,97,57709,1,0,2:0:0:0:
361,97,57799,1,10,2:0:0:0:
467,190,57980,1,2,2:0:0:0:
299,311,58161,6,0,B|292:237|243:266|234:175,1,143.55,2|0,1:2|2:0,2:0:0:0:
181,258,58522,2,0,P|235:226|325:183,1,143.55,10|0,2:0|2:0,2:0:0:0:
372,238,58884,2,0,B|431:263|391:275|467:299,1,95.7,2|0,1:2|2:0,2:0:0:0:
448,292,59155,1,0,2:0:0:0:
448,292,59245,1,10,2:0:0:0:
260,374,59426,6,0,P|208:347|76:301,1,191.4,2|2,2:0|2:0,2:0:0:0:
236,204,59968,1,10,2:0:0:0:
53,114,60149,1,10,2:0:0:0:
53,114,60239,1,10,2:0:0:0:
53,114,60330,6,0,B|34:153|79:174|79:174|53:141|61:78,1,143.55,4|10,1:0|2:0,2:0:0:0:
8,222,60691,6,0,P|62:189|174:132,1,169.65,4|10,1:2|2:0,2:0:0:0:
219,70,61052,6,0,B|236:59|236:59|216:40|218:14|218:14|200:36|168:38|168:38|178:72,1,143.55,4|0,1:0|2:0,2:0:0:0:
159,131,61414,2,0,P|202:152|250:183,1,95.7,10|0,2:0|2:0,2:0:0:0:
467,188,61775,5,2,1:2:0:0:
314,81,61956,1,0,2:0:0:0:
314,81,62046,1,0,2:0:0:0:
314,81,62137,2,0,P|342:69|369:57,1,47.85,10|0,2:0|2:0,2:0:0:0:
425,15,62317,6,0,B|419:80|365:44|367:156,1,143.55,2|0,2:0|2:0,2:0:0:0:
372,151,62679,1,2,2:0:0:0:
504,260,62860,2,0,B|454:279|490:293|412:324,1,95.7,10|2,2:0|2:0,2:0:0:0:
420,321,63131,1,0,2:0:0:0:
410,324,63221,1,2,1:2:0:0:
259,213,63402,1,0,2:0:0:0:
259,213,63492,1,0,2:0:0:0:
259,213,63583,2,0,L|279:284,1,47.85,10|0,2:0|2:0,2:0:0:0:
206,301,63763,2,0,L|189:256,1,47.85,2|0,2:0|2:0,2:0:0:0:
281,364,63944,6,0,P|221:334|100:315,1,191.4,2|10,1:2|2:0,2:0:0:0:
8,177,64486,1,0,2:0:0:0:
8,177,64576,1,0,2:0:0:0:
8,177,64667,2,0,P|52:154|101:123,1,95.7,2|0,1:2|2:0,2:0:0:0:
259,213,65028,1,10,2:0:0:0:
210,22,65209,6,0,P|190:82|173:145,1,95.7,2|0,2:0|1:2,2:0:0:0:
350,213,65570,2,0,B|343:159|313:182|306:100,1,95.7,2|10,2:0|2:0,2:0:0:0:
424,31,65932,6,0,P|413:59|401:102,1,47.85,2|0,2:0|2:0,2:0:0:0:
494,139,66113,2,0,P|437:117|402:105,1,95.7,4|10,1:0|2:0,2:0:0:0:
396,111,66384,1,10,2:0:0:0:
389,117,66474,1,4,1:2:0:0:
448,217,66655,1,10,2:0:0:0:
330,46,66836,6,0,P|266:47|224:137,1,156.6,4|8,1:0|2:0,2:0:0:0:
221,120,67378,1,2,2:0:0:0:
63,10,67558,2,0,P|78:46|95:93,1,78.3000000000001,2|2,1:2|2:0,2:0:0:0:
140,142,67830,1,0,2:0:0:0:
151,149,67920,2,0,P|133:197|120:243,1,78.3000000000001,10|2,2:0|2:0,2:0:0:0:
30,363,68281,6,0,P|84:342|192:312,1,156.6,2|8,1:2|2:0,2:0:0:0:
178,314,68823,1,2,2:0:0:0:
309,227,69004,5,2,1:2:0:0:
360,294,69185,1,2,2:0:0:0:
220,384,69366,5,10,2:0:0:0:
264,310,69546,1,2,2:0:0:0:
211,233,69727,6,0,P|229:187|242:134,1,78.3000000000001,2|0,1:2|2:0,2:0:0:0:
91,60,70089,2,0,P|111:102|124:147,1,78.3000000000001,8|2,2:0|2:0,2:0:0:0:
205,19,70450,6,0,P|226:53|290:57,1,78.3000000000001,2|2,1:2|2:0,2:0:0:0:
318,104,70721,1,0,2:0:0:0:
326,111,70811,2,0,P|376:89|422:76,1,78.3000000000001,10|2,2:0|2:0,2:0:0:0:
479,225,71173,6,0,B|436:203|465:201|401:177,2,78.3000000000001,2|2|8,1:2|2:0|2:0,2:0:0:0:
388,298,71715,1,2,2:0:0:0:
388,298,71896,2,0,P|352:319|320:345,1,78.3000000000001,2|2,1:2|2:0,2:0:0:0:
252,266,72257,2,0,P|204:241|161:223,1,78.3000000000001,10|2,2:0|2:0,2:0:0:0:
33,112,72619,6,0,B|42:139|73:154|109:134|121:103|121:103|101:82|91:63,1,156.6,2|8,1:2|2:0,2:0:0:0:
95,71,73161,1,2,2:0:0:0:
224,19,73342,2,0,P|210:62|197:109,1,78.3000000000001,2|2,1:2|2:0,2:0:0:0:
253,160,73613,1,0,2:0:0:0:
266,162,73703,2,0,P|311:146|354:139,1,78.3000000000001,10|2,2:0|2:0,2:0:0:0:
477,274,74064,6,0,B|375:298|445:339|347:364,1,156.6,2|8,1:2|2:0,2:0:0:0:
224,230,74607,1,2,2:0:0:0:
224,230,74697,1,2,2:0:0:0:
224,230,74787,2,0,P|242:279|254:324,1,78.3000000000001,2|2,1:2|2:0,2:0:0:0:
51,364,75149,1,10,2:0:0:0:
148,281,75330,1,2,2:0:0:0:
42,229,75510,6,0,P|26:160|16:125,1,78.3000000000001,2|0,1:2|2:0,2:0:0:0:
182,167,75872,2,0,P|166:98|156:63,1,78.3000000000001,8|2,2:0|2:0,2:0:0:0:
219,4,76233,5,2,1:2:0:0:
67,76,76414,1,2,2:0:0:0:
67,76,76504,1,0,2:0:0:0:
67,76,76595,1,10,2:0:0:0:
256,209,76775,6,0,P|270:153|302:60,1,130.5,4|0,1:0|2:0,2:0:0:0:
289,66,77137,1,2,2:0:0:0:
472,19,77317,1,8,2:0:0:0:
372,184,77498,1,10,2:0:0:0:
382,1,77679,2,0,P|403:61|424:119,1,87,6|2,1:2|2:0,2:0:0:0:
469,134,77950,1,0,2:0:0:0:
481,148,78040,2,0,P|462:202|446:247,1,87,10|2,2:0|2:0,2:0:0:0:
290,328,78402,6,0,P|249:314|155:293,2,130.5,4|0|0,1:2|1:2|1:2,2:0:0:0:
290,328,79486,1,0,1:2:0:0:
382,219,79848,6,0,B|379:153|325:175|332:77,1,130.5,0|0,1:2|1:2,2:0:0:0:
442,25,80570,2,0,B|435:97|489:75|492:141,1,130.5,0|0,1:2|1:2,2:0:0:0:
266,22,81293,6,0,P|234:63|157:54,1,130.5,0|0,1:2|1:2,2:0:0:0:
161,57,81836,1,2,2:0:0:0:
62,151,82016,2,0,P|55:99|29:16,1,130.5,0|0,1:2|1:2,2:0:0:0:
234,153,82739,5,0,1:2:0:0:
44,264,83101,1,0,1:2:0:0:
191,255,83462,5,0,1:2:0:0:
128,172,83823,1,0,1:2:0:0:
28,365,84185,6,0,P|68:348|108:332,1,78.3000000000001,0|0,1:2|2:0,2:0:0:0:
189,240,84546,2,0,P|223:256|261:270,1,78.3000000000001,2|0,1:2|2:0,2:0:0:0:
355,371,84908,2,0,P|366:308|401:204,1,156.6,0|2,1:2|1:2,2:0:0:0:
394,219,85631,6,0,P|372:158|362:117,1,78.3000000000001,0|0,1:2|2:0,2:0:0:0:
493,70,85992,2,0,P|470:120|456:164,1,78.3000000000001,2|0,1:2|2:0,2:0:0:0:
282,76,86354,2,0,P|316:22|411:32,1,156.6,0|2,1:2|1:2,2:0:0:0:
282,76,87076,6,0,P|234:55|194:42,1,78.3000000000001,0|0,1:2|2:0,2:0:0:0:
106,6,87438,2,0,P|67:36|20:49,1,78.3000000000001,2|0,1:2|2:0,2:0:0:0:
138,140,87799,2,0,P|187:154|287:201,1,156.6,0|2,1:2|2:0,2:0:0:0:
451,361,88522,6,0,P|476:324|457:279,1,78.3000000000001,0|0,1:0|2:0,2:0:0:0:
396,270,88793,2,0,P|371:307|390:352,1,78.3000000000001,0|0,1:0|2:0,2:0:0:0:
452,217,89064,1,0,1:0:0:0:
