osu file format v14

[General]
AudioFilename: audio.ogg
AudioLeadIn: 0
PreviewTime: 54892
Countdown: 0
SampleSet: Soft
StackLeniency: 0.5
Mode: 0
LetterboxInBreaks: 0
WidescreenStoryboard: 1

[Editor]
Bookmarks: 330,11896,14787,17679,29245,40811,46595,55269,61052,66836,78402
DistanceSpacing: 0.9
BeatDivisor: 4
GridSize: 32
TimelineZoom: 2.25

[Metadata]
Title:Idol (TV Size)
TitleUnicode:アイドル (TV Size)
Artist:YOASOBI
ArtistUnicode:YOASOBI
Creator:Len
Version:Normal
Source:【推しの子】
Tags:【Oshi no Ko】 My Star opening op japanese pop jpop j-pop anime 幾田りら ikuta lilas ayase fast eringira l1ght_u light_u -hitomi
BeatmapID:4097140
BeatmapSetID:1974205

[Difficulty]
HPDrainRate:3
CircleSize:3
OverallDifficulty:4
ApproachRate:5.5
SliderMultiplier:1.13
SliderTickRate:1

[Events]
//Background and Video events
0,0,"d.jpg",0,0
Video,-275,"video.mp4"
//Break Periods
2,14987,16554
2,41011,45470
//Storyboard Layer 0 (Background)
//Storyboard Layer 1 (Fail)
//Storyboard Layer 2 (Pass)
//Storyboard Layer 3 (Foreground)
//Storyboard Layer 4 (Overlay)
//Storyboard Sound Samples

[TimingPoints]
330,361.44578313253,4,2,1,50,1,0
11896,-100,4,2,1,60,0,0
14787,-100,4,2,1,40,0,0
17679,-100,4,2,1,50,0,0
29245,-100,4,2,1,60,0,0
40811,-100,4,2,2,40,0,0
46595,-100,4,2,1,60,0,0
52558,-100,4,2,9,60,0,0
52920,-100,4,2,1,60,0,0
53643,-100,4,2,1,65,0,0
54546,-100,4,2,4,50,0,0
54908,-100,4,2,1,65,0,0
55269,-100,4,2,4,70,0,0
55450,-100,4,2,1,70,0,0
61052,-100,4,2,3,70,0,0
61233,-100,4,2,1,70,0,0
66836,-100,4,2,3,70,0,0
67016,-100,4,2,1,70,0,0
78402,-100,4,2,1,40,0,0
84185,-100,4,2,1,50,0,0

[Colours]
Combo1 : 157,201,255
Combo2 : 183,183,219

[HitObjects]
11,242,330,6,0,P|21:197|45:111,1,113,4|2,1:0|3:2,2:0:0:0:
0,38,1052,2,0,P|42:29|113:7,1,113,8|0,2:0|3:0,2:0:0:0:
160,96,1775,1,0,3:0:0:0:
240,33,2137,2,0,P|277:47|366:70,1,113,4|8,1:0|2:0,2:0:0:0:
358,116,2679,2,0,P|414:94|485:74,1,113,6|0,1:2|2:0,2:0:0:0:
508,104,3221,6,0,P|488:161|471:228,1,113,4|2,1:0|3:2,2:0:0:0:
510,307,3944,2,0,P|456:327|394:360,1,113,8|0,2:0|3:0,2:0:0:0:
312,312,4667,1,0,3:0:0:0:
348,217,5028,2,0,P|367:149|390:91,1,113,4|8,1:0|2:0,2:0:0:0:
415,71,5570,2,0,P|364:45|308:12,1,113,6|0,1:2|2:0,2:0:0:0:
273,45,6113,6,0,P|226:61|156:93,1,113,4|2,1:0|3:2,2:0:0:0:
81,33,6836,1,8,2:0:0:0:
2,96,7197,1,0,3:0:0:0:
32,192,7558,1,0,3:0:0:0:
133,194,7920,2,0,P|185:219|244:260,1,113,4|8,1:0|2:0,2:0:0:0:
220,299,8462,2,0,P|280:278|339:263,1,113,6|0,1:2|2:0,2:0:0:0:
348,312,9004,6,0,P|394:331|458:364,1,113,4|2,1:0|3:2,2:0:0:0:
509,276,9727,1,8,2:0:0:0:
437,203,10089,1,0,3:0:0:0:
486,114,10450,1,0,3:0:0:0:
415,41,10811,2,0,P|372:52|291:78,1,113,4|8,1:0|2:0,2:0:0:0:
288,120,11354,2,0,P|242:102|163:81,1,113,6|0,1:2|2:0,2:0:0:0:
149,44,11896,5,4,1:0:0:0:
58,89,12257,1,2,2:0:0:0:
112,174,12619,2,0,P|126:217|140:288,1,113,4|2,1:0|2:0,2:0:0:0:
166,326,13161,2,0,P|218:301|292:280,2,113,10|10|8,2:0|2:0|2:0,2:0:0:0:
150,374,14064,2,0,P|113:358|35:333,1,113,8|0,2:0|3:2,2:0:0:0:
11,238,14787,5,4,1:0:0:0:
498,169,17679,6,0,P|505:141|512:114,2,56.5,4|2|8,1:0|2:0|2:0,2:0:0:0:
435,249,18402,2,0,P|396:259|324:292,1,113,2|8,1:2|2:0,2:0:0:0:
255,358,19125,2,0,P|220:340|179:326,1,56.5,0|2,1:0|2:0,2:0:0:0:
169,296,19486,2,0,P|127:313|100:322,1,56.5,10|2,2:0|2:0,2:0:0:0:
73,344,19848,2,0,P|63:307|39:229,1,113,2|8,1:2|2:0,2:0:0:0:
99,152,20570,5,0,1:0:0:0:
37,70,20932,1,8,2:0:0:0:
115,5,21293,2,0,P|146:17|183:26,1,56.5,2|2,1:2|2:0,2:0:0:0:
198,64,21655,2,0,P|241:48|276:42,1,56.5,8|2,2:0|2:0,2:0:0:0:
285,83,22016,2,0,P|327:101|400:126,2,113,0|8|2,1:0|2:0|1:2,2:0:0:0:
227,167,23101,2,0,P|238:204|244:229,1,56.5,8|2,2:0|2:0,2:0:0:0:
219,267,23462,6,0,P|204:311|197:336,2,56.5,4|2|8,1:0|2:0|2:0,2:0:0:0:
299,329,24185,2,0,P|355:312|412:298,1,113,2|8,1:2|2:0,2:0:0:0:
483,230,24908,2,0,P|497:190|511:158,1,56.5,0|2,1:0|2:0,2:0:0:0:
470,137,25269,2,0,P|459:103|446:68,1,56.5,8|2,2:0|2:0,2:0:0:0:
470,35,25631,2,0,P|422:21|354:1,1,113,2|8,1:2|2:0,2:0:0:0:
293,79,26354,5,0,1:0:0:0:
203,30,26715,1,8,2:0:0:0:
130,101,27076,2,0,P|119:137|111:163,1,56.5,2|2,1:2|2:0,2:0:0:0:
69,180,27438,2,0,P|84:213|95:247,1,56.5,8|2,2:0|2:0,2:0:0:0:
129,265,27799,2,0,P|89:294|31:350,2,113,0|8|2,1:0|2:0|1:2,2:0:0:0:
208,200,28884,1,8,2:0:0:0:
238,103,29245,6,0,P|226:61|215:5,2,84.75,4|2|2,1:0|2:0|2:0,2:0:0:0:
279,132,29968,2,0,P|319:145|393:182,1,113,0|8,1:0|2:0,2:0:0:0:
412,273,30691,2,0,P|453:253|501:237,2,84.75,4|2|2,1:0|2:0|2:0,2:0:0:0:
394,320,31414,2,0,P|342:300|283:275,1,113,0|8,1:0|2:0,2:0:0:0:
222,354,32137,5,4,1:0:0:0:
149,282,32498,1,8,2:0:0:0:
47,284,32860,1,0,1:0:0:0:
69,185,33221,1,8,2:0:0:0:
4,106,33583,2,0,P|21:58|39:-5,2,113,2|10|0,1:2|2:0|1:0,2:0:0:0:
69,185,34667,2,0,P|109:168|140:156,1,56.5,0|0,1:0|1:0,2:0:0:0:
156,126,35028,6,0,P|170:89|185:28,2,84.75,4|2|2,1:0|2:0|2:0,2:0:0:0:
201,149,35751,2,0,P|238:167|301:209,1,113,0|8,1:0|2:0,2:0:0:0:
247,295,36474,2,0,P|211:310|161:339,2,84.75,4|2|2,1:0|2:0|2:0,2:0:0:0:
287,326,37197,2,0,P|329:309|403:288,1,113,0|8,1:0|2:0,2:0:0:0:
474,227,37920,5,4,1:0:0:0:
400,157,38281,1,8,2:0:0:0:
451,68,38643,1,0,1:0:0:0:
370,5,39004,1,8,2:0:0:0:
370,5,39185,2,0,P|321:22|246:44,1,113,2|2,2:0|2:0,2:0:0:0:
228,77,39727,2,0,P|183:62|154:53,1,56.5,10|10,2:0|2:0,2:0:0:0:
141,19,40089,1,2,1:2:0:0:
56,76,40450,2,0,P|71:123|89:200,1,113,0|4,1:0|1:2,2:0:0:0:
305,354,46595,6,0,P|321:295|342:235,1,113,4|8,1:0|2:0,2:0:0:0:
298,212,47137,2,0,P|290:172|270:93,1,113,2|2,2:0|2:0,2:0:0:0:
296,3,47860,2,0,P|243:-11|179:22,1,113,2|0,2:0|2:0,2:0:0:0:
162,52,48402,2,0,P|125:43|92:36,1,56.5,10|2,2:0|2:0,2:0:0:0:
64,66,48763,2,0,P|79:122|93:198,1,113,2|8,1:2|2:0,2:0:0:0:
27,256,49486,5,4,1:0:0:0:
89,336,49848,1,8,2:0:0:0:
177,286,50209,2,0,P|191:231|208:183,2,84.75,2|2|2,1:2|2:0|2:0,2:0:0:0:
204,328,50932,2,0,P|246:344|315:377,1,113,2|10,1:2|2:0,2:0:0:0:
374,296,51655,1,2,1:2:0:0:
469,331,52016,2,0,P|482:290|495:254,1,56.5,10|0,2:0|3:0,2:0:0:0:
511,240,52378,6,0,P|499:204|472:115,1,113,0|8,1:0|2:0,2:0:0:0:
491,83,52920,1,2,1:2:0:0:
491,83,53101,2,0,P|428:64|364:35,1,113,8|2,2:0|1:2,2:0:0:0:
348,81,53643,2,0,P|297:98|230:127,1,113,8|8,2:0|2:0,2:0:0:0:
211,161,54185,2,0,P|167:144|136:135,1,56.5,2|10,2:0|2:0,2:0:0:0:
126,101,54546,1,10,2:0:0:0:
45,162,54908,6,0,P|55:198|61:234,1,56.5,2|2,2:0|2:0,2:0:0:0:
93,253,55269,2,0,P|78:297|56:369,2,113,4|10|2,1:0|2:0|1:2,2:0:0:0:
185,308,56354,1,10,2:0:0:0:
185,308,56534,2,0,P|231:288|306:267,1,113,2|2,2:0|2:0,2:0:0:0:
313,224,57076,2,0,P|356:243|388:254,1,56.5,10|2,2:0|2:0,2:0:0:0:
404,279,57438,2,0,P|429:222|464:162,1,113,2|10,1:2|2:0,2:0:0:0:
487,141,57980,1,2,0:0:0:0:
487,141,58161,5,2,1:2:0:0:
462,44,58522,1,10,2:0:0:0:
366,76,58884,2,0,P|322:59|235:36,1,113,2|10,1:2|2:0,2:0:0:0:
220,7,59426,2,0,P|175:26|101:57,1,113,2|2,2:0|2:0,2:0:0:0:
86,92,59968,2,0,P|105:141|113:164,1,56.5,10|10,2:0|2:0,2:0:0:0:
86,191,60330,1,4,1:0:0:0:
165,255,60691,1,4,1:2:0:0:
110,340,61052,6,0,P|56:359|5:382,2,113,4|10|2,1:0|2:0|1:2,2:0:0:0:
207,369,62137,1,10,2:0:0:0:
207,369,62317,2,0,P|231:328|279:259,1,113,2|2,2:0|2:0,2:0:0:0:
305,239,62860,2,0,P|345:254|381:266,1,56.5,10|2,2:0|2:0,2:0:0:0:
385,301,63221,2,0,P|426:283|499:263,1,113,2|10,1:2|2:0,2:0:0:0:
507,218,63763,1,2,0:0:0:0:
507,218,63944,5,2,1:2:0:0:
460,127,64305,1,10,2:0:0:0:
407,39,64667,2,0,P|351:28|277:10,1,113,2|10,1:2|2:0,2:0:0:0:
255,45,65209,1,2,2:0:0:0:
161,5,65570,1,2,2:0:0:0:
112,96,65932,1,2,2:0:0:0:
112,96,66113,2,0,P|67:82|34:73,2,56.5,4|10|4,1:0|2:0|1:2,2:0:0:0:
157,187,66836,6,0,P|199:170|277:151,1,113,4|8,1:0|2:0,2:0:0:0:
294,194,67378,1,2,2:0:0:0:
294,194,67558,2,0,P|335:208|416:241,1,113,2|10,1:2|2:0,2:0:0:0:
498,209,68281,1,2,1:2:0:0:
467,306,68643,1,8,2:0:0:0:
397,380,69004,2,0,P|354:363|280:341,1,113,2|10,1:2|2:0,2:0:0:0:
210,280,69727,6,0,P|163:300|84:329,1,113,2|8,1:2|2:0,2:0:0:0:
45,238,70450,2,0,P|25:177|-3:114,1,113,2|10,1:2|2:0,2:0:0:0:
40,95,70992,1,2,2:0:0:0:
40,95,71173,2,0,P|55:50|65:17,2,56.5,2|2|8,1:2|2:0|2:0,2:0:0:0:
131,139,71896,2,0,P|144:174|150:198,2,56.5,2|2|10,1:2|2:0|2:0,2:0:0:0:
210,75,72619,6,0,P|257:92|329:118,1,113,2|8,1:2|2:0,2:0:0:0:
341,69,73161,1,2,2:0:0:0:
341,69,73342,2,0,P|389:53|465:23,1,113,2|10,1:2|2:0,2:0:0:0:
509,105,74064,1,2,1:2:0:0:
424,162,74426,1,8,2:0:0:0:
492,236,74787,2,0,P|475:281|454:355,1,113,2|10,1:2|2:0,2:0:0:0:
357,365,75510,6,0,P|306:346|227:327,1,113,2|8,1:2|2:0,2:0:0:0:
153,365,76233,1,2,1:2:0:0:
153,365,76414,2,0,P|144:328|133:297,1,56.5,2|10,2:0|2:0,2:0:0:0:
109,268,76775,2,0,P|47:284|-13:294,2,113,4|2|10,1:0|2:0|2:0,2:0:0:0:
137,225,77679,1,6,1:2:0:0:
60,158,78040,1,10,2:0:0:0:
116,73,78402,6,0,P|179:63|360:17,1,226,4|0,1:2|1:2,2:0:0:0:
410,93,79486,1,0,1:2:0:0:
419,194,79848,2,0,P|309:165|198:145,1,226,0|0,1:2|1:2,2:0:0:0:
126,217,80932,1,0,1:2:0:0:
102,315,81293,6,0,P|211:286|322:266,1,226,0|0,1:2|1:2,2:0:0:0:
386,345,82378,1,0,1:2:0:0:
479,304,82739,2,0,P|491:252|510:194,1,113,0|0,1:2|1:2,2:0:0:0:
415,156,83462,2,0,P|432:102|445:47,1,113,0|0,1:2|1:2,2:0:0:0:
349,12,84185,6,0,B|234:19|282:98|128:100,1,226,0|0,1:2|1:2,2:0:0:0:
62,42,85269,1,2,1:2:0:0:
10,129,85631,2,0,B|125:136|77:215|231:217,1,226,0|0,1:2|1:2,2:0:0:0:
295,158,86715,1,2,1:2:0:0:
365,231,87076,6,0,P|354:281|340:359,1,113,0|2,1:2|1:2,2:0:0:0:
443,325,87799,2,0,P|454:275|468:197,1,113,0|2,1:2|1:2,2:0:0:0:
502,119,88522,2,0,P|482:73|465:19,2,84.75,0|0|0,1:0|1:0|1:0,2:0:0:0:
