osu file format v14

[General]
AudioFilename: audio.ogg
AudioLeadIn: 0
PreviewTime: 54892
Countdown: 0
SampleSet: Soft
StackLeniency: 0.4
Mode: 0
LetterboxInBreaks: 0
WidescreenStoryboard: 1

[Editor]
Bookmarks: 330,11896,14787,17679,29245,40811,46595,55269,78402
DistanceSpacing: 0.9
BeatDivisor: 4
GridSize: 32
TimelineZoom: 2.25

[Metadata]
Title:Idol (TV Size)
TitleUnicode:アイドル (TV Size)
Artist:YOASOBI
ArtistUnicode:YOASOBI
Creator:Len
Version:L1gHT's Hard
Source:【推しの子】
Tags:【Oshi no Ko】 My Star opening op japanese pop jpop j-pop anime 幾田りら ikuta lilas ayase fast eringira l1ght_u light_u -hitomi
BeatmapID:4097139
BeatmapSetID:1974205

[Difficulty]
HPDrainRate:4
CircleSize:3.8
OverallDifficulty:6.5
ApproachRate:8
SliderMultiplier:1.4
SliderTickRate:1

[Events]
//Background and Video events
0,0,"d.jpg",0,0
Video,-275,"video.mp4"
//Break Periods
2,14787,16929
2,41011,45845
//Storyboard Layer 0 (Background)
//Storyboard Layer 1 (Fail)
//Storyboard Layer 2 (Pass)
//Storyboard Layer 3 (Foreground)
//Storyboard Layer 4 (Overlay)
//Storyboard Sound Samples

[TimingPoints]
330,361.44578313253,4,2,1,50,1,0
11896,-100,4,2,1,60,0,0
17679,-111.111111111111,4,2,1,50,0,0
29245,-111.111111111111,4,2,1,60,0,0
30330,-99.9999999999999,4,2,1,60,0,0
40811,-99.9999999999999,4,2,2,40,0,0
46595,-111.111111111111,4,2,1,60,0,0
52558,-111.111111111111,4,2,9,60,0,0
52920,-111.111111111111,4,2,1,60,0,0
53642,-111.111111111111,4,2,1,65,0,0
54546,-111.111111111111,4,2,4,50,0,0
55269,-83.3333333333333,4,2,4,70,0,0
55450,-83.3333333333333,4,2,1,70,0,0
61052,-83.3333333333333,4,2,3,70,0,0
61233,-83.3333333333333,4,2,1,70,0,0
66836,-83.3333333333333,4,2,3,70,0,0
67016,-83.3333333333333,4,2,1,70,0,0
78402,-100,4,2,1,40,0,0
84185,-125,4,2,1,50,0,0

[Colours]
Combo1 : 157,201,255
Combo2 : 183,183,219

[HitObjects]
56,52,330,6,0,L|197:76,1,140,4|2,1:0|3:2,2:0:0:0:
205,90,781,1,0,3:0:0:0:
214,105,872,1,2,3:2:0:0:
265,190,1052,2,0,L|247:272,1,70,8|2,2:0|2:0,2:0:0:0:
341,288,1414,2,0,L|356:219,1,70,0|2,3:0|2:0,2:0:0:0:
370,126,1775,1,0,3:0:0:0:
181,114,2137,6,0,B|97:125|129:165|32:164,1,140,4|8,1:0|2:0,2:0:0:0:
113,245,2679,2,0,P|153:287|173:373,1,140,6|0,1:2|2:0,2:0:0:0:
71,384,3221,6,0,B|34:313|72:251,1,140,4|2,1:0|3:2,2:0:0:0:
93,248,3673,1,0,3:0:0:0:
113,245,3763,1,2,3:2:0:0:
217,232,3944,2,0,L|306:238,1,70,8|2,2:0|2:0,2:0:0:0:
339,313,4305,2,0,L|428:319,1,70,0|2,3:0|2:0,2:0:0:0:
480,257,4667,1,0,3:0:0:0:
459,84,5028,6,0,B|389:90|412:125|320:131,1,140,4|8,1:0|2:0,2:0:0:0:
236,117,5570,2,0,P|265:58|333:37,1,140,6|0,1:2|2:0,2:0:0:0:
329,130,6113,6,0,P|326:216|326:282,1,140,4|2,1:0|3:2,2:0:0:0:
315,283,6564,1,0,3:0:0:0:
304,295,6655,1,2,3:2:0:0:
210,338,6836,2,0,L|127:333,1,70,8|2,2:0|2:0,2:0:0:0:
103,249,7197,2,0,L|172:253,1,70,0|2,3:0|2:0,2:0:0:0:
258,197,7558,1,0,3:0:0:0:
195,31,7920,6,0,P|138:26|75:82,1,140,4|8,1:0|2:0,2:0:0:0:
0,111,8462,2,0,B|85:99|61:148|154:134,1,140,6|0,1:2|2:0,2:0:0:0:
227,127,9004,6,0,B|316:122|274:87|357:85,1,140,4|2,1:0|3:2,2:0:0:0:
375,92,9456,1,0,3:0:0:0:
391,100,9546,1,2,3:2:0:0:
480,42,9727,2,0,L|472:127,1,70,8|2,2:0|2:0,2:0:0:0:
425,189,10089,2,0,L|417:274,1,70,0|2,3:0|2:0,2:0:0:0:
500,327,10450,1,0,3:0:0:0:
333,285,10811,6,0,P|281:328|336:369,1,140,4|8,1:0|2:0,2:0:0:0:
410,351,11354,2,0,P|425:287|390:197,1,140,6|0,1:2|2:0,2:0:0:0:
310,149,11896,6,0,B|221:142|221:142|169:181,1,140,4|2,1:0|2:0,2:0:0:0:
37,343,12619,2,0,B|126:350|126:350|178:311,1,140,4|2,1:0|2:0,2:0:0:0:
177,246,13161,1,10,2:0:0:0:
188,99,13522,1,10,2:0:0:0:
166,319,13884,5,8,2:0:0:0:
177,246,14064,1,8,2:0:0:0:
188,99,14426,1,0,3:2:0:0:
418,45,17679,6,0,L|400:114,1,63.0000000000001,4|2,1:0|2:0,2:0:0:0:
350,174,18040,2,0,L|368:243,1,63.0000000000001,8|2,2:0|2:0,2:0:0:0:
445,276,18402,2,0,P|408:313|318:310,1,126,2|8,1:2|2:0,2:0:0:0:
249,293,18944,1,2,2:0:0:0:
249,293,19125,6,0,L|258:373,1,63.0000000000001,0|2,1:0|2:0,2:0:0:0:
162,369,19486,2,0,L|154:306,1,63.0000000000001,10|2,2:0|2:0,2:0:0:0:
130,223,19848,2,0,L|272:208,1,126,2|8,1:2|2:0,2:0:0:0:
314,136,20390,1,2,2:0:0:0:
281,49,20570,5,0,1:0:0:0:
281,49,20932,2,0,P|229:62|196:74,1,63.0000000000001,8|2,2:0|2:0,2:0:0:0:
139,113,21293,2,0,P|87:100|54:88,1,63.0000000000001,2|2,1:2|2:0,2:0:0:0:
21,174,21655,1,8,2:0:0:0:
21,174,21836,1,2,2:0:0:0:
112,197,22016,6,0,P|142:206|173:213,1,63.0000000000001,0|2,1:0|2:0,2:0:0:0:
245,152,22378,2,0,P|275:143|306:137,1,63.0000000000001,8|2,2:0|2:0,2:0:0:0:
333,46,22739,2,0,P|370:58|409:65,1,62.9999980773926,2|0,1:2|2:0,0:0:0:0:
482,96,23101,1,8,2:0:0:0:
412,155,23281,1,2,2:0:0:0:
412,155,23372,1,2,2:0:0:0:
412,155,23462,6,0,P|424:194|435:221,1,63.0000000000001,4|2,1:0|2:0,2:0:0:0:
470,300,23823,2,0,P|458:339|447:366,1,63.0000000000001,8|2,2:0|2:0,2:0:0:0:
362,325,24185,2,0,B|285:331|322:360|241:365,1,126,2|8,1:2|2:0,2:0:0:0:
151,378,24727,1,2,2:0:0:0:
151,378,24908,6,0,L|142:298,1,63.0000000000001,0|2,1:0|2:0,2:0:0:0:
238,302,25269,2,0,L|245:364,1,63.0000000000001,8|2,2:0|2:0,2:0:0:0:
339,358,25631,2,0,L|323:212,1,126,2|8,1:2|2:0,2:0:0:0:
318,136,26173,1,2,2:0:0:0:
307,40,26354,5,0,1:0:0:0:
307,40,26715,2,0,P|255:53|222:65,1,63.0000000000001,8|2,2:0|2:0,2:0:0:0:
165,104,27076,2,0,P|113:91|80:79,1,63.0000000000001,2|2,1:2|2:0,2:0:0:0:
52,169,27438,1,8,2:0:0:0:
52,169,27619,1,2,2:0:0:0:
142,194,27799,6,0,P|172:203|203:210,1,63.0000000000001,0|2,1:0|2:0,2:0:0:0:
272,145,28161,2,0,P|302:136|333:130,1,63.0000000000001,8|2,2:0|2:0,2:0:0:0:
405,66,28522,1,2,1:2:0:0:
405,66,28703,1,2,2:0:0:0:
494,74,28884,2,0,P|497:48|470:3,1,63.0000000000001,8|2,2:0|2:0,2:0:0:0:
441,145,29245,5,4,1:0:0:0:
330,231,29516,1,2,2:0:0:0:
216,320,29787,1,2,2:0:0:0:
431,383,30149,5,2,2:0:0:0:
497,324,30330,2,0,P|495:292|461:240,1,70.0000000000001,8|2,2:0|2:0,2:0:0:0:
389,239,30691,5,4,1:0:0:0:
303,128,30962,1,2,2:0:0:0:
214,14,31233,1,2,2:0:0:0:
31,143,31595,5,2,2:0:0:0:
31,143,31775,2,0,P|73:134|117:120,1,70.0000000000001,8|2,2:0|2:0,2:0:0:0:
191,155,32137,6,0,P|245:136|264:135,1,70.0000000000001,4|2,1:0|2:0,2:0:0:0:
285,231,32498,2,0,P|231:250|212:251,1,70.0000000000001,8|0,2:0|2:0,2:0:0:0:
120,231,32860,6,0,P|85:236|54:251,1,70.0000000000001,0|2,1:0|2:0,2:0:0:0:
81,346,33221,2,0,P|116:341|148:327,1,70.0000000000001,8|0,2:0|2:0,2:0:0:0:
218,250,33583,5,2,1:2:0:0:
191,155,33763,1,2,2:0:0:0:
98,126,33944,2,0,P|101:78|102:27,1,70.0000000000001,10|2,2:0|2:0,2:0:0:0:
190,3,34305,1,0,1:0:0:0:
259,86,34486,5,8,2:0:0:0:
259,86,34576,1,8,2:0:0:0:
259,86,34667,2,0,P|295:73|333:63,1,70.0000000000001,0|0,1:0|1:0,2:0:0:0:
422,51,35028,5,4,1:0:0:0:
333,165,35299,1,2,2:0:0:0:
291,299,35570,1,2,2:0:0:0:
116,209,35932,5,2,2:0:0:0:
44,276,36113,2,0,P|54:311|66:354,1,70.0000000000001,8|2,2:0|2:0,2:0:0:0:
154,380,36474,5,4,1:0:0:0:
240,269,36745,1,2,2:0:0:0:
329,155,37016,1,2,2:0:0:0:
483,293,37378,5,2,2:0:0:0:
483,293,37468,1,2,2:0:0:0:
483,293,37558,2,0,P|464:336|454:373,1,70.0000000000001,8|2,2:0|2:0,2:0:0:0:
376,301,37920,6,0,P|322:320|303:321,1,70.0000000000001,4|2,1:0|2:0,2:0:0:0:
282,225,38281,2,0,P|336:206|355:205,1,70.0000000000001,8|2,2:0|2:0,2:0:0:0:
416,134,38643,6,0,P|451:129|483:115,1,70.0000000000001,0|2,1:0|2:0,2:0:0:0:
452,33,39004,1,8,2:0:0:0:
363,18,39185,1,2,2:0:0:0:
348,205,39546,5,2,2:0:0:0:
435,248,39727,1,10,2:0:0:0:
426,352,39908,1,10,2:0:0:0:
426,352,39998,1,8,2:0:0:0:
426,352,40089,1,2,1:2:0:0:
257,279,40450,5,0,1:0:0:0:
257,183,40631,1,0,1:0:0:0:
257,87,40811,1,4,1:2:0:0:
64,28,46595,6,0,P|50:80|44:162,1,126,4|8,1:0|2:0,2:0:0:0:
33,248,47137,1,2,2:0:0:0:
186,360,47498,2,0,P|233:353|266:350,1,63.0000000000001,2|8,2:0|2:0,2:0:0:0:
336,379,47860,2,0,P|335:322|282:270,1,126,2|0,2:0|2:0,2:0:0:0:
217,229,48402,1,10,2:0:0:0:
217,229,48583,2,0,P|202:194|204:167,1,63.0000000000001,2|2,2:0|1:2,2:0:0:0:
312,16,49125,5,8,2:0:0:0:
385,71,49305,1,2,2:0:0:0:
447,142,49486,2,0,P|481:198|505:260,1,126,4|8,1:0|2:0,2:0:0:0:
503,254,50209,2,0,P|509:317|469:369,1,126,2|8,1:2|2:0,2:0:0:0:
385,376,50751,1,2,2:0:0:0:
385,376,51113,5,2,2:0:0:0:
335,299,51293,2,0,L|314:224,1,63.0000000000001,10|2,2:0|2:0,2:0:0:0:
237,213,51655,2,0,L|256:137,1,63.0000000000001,2|2,1:2|2:0,2:0:0:0:
195,89,52016,2,0,L|249:33,1,63.0000000000001,10|0,2:0|3:0,2:0:0:0:
311,0,52378,5,0,1:0:0:0:
372,62,52558,2,0,L|364:129,1,63.0000000000001,8|8,2:1|2:0,2:0:0:0:
418,192,52920,1,2,1:2:0:0:
418,192,53101,2,0,L|496:182,1,63.0000000000001,8|2,2:0|1:2,2:0:0:0:
492,195,53372,1,2,1:2:0:0:
500,210,53462,2,0,P|496:259|469:283,1,63.0000000000001,2|8,1:2|2:0,2:0:0:0:
323,346,54004,1,8,2:0:0:0:
241,187,54366,5,10,2:0:0:0:
260,278,54546,1,10,2:0:0:0:
496,129,55269,6,0,P|443:118|396:48,1,126,4|0,1:0|2:0,2:0:0:0:
388,49,55631,2,0,P|347:26|297:33,1,84,10|0,2:0|2:0,2:0:0:0:
229,96,55992,2,0,P|239:150|246:192,1,84,2|0,1:2|2:0,2:0:0:0:
201,264,56354,1,10,2:0:0:0:
105,262,56534,1,2,2:0:0:0:
105,262,56896,5,2,2:0:0:0:
47,189,57076,1,10,2:0:0:0:
90,104,57257,1,2,2:0:0:0:
183,89,57438,2,0,B|274:100|238:141|347:152,1,168,2|10,1:2|2:0,2:0:0:0:
430,116,57980,1,2,2:0:0:0:
489,207,58161,6,0,L|471:376,1,168,2|10,1:2|2:0,2:0:0:0:
471,374,58884,2,0,P|416:371|386:342,1,84,2|0,1:2|2:0,2:0:0:0:
331,283,59245,1,10,2:0:0:0:
269,204,59426,2,0,P|214:207|173:308,1,168,2|2,2:0|2:0,2:0:0:0:
100,360,59968,6,0,L|16:354,1,84,10|10,2:0|2:0,2:0:0:0:
17,339,60239,1,10,2:0:0:0:
19,325,60330,2,0,L|25:241,1,84,4|10,1:0|2:0,2:0:0:0:
42,245,60601,1,10,2:0:0:0:
58,246,60691,2,0,L|52:162,1,84,4|10,1:2|2:0,2:0:0:0:
50,146,60962,1,10,2:0:0:0:
49,130,61052,6,0,B|153:133|113:174|211:183,1,168,4|10,1:0|2:0,2:0:0:0:
329,295,61775,2,0,P|319:241|318:197,1,84,2|0,1:2|2:0,2:0:0:0:
311,120,62137,1,10,2:0:0:0:
407,122,62317,1,2,2:0:0:0:
407,122,62679,5,2,2:0:0:0:
465,195,62860,1,10,2:0:0:0:
422,280,63040,1,2,2:0:0:0:
329,295,63221,2,0,B|238:284|274:243|165:232,1,168,2|10,1:2|2:0,2:0:0:0:
95,269,63763,1,2,2:0:0:0:
117,359,63944,6,0,P|173:328|175:232,1,168,2|10,1:2|2:0,2:0:0:0:
286,59,64667,2,0,P|241:35|201:34,1,84,2|0,1:2|2:0,2:0:0:0:
121,78,65028,1,10,2:0:0:0:
102,172,65209,2,0,P|153:179|300:229,1,168,2|2,2:0|2:0,2:0:0:0:
493,13,65932,5,2,2:0:0:0:
505,111,66113,2,0,P|513:164|499:195,1,84,4|10,1:0|2:0,2:0:0:0:
482,191,66384,1,10,2:0:0:0:
466,190,66474,2,0,L|472:274,1,84,4|10,1:2|2:0,2:0:0:0:
474,290,66745,1,10,2:0:0:0:
475,306,66836,6,0,B|371:303|411:262|313:253,1,168,4|8,1:0|2:0,2:0:0:0:
240,294,67378,1,2,2:0:0:0:
240,294,67558,2,0,P|190:310|153:312,1,84,2|2,1:2|2:0,2:0:0:0:
84,267,67920,2,0,P|90:219|91:173,1,84,10|2,2:0|2:0,2:0:0:0:
10,126,68281,2,0,B|88:178|168:118,1,168,2|8,1:2|2:0,2:0:0:0:
238,44,68823,5,2,2:0:0:0:
323,81,69004,2,0,L|308:179,1,84,2|2,1:2|2:0,2:0:0:0:
233,219,69366,2,0,L|248:317,1,84,10|2,2:0|2:0,2:0:0:0:
325,360,69727,1,2,1:2:0:0:
512,232,70089,5,8,2:0:0:0:
512,232,70269,1,2,2:0:0:0:
454,159,70450,2,0,P|412:179|373:192,1,84,2|2,1:2|2:0,2:0:0:0:
310,250,70811,2,0,P|268:230|229:217,1,84,10|2,2:0|2:0,2:0:0:0:
146,243,71173,6,0,P|148:198|167:160,1,84,2|2,1:2|2:0,2:0:0:0:
153,67,71534,1,8,2:0:0:0:
153,67,71715,1,2,2:0:0:0:
74,129,71896,6,0,P|57:167|56:209,1,84,2|2,1:2|2:0,2:0:0:0:
73,312,72257,1,10,2:0:0:0:
73,312,72438,1,2,2:0:0:0:
146,243,72619,6,0,P|222:232|326:247,1,168,2|8,1:2|2:0,2:0:0:0:
325,142,73161,1,2,2:0:0:0:
414,112,73342,2,0,P|455:119|497:159,1,84,2|2,1:2|2:0,2:0:0:0:
507,244,73703,2,0,P|501:292|500:338,1,84,10|2,2:0|2:0,2:0:0:0:
407,367,74064,2,0,B|319:363|350:327|244:326,1,168,2|8,1:2|2:0,2:0:0:0:
151,362,74607,5,2,2:0:0:0:
132,368,74697,1,2,2:0:0:0:
114,373,74787,2,0,L|129:275,1,84,2|2,1:2|2:0,2:0:0:0:
173,221,75149,2,0,L|158:123,1,84,10|2,2:0|2:0,2:0:0:0:
81,80,75510,1,2,1:2:0:0:
3,267,75872,5,8,2:0:0:0:
3,267,76052,1,2,2:0:0:0:
61,340,76233,2,0,P|103:320|142:307,1,84,2|2,1:2|2:0,2:0:0:0:
197,226,76595,1,10,2:0:0:0:
294,204,76775,6,0,P|286:283|300:381,1,168,4|2,1:0|2:0,2:0:0:0:
393,374,77317,2,0,P|401:317|393:285,1,84,8|10,2:0|2:0,2:0:0:0:
314,212,77679,2,0,B|214:230|251:259|140:279,1,168,6|10,1:2|2:0,2:0:0:0:
13,151,78402,6,0,P|30:82|42:9,2,140,4|0|0,1:2|1:2|1:2,2:0:0:0:
113,248,79486,1,0,1:2:0:0:
238,185,79848,6,0,P|255:254|267:327,2,140,0|0|0,1:2|1:2|1:2,2:0:0:0:
324,74,80932,1,0,1:2:0:0:
445,143,81293,6,0,P|462:74|474:1,1,140,0|0,1:2|1:2,2:0:0:0:
324,74,82016,2,0,P|341:143|353:216,1,140,0|0,1:2|1:2,2:0:0:0:
484,256,82739,5,0,1:2:0:0:
327,302,83101,1,0,1:2:0:0:
168,308,83462,1,0,1:2:0:0:
16,280,83823,1,0,1:2:0:0:
68,103,84185,6,0,L|106:214,1,112,0|2,1:2|1:2,2:0:0:0:
210,384,84908,2,0,L|248:273,1,112,0|2,1:2|1:2,2:0:0:0:
413,272,85631,2,0,L|375:383,1,112,0|2,1:2|1:2,2:0:0:0:
323,203,86354,2,0,L|431:152,1,112,0|2,1:2|1:2,2:0:0:0:
247,106,87076,2,0,L|235:223,1,112,0|2,1:2|1:2,2:0:0:0:
168,365,87799,2,0,L|66:317,1,112,0|2,1:2|1:2,2:0:0:0:
0,177,88522,5,0,1:0:0:0:
80,73,88793,5,0,1:0:0:0:
201,115,89064,5,0,1:0:0:0:
