osu file format v14

[General]
AudioFilename: audio.ogg
AudioLeadIn: 0
PreviewTime: 54892
Countdown: 0
SampleSet: Soft
StackLeniency: 0.5
Mode: 0
LetterboxInBreaks: 0
WidescreenStoryboard: 1

[Editor]
Bookmarks: 330,11896,14787,17679,29245,40811,46595,55269,61052,66836,78402
DistanceSpacing: 0.9
BeatDivisor: 4
GridSize: 32
TimelineZoom: 2.25

[Metadata]
Title:Idol (TV Size)
TitleUnicode:アイドル (TV Size)
Artist:YOASOBI
ArtistUnicode:YOASOBI
Creator:Len
Version:Insane
Source:【推しの子】
Tags:【Oshi no Ko】 My Star opening op japanese pop jpop j-pop anime 幾田りら ikuta lilas ayase fast eringira l1ght_u light_u -hitomi
BeatmapID:4097138
BeatmapSetID:1974205

[Difficulty]
HPDrainRate:5
CircleSize:4
OverallDifficulty:8.2
ApproachRate:9
SliderMultiplier:1.84
SliderTickRate:1

[Events]
//Background and Video events
0,0,"d.jpg",0,0
Video,-275,"video.mp4"
//Break Periods
2,14987,17079
//Storyboard Layer 0 (Background)
//Storyboard Layer 1 (Fail)
//Storyboard Layer 2 (Pass)
//Storyboard Layer 3 (Foreground)
//Storyboard Layer 4 (Overlay)
//Storyboard Sound Samples

[TimingPoints]
330,361.44578313253,4,2,1,50,1,0
691,-111.111111111111,4,2,1,50,0,0
11896,-111.111111111111,4,2,1,60,0,0
12257,-100,4,2,1,60,0,0
14787,-100,4,2,1,40,0,0
17679,-100,4,2,1,50,0,0
29245,-100,4,2,1,60,0,0
40811,-100,4,2,2,40,0,0
41354,-100,4,2,1,40,0,0
41534,-142.857142857143,4,2,1,40,0,0
46595,-111.111111111111,4,2,1,60,0,0
53643,-99.9999999999999,4,2,1,65,0,0
54546,-99.9999999999999,4,2,4,50,0,0
54908,-142.857142857143,4,2,1,65,0,0
55269,-90.9090909090909,4,2,4,70,0,0
55450,-90.9090909090909,4,2,1,70,0,0
61052,-90.9090909090909,4,2,3,70,0,0
61233,-90.9090909090909,4,2,1,70,0,0
66836,-111.111111111111,4,2,3,70,0,0
67016,-111.111111111111,4,2,1,70,0,0
76775,-100,4,2,1,70,0,0
78402,-100,4,2,1,40,0,0
84185,-100,4,2,1,50,0,0

[Colours]
Combo1 : 157,201,255
Combo2 : 183,183,219

[HitObjects]
39,44,330,5,4,1:0:0:0:
39,44,691,2,0,L|32:12,6,20.7,2|0|0|0|2|0|0,3:2|3:0|3:0|3:0|3:2|3:0|3:0,2:0:0:0:
85,109,1052,2,0,P|139:125|179:139,1,82.8000000000001,8|2,2:0|2:0,2:0:0:0:
216,67,1414,2,0,P|253:43|292:9,1,82.8000000000001,0|2,3:0|2:0,2:0:0:0:
328,89,1775,1,0,3:0:0:0:
328,89,1956,1,2,2:0:0:0:
425,54,2137,2,0,P|410:99|397:150,1,82.8000000000001,4|2,1:0|2:0,2:0:0:0:
443,205,2498,1,8,2:0:0:0:
371,288,2679,2,0,P|361:247|340:188,1,82.8000000000001,6|2,1:2|2:0,2:0:0:0:
457,310,3040,1,0,2:0:0:0:
269,269,3221,5,4,1:0:0:0:
269,269,3583,2,0,L|243:260,6,20.7,2|0|0|0|2|0|0,3:2|3:0|3:0|3:0|3:2|3:0|3:0,2:0:0:0:
219,341,3944,6,0,P|178:358|140:380,1,82.8000000000001,8|2,2:0|2:0,2:0:0:0:
84,320,4305,2,0,P|52:296|34:245,1,82.8000000000001,0|2,3:0|2:0,2:0:0:0:
163,147,4667,1,0,3:0:0:0:
163,147,4848,1,2,2:0:0:0:
55,99,5028,2,0,P|72:148|83:197,1,82.8000000000001,4|2,1:0|2:0,2:0:0:0:
141,231,5390,1,8,2:0:0:0:
279,152,5570,2,0,P|245:193|218:230,1,82.8000000000001,6|2,1:2|2:0,2:0:0:0:
219,77,5932,1,0,2:0:0:0:
348,199,6113,6,0,P|399:169|427:157,1,82.8000000000001,4|0,1:0|2:0,2:0:0:0:
496,44,6474,2,0,L|505:9,6,20.7,2|0|0|0|2|0|0,3:2|3:0|3:0|3:0|3:2|3:0|3:0,2:0:0:0:
414,3,6836,1,8,2:0:0:0:
414,3,7016,1,2,2:0:0:0:
394,90,7197,2,0,P|408:136|416:182,1,82.8000000000001,0|2,3:0|2:0,2:0:0:0:
486,225,7558,1,0,3:0:0:0:
486,225,7739,1,2,2:0:0:0:
455,344,7920,2,0,P|409:318|361:298,1,82.8000000000001,4|2,1:0|2:0,2:0:0:0:
334,214,8281,1,8,2:0:0:0:
264,325,8462,2,0,P|217:344|178:368,1,82.8000000000001,6|2,1:2|2:0,2:0:0:0:
104,312,8823,1,0,2:0:0:0:
174,154,9004,5,4,1:0:0:0:
174,154,9366,2,0,L|166:121,6,20.7,2|0|0|0|2|0|0,3:2|3:0|3:0|3:0|3:2|3:0|3:0,2:0:0:0:
114,221,9727,2,0,P|68:199|29:187,1,82.8000000000001,8|2,2:0|2:0,2:0:0:0:
170,299,10089,2,0,P|208:265|246:240,1,82.8000000000001,0|2,3:0|2:0,2:0:0:0:
273,146,10450,1,0,3:0:0:0:
273,146,10631,1,2,2:0:0:0:
402,245,10811,2,0,P|362:231|309:205,1,82.8000000000001,4|2,1:0|2:0,2:0:0:0:
427,324,11173,1,8,2:0:0:0:
493,185,11354,2,0,P|479:143|463:82,1,82.8000000000001,6|2,1:2|2:0,2:0:0:0:
504,10,11715,1,0,2:0:0:0:
353,121,11896,5,4,1:0:0:0:
353,121,12257,2,0,P|297:103|252:93,1,92,2|0,2:0|2:0,2:0:0:0:
68,40,12619,1,4,1:0:0:0:
164,201,12799,1,2,2:0:0:0:
164,201,12890,1,0,2:0:0:0:
164,201,12980,1,2,2:0:0:0:
248,0,13161,5,10,2:0:0:0:
248,0,13522,1,10,2:0:0:0:
248,0,13884,1,8,2:0:0:0:
18,147,14064,1,8,2:0:0:0:
358,264,14426,6,0,L|363:232,8,23,0|0|0|0|0|0|0|0|4,3:2|2:0|2:0|2:0|2:0|2:0|2:0|2:0|1:0,2:0:0:0:
114,352,17679,6,0,P|102:302|87:254,1,92,4|2,1:0|2:0,2:0:0:0:
268,164,18040,2,0,P|251:222|243:272,1,92,8|2,2:0|2:0,2:0:0:0:
161,194,18402,1,2,1:2:0:0:
263,350,18583,1,2,2:0:0:0:
263,350,18673,1,2,2:0:0:0:
263,350,18763,2,0,P|316:333|373:321,1,92,8|2,2:0|2:0,2:0:0:0:
498,225,19125,6,0,P|451:208|401:187,1,92,0|2,1:0|2:0,2:0:0:0:
258,112,19486,2,0,P|287:180|297:212,1,92,10|2,2:0|2:0,2:0:0:0:
466,23,19848,1,2,1:2:0:0:
361,113,20028,1,0,2:0:0:0:
361,113,20119,1,0,2:0:0:0:
361,113,20209,2,0,P|374:55|382:15,1,92,8|2,2:0|2:0,2:0:0:0:
292,197,20570,6,0,P|240:226|202:257,1,92,0|2,1:0|2:0,2:0:0:0:
400,220,20932,2,0,P|435:261|472:290,1,92,8|2,2:0|2:0,2:0:0:0:
268,111,21293,2,0,P|221:88|175:56,1,92,2|2,1:2|2:0,2:0:0:0:
325,282,21655,2,0,P|295:338|279:383,1,92,8|2,2:0|2:0,2:0:0:0:
88,305,22016,5,0,1:0:0:0:
88,305,22197,1,2,2:0:0:0:
150,210,22378,2,0,P|171:256|186:303,1,92,8|2,2:0|2:0,2:0:0:0:
272,105,22739,2,0,P|218:121|125:22,1,184,2|8,1:2|2:0,2:0:0:0:
0,175,23281,5,2,2:0:0:0:
0,175,23372,1,2,2:0:0:0:
0,175,23462,2,0,P|54:158|109:147,1,92,4|2,1:0|2:0,2:0:0:0:
216,34,23823,1,8,2:0:0:0:
216,34,24004,1,2,2:0:0:0:
249,207,24185,2,0,B|346:198|310:264|423:245,1,184,2|8,1:2|2:0,2:0:0:0:
483,167,24727,1,2,2:0:0:0:
361,350,24908,6,0,P|324:319|333:259,1,92,0|2,1:0|2:0,2:0:0:0:
393,135,25269,2,0,P|407:80|415:34,1,92,8|2,2:0|2:0,2:0:0:0:
422,245,25631,2,0,P|381:178|265:190,1,184,2|8,1:2|2:0,2:0:0:0:
206,123,26173,1,2,2:0:0:0:
136,274,26354,6,0,P|184:256|245:242,1,92,0|2,1:0|2:0,2:0:0:0:
85,173,26715,2,0,P|33:155|-9:134,1,92,8|2,2:0|2:0,2:0:0:0:
47,265,27076,2,0,P|25:305|19:350,1,92,2|2,1:2|2:0,2:0:0:0:
185,177,27438,2,0,P|165:117|155:72,1,92,8|2,2:0|2:0,2:0:0:0:
94,22,27799,5,0,1:0:0:0:
266,91,27980,1,2,2:0:0:0:
95,192,28161,1,8,2:0:0:0:
224,13,28342,5,2,2:0:0:0:
224,13,28432,1,2,2:0:0:0:
224,13,28522,2,0,P|291:6|346:134,1,184,2|8,1:2|2:0,2:0:0:0:
465,353,29245,6,0,P|413:337|350:323,1,92,4|2,1:0|2:0,2:0:0:0:
362,304,29516,2,0,P|310:321|255:333,1,92,2|0,2:0|2:0,2:0:0:0:
204,375,29787,2,0,P|146:350|152:226,1,184,2|2,2:0|2:0,2:0:0:0:
292,164,30330,5,8,2:0:0:0:
257,240,30510,1,2,2:0:0:0:
101,63,30691,6,0,P|126:113|150:163,1,92,4|2,1:0|2:0,2:0:0:0:
142,166,30962,2,0,P|181:122|226:88,1,92,2|0,2:0|2:0,2:0:0:0:
256,27,31233,2,0,P|300:90|426:54,1,184,2|2,2:0|2:0,2:0:0:0:
486,195,31775,5,8,2:0:0:0:
511,114,31956,1,2,2:0:0:0:
400,209,32137,6,0,P|416:257|428:306,1,92,4|2,1:0|2:0,2:0:0:0:
355,367,32498,2,0,P|304:344|253:330,1,92,8|0,2:0|2:0,2:0:0:0:
82,174,32860,6,0,P|106:221|123:273,1,92,0|2,1:0|2:0,2:0:0:0:
106,373,33221,2,0,P|160:356|191:307,1,92,8|0,2:0|2:0,2:0:0:0:
266,130,33583,5,2,1:2:0:0:
190,192,33763,1,2,2:0:0:0:
306,262,33944,2,0,P|323:215|349:155,1,92,10|2,2:0|2:0,2:0:0:0:
202,5,34305,5,0,1:0:0:0:
190,192,34486,1,8,2:0:0:0:
190,192,34576,1,8,2:0:0:0:
190,192,34667,1,0,1:0:0:0:
354,96,34848,1,0,1:0:0:0:
249,111,35028,6,0,P|199:97|155:85,1,92,4|2,1:0|2:0,2:0:0:0:
127,64,35299,2,0,P|83:76|32:88,1,92,2|0,2:0|2:0,2:0:0:0:
0,19,35570,2,0,P|21:75|46:209,1,184,2|2,2:0|2:0,2:0:0:0:
190,270,36113,5,8,2:0:0:0:
214,192,36293,1,2,2:0:0:0:
75,318,36474,6,0,P|124:333|173:351,1,92,4|2,1:0|2:0,2:0:0:0:
181,372,36745,2,0,P|230:351|289:338,1,92,2|0,2:0|2:0,2:0:0:0:
310,266,37016,1,2,2:0:0:0:
476,328,37197,5,0,1:0:0:0:
366,373,37378,1,2,2:0:0:0:
366,373,37468,1,2,2:0:0:0:
366,373,37558,2,0,P|385:318|402:275,1,92,8|2,2:0|2:0,2:0:0:0:
350,83,37920,5,4,1:0:0:0:
496,203,38101,1,2,2:0:0:0:
312,271,38281,1,8,2:0:0:0:
433,129,38462,5,2,2:0:0:0:
433,129,38552,1,2,2:0:0:0:
433,129,38643,2,0,P|449:73|465:31,1,92,0|2,1:0|2:0,2:0:0:0:
321,3,39004,1,8,2:0:0:0:
255,186,39185,6,0,P|196:162|100:136,1,138,2|0,2:0|2:0,2:0:0:0:
96,150,39546,2,0,P|63:106|87:50,1,92,2|10,2:0|2:0,2:0:0:0:
170,250,39908,1,10,2:0:0:0:
170,250,39998,1,8,2:0:0:0:
170,250,40089,2,0,P|144:298|126:352,1,92,2|8,1:2|2:0,2:0:0:0:
50,374,40450,1,0,1:0:0:0:
50,374,40631,1,0,1:0:0:0:
1,276,40811,5,4,1:2:0:0:
1,276,41354,1,2,1:2:0:0:
62,215,41534,2,0,P|51:174|44:143,2,64.3999999999999,0|0|8,1:0|2:0|2:0,2:0:0:0:
131,333,42076,5,2,1:2:0:0:
131,333,42438,1,2,1:2:0:0:
198,283,42619,2,0,P|206:243|213:208,1,64.3999999999999,2|2,2:0|1:2,2:0:0:0:
271,324,42980,2,0,P|279:284|286:249,1,64.3999999999999,2|0,1:2|2:0,2:0:0:0:
449,201,43342,1,8,2:0:0:0:
449,201,43703,5,2,1:2:0:0:
449,201,44064,2,0,P|437:155|428:123,1,64.3999999999999,2|2,2:0|1:2,2:0:0:0:
452,49,44426,2,0,B|389:52|409:91|331:100,1,128.8,2|8,1:2|2:0,2:0:0:0:
266,40,44968,1,2,2:0:0:0:
217,146,45149,6,0,P|162:162|102:98,1,128.8,2|2,1:2|1:2,2:0:0:0:
162,46,45691,1,2,2:0:0:0:
44,17,45872,2,0,L|60:75,4,32.2,0|0|0|0|10,1:0|1:0|1:0|1:0|2:0,2:0:0:0:
3,261,46595,6,0,P|47:243|166:214,1,165.6,4|8,1:0|2:0,2:0:0:0:
269,288,47137,2,0,P|226:261|234:145,1,165.6,2|2,2:0|2:0,2:0:0:0:
288,81,47679,1,8,2:0:0:0:
133,15,47860,6,0,P|147:58|160:103,1,82.8000000000001,2|2,2:0|1:2,2:0:0:0:
290,211,48221,1,0,2:0:0:0:
290,211,48402,2,0,P|325:170|367:134,1,82.8000000000001,10|2,2:0|2:0,2:0:0:0:
454,23,48763,2,0,B|364:25|397:78|301:72,1,165.6,2|8,1:2|2:0,2:0:0:0:
236,0,49305,1,2,2:0:0:0:
185,204,49486,5,4,1:0:0:0:
185,204,49848,1,8,2:0:0:0:
185,204,50209,2,0,P|134:181|51:158,1,124.2,2|2,1:2|2:0,2:0:0:0:
59,145,50570,2,0,P|18:174|28:232,1,82.8000000000001,8|2,2:0|2:0,2:0:0:0:
67,346,50932,5,2,1:2:0:0:
67,346,51113,2,0,P|112:324|153:310,1,82.8000000000001,2|10,2:0|2:0,2:0:0:0:
199,241,51474,1,2,2:0:0:0:
264,349,51655,2,0,P|308:358|350:372,1,82.8000000000001,2|2,1:2|2:0,2:0:0:0:
399,256,52016,2,0,P|354:269|312:279,1,82.8000000000001,10|0,2:0|3:0,2:0:0:0:
453,330,52378,5,0,1:0:0:0:
453,330,52920,1,2,1:2:0:0:
269,195,53101,1,8,2:0:0:0:
499,126,53281,1,2,1:2:0:0:
502,118,53372,1,2,1:2:0:0:
505,109,53462,1,2,1:2:0:0:
401,201,53643,6,0,P|337:185|205:157,1,184,8|8,2:0|2:0,2:0:0:0:
31,89,54185,1,2,2:0:0:0:
173,287,54366,1,10,2:0:0:0:
255,5,54546,1,10,2:0:0:0:
126,130,54908,6,0,P|136:164|143:205,1,64.3999999999999,2|2,2:0|2:0,2:0:0:0:
134,209,55269,6,0,P|181:186|295:158,1,151.8,4|0,1:0|2:0,2:0:0:0:
348,193,55631,2,0,P|391:160|387:97,1,101.2,10|0,2:0|2:0,2:0:0:0:
313,25,55992,5,2,1:2:0:0:
291,258,56173,1,0,2:0:0:0:
480,133,56354,1,10,2:0:0:0:
399,335,56534,6,0,P|351:317|161:265,1,202.4,2|2,2:0|2:0,2:0:0:0:
26,221,57076,1,10,2:0:0:0:
81,384,57257,5,2,2:0:0:0:
81,384,57348,1,0,2:0:0:0:
81,384,57438,2,0,P|118:345|112:266,1,101.2,2|0,1:2|2:0,2:0:0:0:
78,90,57799,2,0,P|76:150|125:195,1,101.2,10|2,2:0|2:0,2:0:0:0:
229,302,58161,6,0,P|293:273|424:230,1,202.4,2|10,1:2|2:0,2:0:0:0:
429,125,58703,1,0,2:0:0:0:
257,89,58884,2,0,P|282:155|297:202,1,101.2,2|0,1:2|2:0,2:0:0:0:
417,325,59245,1,10,2:0:0:0:
417,325,59426,6,0,P|476:299|489:171,1,202.4,2|2,2:0|2:0,2:0:0:0:
309,19,59968,1,10,2:0:0:0:
401,216,60149,5,10,2:0:0:0:
401,216,60239,1,10,2:0:0:0:
401,216,60330,2,0,P|351:202|291:189,1,101.2,4|10,1:0|2:0,2:0:0:0:
228,229,60601,1,10,2:0:0:0:
225,238,60691,6,0,P|239:284|246:314,1,50.6,4|0,1:2|2:0,2:0:0:0:
170,359,60872,2,0,P|156:313|149:283,1,50.6,10|10,2:0|2:0,2:0:0:0:
0,119,61052,6,0,B|85:133|30:185|136:192,1,151.8,4|0,1:0|2:0,2:0:0:0:
140,178,61414,2,0,P|196:158|258:143,1,101.2,10|0,2:0|2:0,2:0:0:0:
379,62,61775,5,2,1:2:0:0:
280,224,61956,1,0,2:0:0:0:
191,20,62137,1,10,2:0:0:0:
399,151,62317,6,0,P|459:127|463:-10,1,202.4,2|2,2:0|2:0,2:0:0:0:
305,11,62860,1,10,2:0:0:0:
314,206,63040,1,2,2:0:0:0:
314,206,63131,1,0,2:0:0:0:
314,206,63221,2,0,P|252:187|208:177,1,101.2,2|0,1:2|2:0,2:0:0:0:
33,68,63583,2,0,P|50:117|65:179,1,101.2,10|2,2:0|2:0,2:0:0:0:
13,343,63944,6,0,P|64:261|161:264,1,202.4,2|10,1:2|2:0,2:0:0:0:
219,368,64486,1,0,2:0:0:0:
376,273,64667,2,0,P|354:343|347:382,1,101.2,2|0,1:2|2:0,2:0:0:0:
289,202,65028,1,10,2:0:0:0:
429,66,65209,6,0,B|320:61|347:137|237:116,1,202.4,2|2,2:0|2:0,2:0:0:0:
135,12,65751,1,10,2:0:0:0:
36,196,65932,5,2,2:0:0:0:
36,196,66022,1,0,2:0:0:0:
36,196,66113,2,0,P|53:253|65:308,1,101.2,4|10,1:0|2:0,2:0:0:0:
130,355,66384,1,10,2:0:0:0:
137,361,66474,2,0,P|164:305|173:289,1,50.6,4|0,1:2|2:0,2:0:0:0:
225,258,66655,2,0,P|260:280|281:288,1,50.6,10|10,2:0|2:0,2:0:0:0:
441,356,66836,6,0,P|463:287|380:263,1,165.6,4|8,1:0|2:0,2:0:0:0:
346,335,67378,1,2,2:0:0:0:
346,335,67558,2,0,P|302:352|262:372,1,82.8000000000001,2|2,1:2|2:0,2:0:0:0:
206,311,67920,2,0,P|162:288|114:263,1,82.8000000000001,10|2,2:0|2:0,2:0:0:0:
13,167,68281,6,0,B|112:132|72:215|184:178,1,165.6,2|8,1:2|2:0,2:0:0:0:
236,119,68823,1,2,2:0:0:0:
236,119,69004,2,0,P|219:69|211:32,1,82.8000000000001,2|2,1:2|2:0,2:0:0:0:
348,0,69366,2,0,P|332:37|318:76,1,82.8000000000001,10|2,2:0|2:0,2:0:0:0:
378,201,69727,5,2,1:2:0:0:
378,201,70089,2,0,P|432:217|483:147,1,124.2,8|0,2:0|2:0,2:0:0:0:
492,177,70450,2,0,P|475:122|465:69,1,82.8000000000001,2|2,1:2|2:0,2:0:0:0:
427,17,70811,1,10,2:0:0:0:
427,17,70992,1,2,2:0:0:0:
361,79,71173,6,0,P|310:93|270:106,1,82.8000000000001,2|2,1:2|2:0,2:0:0:0:
221,165,71534,2,0,P|178:147|118:128,1,82.8000000000001,8|2,2:0|2:0,2:0:0:0:
45,206,71896,6,0,P|84:219|122:235,1,82.8000000000001,2|2,1:2|2:0,2:0:0:0:
187,309,72257,2,0,P|225:292|264:279,1,82.8000000000001,10|2,2:0|2:0,2:0:0:0:
378,342,72619,6,0,P|435:348|447:251,1,165.6,2|8,1:2|2:0,2:0:0:0:
497,181,73161,1,2,2:0:0:0:
497,181,73342,2,0,P|477:130|466:85,1,82.8000000000001,2|2,1:2|2:0,2:0:0:0:
422,27,73703,2,0,P|374:52|320:68,1,82.8000000000001,10|2,2:0|2:0,2:0:0:0:
278,173,74064,6,0,P|230:147|105:111,1,165.6,2|8,1:2|2:0,2:0:0:0:
26,81,74607,1,2,2:0:0:0:
26,81,74697,1,2,2:0:0:0:
26,81,74787,2,0,P|40:130|48:177,1,82.8000000000001,2|2,1:2|2:0,2:0:0:0:
52,272,75149,2,0,P|100:227|136:204,1,82.8000000000001,10|2,2:0|2:0,2:0:0:0:
224,98,75510,5,2,1:2:0:0:
224,98,75691,1,0,2:0:0:0:
278,173,75872,2,0,P|317:187|356:207,1,82.8000000000001,8|2,2:0|2:0,2:0:0:0:
472,192,76233,2,0,P|443:244|430:285,1,82.8000000000001,2|2,1:2|2:0,2:0:0:0:
471,349,76595,1,10,2:0:0:0:
342,376,76775,6,0,P|284:342|167:284,1,184,4|2,1:0|2:0,2:0:0:0:
5,200,77317,1,8,2:0:0:0:
56,357,77498,5,10,2:0:0:0:
56,357,77589,1,8,2:0:0:0:
56,357,77679,2,0,P|82:299|91:264,1,92,6|2,1:2|2:0,2:0:0:0:
221,222,78040,2,0,P|195:280|186:315,1,92,10|2,2:0|2:0,2:0:0:0:
125,125,78402,6,0,B|95:83|95:83|255:120,1,184,4|0,1:2|1:2,2:0:0:0:
433,30,79125,2,0,B|476:7|476:7|431:147,1,184,0|0,1:2|1:2,2:0:0:0:
465,343,79848,2,0,P|416:319|271:268,1,184,0|0,1:2|1:2,2:0:0:0:
228,86,80570,2,0,P|179:110|34:161,1,184,0|0,1:2|1:2,2:0:0:0:
26,331,81293,6,0,P|86:354|172:251,1,184,0|0,1:2|1:2,2:0:0:0:
228,86,82016,2,0,P|288:63|374:166,1,184,0|0,1:2|1:2,2:0:0:0:
457,343,82739,6,0,P|470:292|485:245,1,92,0|0,1:2|2:0,2:0:0:0:
401,207,83101,2,0,P|388:258|373:305,1,92,0|0,1:2|2:0,2:0:0:0:
300,368,83462,2,0,P|226:345|113:319,1,184,0|0,1:2|1:2,2:0:0:0:
64,261,84004,1,0,2:0:0:0:
133,215,84185,6,0,P|142:166|153:116,1,92,0|0,1:2|2:0,2:0:0:0:
45,50,84546,2,0,P|54:94|62:140,1,92,2|0,1:2|2:0,2:0:0:0:
223,179,84908,2,0,P|266:133|367:46,1,184,0|2,1:2|1:2,2:0:0:0:
357,53,85631,6,0,P|309:36|268:10,1,92,0|0,1:2|2:0,2:0:0:0:
421,126,85992,2,0,P|448:71|474:29,1,92,2|0,1:2|2:0,2:0:0:0:
347,190,86354,2,0,P|371:247|405:368,1,184,0|2,1:2|1:2,2:0:0:0:
468,224,87076,5,0,1:2:0:0:
256,302,87438,1,2,1:2:0:0:
123,124,87799,1,0,1:2:0:0:
256,302,88161,1,2,1:2:0:0:
383,73,88522,6,0,P|317:56|272:36,1,92,0|0,1:0|2:0,2:0:0:0:
273,30,88793,2,0,P|293:85|306:142,1,92,0|0,1:0|2:0,2:0:0:0:
281,188,89064,1,0,1:0:0:0:
