osu file format v14

[General]
AudioFilename: audio.ogg
AudioLeadIn: 0
PreviewTime: 54892
Countdown: 0
SampleSet: Soft
StackLeniency: 0.3
Mode: 0
LetterboxInBreaks: 0
WidescreenStoryboard: 0

[Editor]
Bookmarks: 330,11896,14787,17679,29245,40811,46595,55269,61052,66836,78402
DistanceSpacing: 0.9
BeatDivisor: 4
GridSize: 32
TimelineZoom: 3.349999

[Metadata]
Title:Idol (TV Size)
TitleUnicode:アイドル (TV Size)
Artist:YOASOBI
ArtistUnicode:YOASOBI
Creator:Len
Version:!
Source:【推しの子】
Tags:【Oshi no Ko】 My Star opening op japanese pop jpop j-pop anime 幾田りら ikuta lilas ayase fast eringira l1ght_u light_u -hitomi
BeatmapID:4097136
BeatmapSetID:1974205

[Difficulty]
HPDrainRate:5
CircleSize:4
OverallDifficulty:9
ApproachRate:9.2
SliderMultiplier:1.8
SliderTickRate:1

[Events]
//Background and Video events
0,0,"d.jpg",0,0
Video,-275,"video.mp4"
//Break Periods
2,14987,17109
//Storyboard Layer 0 (Background)
//Storyboard Layer 1 (Fail)
//Storyboard Layer 2 (Pass)
//Storyboard Layer 3 (Foreground)
//Storyboard Layer 4 (Overlay)
//Storyboard Sound Samples

[TimingPoints]
330,361.44578313253,4,2,1,50,1,0
330,-71.4285714285714,4,2,1,50,0,0
691,-100,4,2,1,50,0,0
2137,-71.4285714285714,4,2,1,50,0,0
3583,-100,4,2,1,50,0,0
5028,-71.4285714285714,4,2,1,50,0,0
6474,-100,4,2,1,50,0,0
7920,-71.4285714285714,4,2,1,50,0,0
9366,-100,4,2,1,50,0,0
10811,-71.4285714285714,4,2,1,50,0,0
11896,-71.4285714285714,4,2,1,60,0,0
12257,-83.3333333333333,4,2,1,60,0,0
12619,-55.5555555555556,4,2,1,60,0,0
13161,-47.6190476190476,4,2,1,60,0,0
14064,-71.4285714285714,4,2,1,60,0,0
14426,-90.9090909090909,4,2,1,60,0,0
14787,-90.9090909090909,4,2,1,40,0,0
17679,-100,4,2,1,50,0,0
23281,-76.9230769230769,4,2,1,50,0,0
23462,-100,4,2,1,50,0,0
28522,-83.3333333333333,4,2,1,50,0,0
28884,-111.111111111111,4,2,1,50,0,0
29245,-90.9090909090909,4,2,1,60,0,0
30149,-111.111111111111,4,2,1,60,0,0
30691,-90.9090909090909,4,2,1,60,0,0
31595,-111.111111111111,4,2,1,60,0,0
35028,-90.9090909090909,4,2,1,60,0,0
35570,-100,4,2,1,60,0,0
36474,-90.9090909090909,4,2,1,60,0,0
37016,-100,4,2,1,60,0,0
40811,-100,4,2,2,40,0,0
41173,-100,4,2,1,40,0,0
41354,-142.857142857143,4,2,1,40,0,0
46595,-100,4,2,1,60,0,0
53643,-100,4,2,1,65,0,0
54546,-100,4,2,4,50,0,0
54908,-125,4,2,1,65,0,0
55269,-71.4285714285714,4,2,4,70,0,1
55449,-71.4285714285714,4,2,1,70,0,1
55631,-66.6666666666667,4,2,1,70,0,1
55992,-71.4285714285714,4,2,1,70,0,1
56534,-58.8235294117647,4,2,1,70,0,1
57799,-50,4,2,1,70,0,1
58161,-66.6666666666667,4,2,1,70,0,1
58522,-58.8235294117647,4,2,1,70,0,1
58884,-66.6666666666667,4,2,1,70,0,1
59426,-62.5,4,2,1,70,0,1
59787,-66.6666666666667,4,2,1,70,0,1
59968,-55.5555555555556,4,2,1,70,0,1
60330,-52.6315789473684,4,2,1,70,0,1
61052,-71.4285714285714,4,2,3,70,0,1
61232,-71.4285714285714,4,2,1,70,0,1
61414,-66.6666666666667,4,2,1,70,0,1
61775,-71.4285714285714,4,2,1,70,0,1
62317,-58.8235294117647,4,2,1,70,0,1
63583,-50,4,2,1,70,0,1
63944,-66.6666666666667,4,2,1,70,0,1
64305,-58.8235294117647,4,2,1,70,0,1
64667,-66.6666666666667,4,2,1,70,0,1
65209,-58.8235294117647,4,2,1,70,0,1
66474,-71.4285714285714,4,2,1,70,0,1
66836,-71.4285714285714,4,2,3,70,0,0
67197,-71.4285714285714,4,2,1,70,0,0
67378,-100,4,2,1,70,0,0
78402,-250,4,2,1,40,0,0
84185,-250,4,2,1,50,0,0
84546,-200,4,2,1,50,0,0

[Colours]
Combo1 : 255,47,47
Combo2 : 183,183,219
Combo3 : 157,201,255

[HitObjects]
115,147,330,6,0,B|104:68|91:117|77:29,1,126,4|0,1:0|2:0,2:0:0:0:
397,359,691,22,0,P|401:345|406:332,6,22.5,2|0|0|0|2|0|0,3:2|3:0|3:0|3:0|3:2|3:0|3:0,2:0:0:0:
482,227,1052,21,8,2:0:0:0:
401,260,1233,1,2,2:0:0:0:
344,188,1414,1,0,3:0:0:0:
295,262,1595,1,2,2:0:0:0:
206,255,1775,1,0,3:0:0:0:
234,339,1956,1,2,2:0:0:0:
44,326,2137,22,0,B|130:349|80:357|158:377,1,126,4|2,1:0|2:0,2:0:0:0:
118,263,2498,1,8,2:0:0:0:
319,48,2679,6,0,B|292:133|286:82|264:159,1,126,6|2,1:2|2:0,2:0:0:0:
248,0,3040,1,0,2:0:0:0:
474,346,3221,22,0,B|403:297|451:300|381:251,1,126,4|0,1:0|2:0,2:0:0:0:
171,27,3583,22,0,P|175:41|178:54,6,22.5,2|0|0|0|2|0|0,3:2|3:0|3:0|3:0|3:2|3:0|3:0,2:0:0:0:
128,110,3944,21,8,2:0:0:0:
50,148,4125,1,2,2:0:0:0:
110,211,4305,1,0,3:0:0:0:
83,290,4486,1,2,2:0:0:0:
168,310,4667,1,0,3:0:0:0:
217,381,4848,1,2,2:0:0:0:
374,246,5028,22,0,B|307:288|354:287|256:360,1,126,4|2,1:0|2:0,2:0:0:0:
361,380,5390,1,8,2:0:0:0:
22,84,5570,6,0,B|46:159|54:112|94:230,1,126,6|2,1:2|2:0,2:0:0:0:
82,16,5932,1,0,2:0:0:0:
490,145,6113,22,0,B|426:91|449:142|347:63,1,126,4|0,1:0|2:0,2:0:0:0:
13,258,6474,22,0,P|27:262|39:266,6,22.5,2|0|0|0|2|0|0,3:2|3:0|3:0|3:0|3:2|3:0|3:0,2:0:0:0:
60,371,6836,21,8,2:0:0:0:
105,297,7016,1,2,2:0:0:0:
185,327,7197,1,0,3:0:0:0:
209,243,7378,1,2,2:0:0:0:
283,197,7558,1,0,3:0:0:0:
230,133,7739,1,2,2:0:0:0:
380,9,7920,22,0,B|311:47|338:10|243:62,1,126,4|2,1:0|2:0,2:0:0:0:
401,90,8281,1,8,2:0:0:0:
244,384,8462,6,0,B|276:312|276:357|321:259,1,126,6|2,1:2|2:0,2:0:0:0:
363,354,8823,1,0,2:0:0:0:
22,123,9004,22,0,B|88:164|63:126|156:183,1,126,4|0,1:0|2:0,2:0:0:0:
484,105,9366,22,0,P|478:118|470:131,6,22.5,2|0|0|0|2|0|0,3:2|3:0|3:0|3:0|3:2|3:0|3:0,2:0:0:0:
511,195,9727,21,8,2:0:0:0:
430,218,9908,1,2,2:0:0:0:
444,302,10089,1,0,3:0:0:0:
363,296,10269,1,2,2:0:0:0:
303,362,10450,1,0,3:0:0:0:
251,298,10631,1,2,2:0:0:0:
62,324,10811,22,0,B|130:263|113:311|197:244,1,126,4|2,1:0|2:0,2:0:0:0:
3,264,11173,1,8,2:0:0:0:
312,4,11354,6,0,B|251:72|299:55|232:139,1,126,6|2,1:2|2:0,2:0:0:0:
372,66,11715,1,0,2:0:0:0:
436,363,11896,21,4,1:0:0:0:
436,363,12257,2,0,B|416:351|416:351|426:304,1,54,2|0,2:0|2:0,2:0:0:0:
495,271,12438,2,0,B|515:283|515:283|505:330,1,54,0|0,2:0|2:0,2:0:0:0:
444,376,12619,6,0,P|340:341|176:294,1,243,4|0,1:0|2:0,2:0:0:0:
177,198,12980,1,2,2:0:0:0:
8,326,13161,22,0,B|23:355|34:385|34:385|162:347|206:340,1,189,10|0,2:0|2:0,2:0:0:0:
405,199,13522,2,0,B|385:225|367:260|367:260|249:195|207:181,1,189,10|0,2:0|2:0,2:0:0:0:
98,12,13884,1,8,2:0:0:0:
98,12,14064,6,0,P|112:59|117:104,1,63,8|0,2:0|2:0,2:0:0:0:
195,161,14245,2,0,P|218:122|242:87,1,63,0|0,2:0|2:0,2:0:0:0:
323,49,14426,6,0,L|317:22,8,24.75,0|0|0|0|0|0|0|0|4,3:2|2:0|2:0|2:0|2:0|2:0|2:0|2:0|1:0,2:0:0:0:
35,79,17679,6,0,P|53:140|63:206,1,90,4|2,1:0|2:0,2:0:0:0:
228,256,18040,1,8,2:0:0:0:
258,166,18221,1,2,2:0:0:0:
90,286,18402,5,2,1:2:0:0:
272,381,18583,1,2,2:0:0:0:
272,381,18673,1,2,2:0:0:0:
272,381,18763,2,0,P|287:335|312:279,1,90,8|2,2:0|2:0,2:0:0:0:
326,21,19125,21,0,1:0:0:0:
412,98,19305,1,2,2:0:0:0:
258,166,19486,2,0,P|210:142|159:124,1,90,10|2,2:0|2:0,2:0:0:0:
400,261,19848,6,0,P|427:213|465:160,1,90,2|0,1:2|2:0,2:0:0:0:
289,374,20209,1,8,2:0:0:0:
261,294,20390,1,2,2:0:0:0:
429,350,20570,22,0,P|475:367|520:388,1,90,0|2,1:0|2:0,2:0:0:0:
355,177,20932,2,0,P|333:124|316:68,1,90,8|2,2:0|2:0,2:0:0:0:
71,233,21293,5,2,1:2:0:0:
261,294,21474,1,2,2:0:0:0:
197,97,21655,1,8,2:0:0:0:
184,204,21836,21,2,2:0:0:0:
184,204,21926,1,2,2:0:0:0:
184,204,22016,2,0,P|239:188|294:176,1,90,0|2,1:0|2:0,2:0:0:0:
336,51,22378,2,0,P|279:35|228:18,1,90,8|2,2:0|2:0,2:0:0:0:
414,266,22739,2,0,P|465:236|439:108,1,180,2|8,1:2|2:0,2:0:0:0:
274,131,23281,22,0,P|284:168|289:193,1,58.5,2|2,2:0|2:0,2:0:0:0:
359,377,23462,22,0,P|316:361|266:350,1,90,4|2,1:0|2:0,2:0:0:0:
118,252,23823,1,8,2:0:0:0:
207,200,24004,1,2,2:0:0:0:
68,362,24185,22,0,B|43:347|15:335|15:335|30:293|46:201,1,180,2|8,1:2|2:0,2:0:0:0:
178,21,24727,1,2,2:0:0:0:
297,198,24908,6,0,P|247:181|181:163,1,90,0|2,1:0|2:0,2:0:0:0:
55,87,25269,1,8,2:0:0:0:
118,252,25450,1,2,2:0:0:0:
203,30,25631,2,0,P|219:23|326:124,1,180,2|8,1:2|2:0,2:0:0:0:
443,268,26173,21,2,2:0:0:0:
443,268,26263,1,2,2:0:0:0:
443,268,26354,2,0,P|460:210|477:164,1,90,0|2,1:0|2:0,2:0:0:0:
341,100,26715,2,0,P|324:158|307:204,1,90,8|2,2:0|2:0,2:0:0:0:
312,373,27076,5,2,1:2:0:0:
232,333,27257,1,2,2:0:0:0:
356,265,27438,2,0,P|400:247|452:221,1,90,8|2,2:0|2:0,2:0:0:0:
248,0,27799,21,0,1:0:0:0:
93,114,27980,1,2,2:0:0:0:
260,196,28161,1,8,2:0:0:0:
188,105,28342,1,2,2:0:0:0:
105,280,28522,22,0,B|117:268|121:283|121:283|136:275|140:288|140:288|152:283|159:294|159:294|173:290|188:301|188:301|206:301|224:311|224:311|250:315|276:329,1,162,2|2,1:2|2:0,2:0:0:0:
317,364,28884,22,0,B|358:328|358:328|324:248,1,121.5,8|2,2:0|2:0,2:0:0:0:
319,256,29245,22,0,P|390:237|425:230,1,99,4|2,1:0|2:0,2:0:0:0:
447,245,29516,2,0,B|482:212|482:212|452:140,1,99,2|0,2:0|2:0,2:0:0:0:
473,89,29787,1,2,2:0:0:0:
370,158,29968,5,0,1:0:0:0:
290,92,30149,2,0,L|307:1,1,81.0000000000001,2|8,2:0|2:0,2:0:0:0:
308,8,30510,1,2,2:0:0:0:
196,124,30691,22,0,B|187:136|176:152|176:152|133:138|97:128,1,99,4|2,1:0|2:0,2:0:0:0:
90,114,30962,2,0,B|56:132|56:132|71:214,1,99,2|0,2:0|2:0,2:0:0:0:
40,266,31233,1,2,2:0:0:0:
204,332,31414,5,0,1:0:0:0:
99,381,31595,2,0,P|111:338|131:281,1,81.0000000000001,2|8,2:0|2:0,2:0:0:0:
235,248,31956,1,2,2:0:0:0:
168,100,32137,22,0,P|184:141|200:199,1,81.0000000000001,4|2,1:0|2:0,2:0:0:0:
347,241,32498,2,0,B|375:215|394:202|394:202|375:160|360:92,1,162,8|0,2:0|1:0,2:0:0:0:
284,74,33040,1,2,2:0:0:0:
253,239,33221,2,0,P|211:257|154:286,1,81.0000000000001,8|0,2:0|2:0,2:0:0:0:
37,344,33583,5,2,1:2:0:0:
16,266,33763,1,2,2:0:0:0:
136,349,33944,2,0,P|183:364|225:379,1,81.0000000000001,10|2,2:0|2:0,2:0:0:0:
408,258,34305,21,0,1:0:0:0:
347,354,34486,1,8,2:0:0:0:
347,354,34576,1,8,2:0:0:0:
347,354,34667,1,0,1:0:0:0:
283,220,34848,1,0,1:0:0:0:
423,269,35028,6,0,B|452:248|452:248|462:212|477:172,1,99,4|2,1:0|2:0,2:0:0:0:
471,187,35299,1,2,2:0:0:0:
471,187,35390,1,8,2:0:0:0:
432,50,35570,22,0,B|385:40|353:77|356:79|359:81|339:120|266:119,1,180,2|2,2:0|2:0,2:0:0:0:
204,67,36113,1,8,2:0:0:0:
161,153,36293,1,2,2:0:0:0:
31,91,36474,6,0,P|48:151|56:210,1,99,4|2,1:0|2:0,2:0:0:0:
53,187,36745,1,2,2:0:0:0:
53,187,36836,1,8,2:0:0:0:
11,349,37016,22,0,P|45:292|161:298,1,180,2|2,2:0|2:0,2:0:0:0:
169,330,37468,1,2,2:0:0:0:
169,330,37558,2,0,B|180:349|180:349|268:371,1,90,8|2,2:0|2:0,2:0:0:0:
486,282,37920,5,4,1:0:0:0:
374,373,38101,1,2,2:0:0:0:
340,213,38281,1,8,2:0:0:0:
400,289,38462,21,2,2:0:0:0:
400,289,38552,1,2,2:0:0:0:
400,289,38643,2,0,P|447:275|494:262,1,90,0|2,1:0|2:0,2:0:0:0:
422,123,39004,1,8,2:0:0:0:
260,229,39185,6,0,P|213:237|141:116,1,180,2|2,2:0|2:0,2:0:0:0:
61,0,39727,1,10,2:0:0:0:
230,113,39908,1,10,2:0:0:0:
230,113,39998,1,8,2:0:0:0:
230,113,40089,1,2,1:2:0:0:
29,196,40269,1,8,2:0:0:0:
156,303,40450,22,0,B|188:275|188:275|164:215,1,90,0|0,1:0|1:0,2:0:0:0:
134,146,40811,1,4,1:2:0:0:
134,146,41173,5,2,2:0:0:0:
156,303,41354,2,0,P|199:289|234:279,1,62.9999999999999,2|0,1:2|1:0,2:0:0:0:
277,226,41715,1,0,2:0:0:0:
391,379,41896,1,8,2:0:0:0:
467,343,42076,21,2,1:2:0:0:
467,343,42438,2,0,P|478:298|491:257,1,62.9999999999999,2|2,1:2|2:0,2:0:0:0:
431,216,42799,1,2,1:2:0:0:
487,152,42980,1,2,1:2:0:0:
487,152,43342,2,0,P|501:108|512:75,1,62.9999999999999,8|0,2:0|2:0,2:0:0:0:
420,6,43703,6,0,B|348:10|377:48|284:46,1,126,2|2,1:2|2:0,2:0:0:0:
231,10,44245,1,2,1:2:0:0:
197,83,44426,2,0,P|156:93|114:107,1,62.9999999999999,2|0,1:2|2:0,2:0:0:0:
11,21,44787,1,8,2:0:0:0:
15,25,44968,1,2,2:0:0:0:
46,102,45149,22,0,P|56:140|61:178,1,62.9999999999999,2|2,1:2|2:0,2:0:0:0:
164,225,45510,2,0,P|138:257|117:298,1,62.9999999999999,2|2,1:2|2:0,2:0:0:0:
49,358,45872,1,0,1:0:0:0:
42,353,45962,1,0,1:0:0:0:
35,349,46052,1,0,1:0:0:0:
28,346,46143,1,0,1:0:0:0:
21,342,46233,1,10,2:0:0:0:
255,124,46595,6,0,P|313:146|316:263,1,180,4|8,1:0|2:0,2:0:0:0:
241,370,47137,2,0,P|307:342|430:304,1,180,2|2,2:0|2:0,2:0:0:0:
492,182,47679,1,8,2:0:0:0:
477,366,47860,22,0,B|510:333|510:333|491:275,1,90,2|2,2:0|1:2,2:0:0:0:
427,107,48221,1,0,2:0:0:0:
324,252,48402,2,0,P|374:233|423:218,1,90,10|2,2:0|2:0,2:0:0:0:
491,30,48763,2,0,P|459:82|327:64,1,180,2|8,1:2|2:0,2:0:0:0:
278,12,49305,1,2,2:0:0:0:
215,178,49486,6,0,P|148:159|94:149,1,90,4|0,1:0|2:0,2:0:0:0:
23,83,49848,1,8,2:0:0:0:
23,83,50209,2,0,P|38:144|51:227,1,135,2|2,1:2|2:0,2:0:0:0:
32,237,50570,2,0,P|75:247|118:260,1,90,8|2,2:0|2:0,2:0:0:0:
301,356,50932,21,2,1:2:0:0:
187,381,51113,2,0,P|210:324|222:284,1,90,2|10,2:0|2:0,2:0:0:0:
261,128,51474,1,2,2:0:0:0:
265,132,51655,2,0,P|310:164|330:215,1,90,2|2,1:2|2:0,2:0:0:0:
133,273,52016,2,0,P|123:221|108:171,1,90,10|0,2:0|3:0,2:0:0:0:
194,14,52378,5,0,1:0:0:0:
194,14,52920,1,2,1:2:0:0:
267,254,53101,21,8,2:0:0:0:
58,119,53281,1,2,1:2:0:0:
63,108,53372,1,2,1:2:0:0:
68,95,53462,1,2,1:2:0:0:
370,207,53643,5,8,2:0:0:0:
370,207,54004,21,8,2:0:0:0:
75,292,54185,1,2,2:0:0:0:
292,88,54366,1,10,2:0:0:0:
206,378,54546,1,10,2:0:0:0:
206,378,54908,6,0,P|201:343|191:298,1,72,2|2,2:0|2:0,2:0:0:0:
7,145,55269,22,0,B|24:159|38:177|38:177|70:160|118:138,1,126,4|0,1:0|2:0,2:0:0:0:
330,31,55631,2,0,B|304:20|275:3|275:3|309:66|328:163,1,202.5,10|0,2:0|2:0,2:0:0:0:
391,200,55992,6,0,P|403:164|419:129,1,63,2|0,1:2|2:0,2:0:0:0:
207,75,56173,1,0,2:0:0:0:
207,75,56263,1,0,2:0:0:0:
207,75,56354,2,0,P|219:104|227:134,1,63,10|0,2:0|2:0,2:0:0:0:
191,332,56534,22,0,P|252:307|347:282,1,153,2|2,2:0|1:2,2:0:0:0:
411,313,56805,1,0,2:0:0:0:
419,320,56896,6,0,B|434:353|434:353|404:391,1,76.5,2|0,2:0|2:0,2:0:0:0:
285,217,57076,2,0,P|304:176|329:131,1,76.5,10|0,2:0|2:0,2:0:0:0:
191,332,57257,2,0,P|144:314|101:302,1,76.5,2|0,2:0|2:0,2:0:0:0:
0,204,57438,21,2,1:2:0:0:
80,384,57619,1,0,2:0:0:0:
80,384,57709,1,0,2:0:0:0:
80,384,57799,2,0,P|110:301|162:178,1,180,10|2,2:0|2:0,2:0:0:0:
491,41,58161,6,0,B|473:56|460:74|460:74|425:56|370:36,1,135,2|0,1:2|2:0,2:0:0:0:
294,123,58432,1,0,2:0:0:0:
294,123,58522,2,0,P|202:144|53:189,1,229.5,10|0,2:0|2:0,2:0:0:0:
65,191,58884,22,0,B|46:171|46:171|65:99,1,67.5,2|0,1:2|2:0,2:0:0:0:
194,206,59064,1,0,2:0:0:0:
194,206,59155,1,0,2:0:0:0:
194,206,59245,2,0,P|227:212|259:221,1,67.5,10|0,2:0|2:0,2:0:0:0:
466,384,59426,6,0,B|435:363|409:349|409:349|430:289|445:219,1,144,2|0,2:0|1:2,2:0:0:0:
361,222,59697,1,0,2:0:0:0:
363,233,59787,2,0,P|343:289|332:318,1,67.5,2|0,2:0|2:0,2:0:0:0:
171,369,59968,2,0,B|150:351|150:351|144:320|132:285,1,80.9999999999999,10|0,2:0|2:0,2:0:0:0:
248,27,60149,1,10,2:0:0:0:
248,27,60239,1,10,2:0:0:0:
248,27,60330,6,0,B|235:-17|314:-50|371:6|383:71|287:81|331:170,1,256.5,4|0,1:0|2:0,2:0:0:0:
215,98,60691,2,0,B|179:67|106:127|142:205|198:239|247:156|309:233,1,256.5,4|0,1:2|2:0,2:0:0:0:
392,269,61052,6,0,B|417:247|434:238|434:238|414:208|387:155,1,126,4|0,1:0|2:0,2:0:0:0:
235,338,61414,2,0,P|159:306|36:264,1,202.5,10|0,2:0|2:0,2:0:0:0:
8,354,61775,6,0,B|32:363|32:363|85:343,1,63,2|0,1:2|2:0,2:0:0:0:
154,258,61956,1,0,2:0:0:0:
154,258,62046,1,0,2:0:0:0:
154,258,62137,2,0,P|144:215|137:176,1,63,10|0,2:0|2:0,2:0:0:0:
28,57,62317,22,0,B|71:45|98:76|96:78|93:80|124:114|175:99,1,153,2|2,2:0|1:2,2:0:0:0:
233,42,62589,1,0,2:0:0:0:
237,32,62679,6,0,P|200:22|149:0,1,76.5,2|0,2:0|2:0,2:0:0:0:
81,126,62860,2,0,B|53:146|53:146|62:208,1,76.5,10|0,2:0|2:0,2:0:0:0:
185,285,63040,2,0,P|223:269|261:258,1,76.5,2|0,2:0|2:0,2:0:0:0:
469,183,63221,21,2,1:2:0:0:
345,377,63402,1,0,2:0:0:0:
345,377,63492,1,0,2:0:0:0:
345,377,63583,2,0,P|363:294|391:186,1,180,10|2,2:0|2:0,2:0:0:0:
41,293,63944,6,0,B|39:316|31:337|31:337|66:355|114:389,1,135,2|0,1:2|2:0,2:0:0:0:
241,327,64215,1,0,2:0:0:0:
241,327,64305,2,0,P|350:293|462:267,1,229.5,10|0,2:0|2:0,2:0:0:0:
470,271,64667,22,0,B|487:249|487:249|470:199,1,67.5,2|0,1:2|2:0,2:0:0:0:
412,104,64848,1,0,2:0:0:0:
412,104,64938,1,0,2:0:0:0:
412,104,65028,2,0,P|375:114|337:124,1,67.5,10|0,2:0|2:0,2:0:0:0:
241,222,65209,6,0,P|196:206|81:178,1,153,2|0,2:0|1:2,2:0:0:0:
12,137,65480,1,0,2:0:0:0:
5,145,65570,2,0,P|18:184|34:257,1,76.5,2|0,2:0|2:0,2:0:0:0:
39,372,65751,2,0,B|66:347|78:325|78:325|109:336|174:352,1,153,10|2,2:0|2:0,2:0:0:0:
465,226,66113,22,0,B|428:222|405:212|405:212|387:240|346:293,1,153,4|10,1:0|2:0,2:0:0:0:
296,218,66384,1,10,2:0:0:0:
291,212,66474,2,0,P|278:173|263:135,1,63,4|0,1:2|2:0,2:0:0:0:
402,13,66655,21,10,2:0:0:0:
424,68,66745,1,10,2:0:0:0:
379,106,66836,1,4,1:0:0:0:
158,5,67197,5,8,2:0:0:0:
97,69,67378,2,0,P|50:82|2:98,1,90,2|2,2:0|1:2,2:0:0:0:
190,116,67739,1,2,2:0:0:0:
201,122,67830,1,0,2:0:0:0:
209,128,67920,1,10,2:0:0:0:
148,192,68101,1,2,2:0:0:0:
244,298,68281,6,0,P|263:237|279:191,1,90,2|0,1:2|2:0,2:0:0:0:
111,353,68643,2,0,P|100:309|87:266,1,90,8|2,2:0|2:0,2:0:0:0:
46,50,69004,21,2,1:2:0:0:
129,70,69185,1,2,2:0:0:0:
55,188,69366,5,10,2:0:0:0:
0,121,69546,1,2,2:0:0:0:
134,155,69727,22,0,B|182:168|212:133|210:131|206:129|241:91|298:107,2,180,2|8|2,1:2|2:0|1:2,2:0:0:0:
247,225,70631,1,2,2:0:0:0:
247,225,70721,1,0,2:0:0:0:
247,225,70811,2,0,P|256:271|264:323,1,90,10|2,2:0|2:0,2:0:0:0:
390,362,71173,5,2,1:2:0:0:
394,357,71354,1,2,2:0:0:0:
433,251,71534,2,0,P|390:265|342:278,1,90,8|2,2:0|2:0,2:0:0:0:
383,373,71896,2,0,P|432:357|485:345,1,90,2|2,1:2|2:0,2:0:0:0:
439,243,72257,2,0,P|396:257|348:270,1,90,10|2,2:0|2:0,2:0:0:0:
213,380,72619,22,0,P|160:357|160:234,1,180,2|8,1:2|2:0,2:0:0:0:
294,86,73161,2,0,P|237:70|192:55,1,90,2|2,2:0|1:2,2:0:0:0:
74,115,73522,1,2,2:0:0:0:
76,123,73613,1,0,2:0:0:0:
77,130,73703,1,10,2:0:0:0:
149,246,73884,1,2,2:0:0:0:
278,174,74064,6,0,P|335:201|342:313,1,180,2|8,1:2|2:0,2:0:0:0:
252,373,74607,1,2,2:0:0:0:
252,373,74697,1,2,2:0:0:0:
252,373,74787,2,0,P|203:363|160:354,1,90,2|2,1:2|2:0,2:0:0:0:
115,229,75149,2,0,P|164:239|207:248,1,90,10|2,2:0|2:0,2:0:0:0:
413,357,75510,22,0,P|445:320|443:252,1,90,2|0,1:2|2:0,2:0:0:0:
305,195,75872,2,0,P|308:250|334:283,1,90,8|2,2:0|2:0,2:0:0:0:
491,193,76233,2,0,P|428:179|391:166,1,90,2|2,1:2|2:0,2:0:0:0:
362,58,76595,1,10,2:0:0:0:
188,103,76775,6,0,P|207:176|236:291,2,180,4|2|10,1:0|2:0|2:0,2:0:0:0:
112,29,77679,1,6,1:2:0:0:
289,131,77860,1,2,2:0:0:0:
289,131,77950,1,0,2:0:0:0:
289,131,78040,2,0,P|300:71|311:32,1,90,10|2,2:0|2:0,2:0:0:0:
141,237,78402,22,0,P|98:221|68:212,3,72,4|0|0|0,1:2|1:2|1:2|1:2,2:0:0:0:
154,338,79848,2,0,P|197:322|227:313,3,72,0|0|0|0,1:2|1:2|1:2|1:2,2:0:0:0:
324,210,81293,2,0,P|313:176|304:131,3,72,0|0|0|0,1:2|1:2|1:2|1:2,2:0:0:0:
412,301,82739,5,0,1:2:0:0:
412,301,83101,1,0,1:2:0:0:
412,301,83462,2,0,P|424:259|437:221,1,72,0|0,1:2|1:2,2:0:0:0:
501,45,84185,5,0,1:2:0:0:
501,45,84546,6,0,P|460:34|440:27,1,45,2|0,1:2|2:0,2:0:0:0:
403,90,84908,2,0,P|370:101|347:108,1,45,0|0,1:2|2:0,2:0:0:0:
261,49,85269,2,0,P|221:38|199:32,1,45,2|0,1:2|2:0,2:0:0:0:
51,146,85631,21,0,1:2:0:0:
51,146,85992,22,0,P|66:195|69:208,1,45,2|0,1:2|2:0,2:0:0:0:
118,285,86354,2,0,P|133:245|141:227,1,45,0|0,1:2|2:0,2:0:0:0:
233,212,86715,2,0,P|267:226|284:232,1,45,2|0,1:2|2:0,2:0:0:0:
431,207,87076,5,0,1:2:0:0:
431,207,87438,6,0,P|416:248|411:268,1,45,2|0,1:2|2:0,2:0:0:0:
302,365,87799,2,0,P|268:353|242:345,1,45,0|0,1:2|2:0,2:0:0:0:
124,268,88161,2,0,P|91:283|72:291,1,45,2|0,1:2|2:0,2:0:0:0:
22,381,88522,6,0,P|15:357|-2:315,2,67.5,0|0|0,1:0|1:0|1:0,2:0:0:0:
